osu file format v14

[General]
AudioFilename: audio.mp3
AudioLeadIn: 0
PreviewTime: 72888
Countdown: 1
SampleSet: Normal
StackLeniency: 0.7
Mode: 3
LetterboxInBreaks: 0
SpecialStyle: 0
WidescreenStoryboard: 0

[Editor]
Bookmarks: 59517,119048,133930
DistanceSpacing: 1.1
BeatDivisor: 12
GridSize: 4
TimelineZoom: 1.5

[Metadata]
Title:Bboom Bboom (Matsura Edit)
TitleUnicode:Bboom Bboom (Matsura Edit)
Artist:MOMOLAND
ArtistUnicode:MOMOLAND
Creator:Azubeur
Version:Heartbeat
Source:
Tags:
BeatmapID:1563505
BeatmapSetID:741198

[Difficulty]
HPDrainRate:7
CircleSize:4
OverallDifficulty:7
ApproachRate:5
SliderMultiplier:1.4
SliderTickRate:1

[Events]
//Background and Video events
0,0,"background.jpg",0,0
//Break Periods
//Storyboard Layer 0 (Background)
//Storyboard Layer 1 (Fail)
//Storyboard Layer 2 (Pass)
//Storyboard Layer 3 (Foreground)
//Storyboard Sound Samples

[TimingPoints]
13930,465.080226339044,4,1,0,10,1,0

[HitObjects]
64,192,13930,128,0,14162:0:0:0:0:
192,192,14162,1,0,0:0:0:0:
320,192,14278,1,0,0:0:0:0:
448,192,14278,1,0,0:0:0:0:
192,192,14395,1,0,0:0:0:0:
64,192,14395,1,0,0:0:0:0:
320,192,14627,1,0,0:0:0:0:
64,192,14627,1,0,0:0:0:0:
448,192,14627,1,0,0:0:0:0:
192,192,14860,1,0,0:0:0:0:
448,192,14860,128,0,15092:0:0:0:0:
64,192,15092,1,0,0:0:0:0:
192,192,15208,1,0,0:0:0:0:
320,192,15325,128,0,15557:0:0:0:0:
448,192,15325,1,0,0:0:0:0:
64,192,15557,1,0,0:0:0:0:
192,192,15674,1,0,0:0:0:0:
448,192,15790,128,0,16022:0:0:0:0:
320,192,15790,1,0,0:0:0:0:
320,192,16022,128,0,16255:0:0:0:0:
192,192,16022,1,0,0:0:0:0:
192,192,16255,128,0,16487:0:0:0:0:
448,192,16255,1,0,0:0:0:0:
448,192,16487,128,0,16720:0:0:0:0:
64,192,16487,1,0,0:0:0:0:
64,192,16720,128,0,16953:0:0:0:0:
320,192,16720,1,0,0:0:0:0:
192,192,16953,1,0,0:0:0:0:
448,192,17069,1,0,0:0:0:0:
320,192,17185,128,0,17418:0:0:0:0:
64,192,17185,1,0,0:0:0:0:
192,192,17418,1,0,0:0:0:0:
448,192,17534,1,0,0:0:0:0:
320,192,17650,128,0,17883:0:0:0:0:
64,192,17650,1,0,0:0:0:0:
192,192,17883,128,0,18115:0:0:0:0:
448,192,17883,1,0,0:0:0:0:
448,192,18115,128,0,18348:0:0:0:0:
64,192,18115,1,0,0:0:0:0:
64,192,18348,128,0,18580:0:0:0:0:
320,192,18348,1,0,0:0:0:0:
320,192,18580,128,0,18813:0:0:0:0:
192,192,18580,1,0,0:0:0:0:
448,192,18813,1,0,0:0:0:0:
64,192,18929,1,0,0:0:0:0:
320,192,19045,128,0,19278:0:0:0:0:
448,192,19045,1,0,0:0:0:0:
192,192,19278,1,0,0:0:0:0:
64,192,19394,1,0,0:0:0:0:
448,192,19510,128,0,19743:0:0:0:0:
320,192,19510,1,0,0:0:0:0:
64,192,19743,128,0,19976:0:0:0:0:
192,192,19743,1,0,0:0:0:0:
192,192,19976,128,0,20208:0:0:0:0:
448,192,19976,1,0,0:0:0:0:
448,192,20208,128,0,20441:0:0:0:0:
320,192,20208,1,0,0:0:0:0:
320,192,20441,128,0,20673:0:0:0:0:
64,192,20441,1,0,0:0:0:0:
192,192,20557,1,0,0:0:0:0:
448,192,20673,1,0,0:0:0:0:
192,192,20789,1,0,0:0:0:0:
64,192,20906,1,0,0:0:0:0:
448,192,20906,1,0,0:0:0:0:
320,192,21022,1,0,0:0:0:0:
192,192,21138,1,0,0:0:0:0:
64,192,21138,1,0,0:0:0:0:
448,192,21255,1,0,0:0:0:0:
320,192,21371,1,0,0:0:0:0:
192,192,21371,1,0,0:0:0:0:
64,192,21448,1,0,0:0:0:0:
448,192,21526,1,0,0:0:0:0:
320,192,21603,1,0,0:0:0:0:
64,192,21681,1,0,0:0:0:0:
192,192,21758,1,0,0:0:0:0:
320,192,21836,1,0,0:0:0:0:
448,192,21836,1,0,0:0:0:0:
64,192,21913,1,0,0:0:0:0:
192,192,21991,1,0,0:0:0:0:
448,192,22068,1,0,0:0:0:0:
320,192,22146,1,0,0:0:0:0:
192,192,22223,1,0,0:0:0:0:
448,192,22301,1,0,0:0:0:0:
64,192,22301,128,0,22533:0:0:0:0:
192,192,22533,1,0,0:0:0:0:
448,192,22650,1,0,0:0:0:0:
320,192,22766,128,0,22999:0:0:0:0:
64,192,22766,1,0,0:0:0:0:
448,192,22999,1,0,0:0:0:0:
64,192,23115,1,0,0:0:0:0:
192,192,23231,128,0,23464:0:0:0:0:
320,192,23231,1,0,0:0:0:0:
448,192,23464,128,0,23696:0:0:0:0:
64,192,23464,1,0,0:0:0:0:
64,192,23696,128,0,23929:0:0:0:0:
320,192,23696,1,0,0:0:0:0:
320,192,23929,128,0,24161:0:0:0:0:
192,192,23929,1,0,0:0:0:0:
192,192,24161,128,0,24394:0:0:0:0:
448,192,24161,1,0,0:0:0:0:
64,192,24394,1,0,0:0:0:0:
320,192,24510,1,0,0:0:0:0:
192,192,24626,128,0,24859:0:0:0:0:
64,192,24859,1,0,0:0:0:0:
320,192,24975,1,0,0:0:0:0:
448,192,25091,128,0,25324:0:0:0:0:
192,192,25091,1,0,0:0:0:0:
192,192,25324,128,0,25557:0:0:0:0:
320,192,25324,1,0,0:0:0:0:
320,192,25557,128,0,25789:0:0:0:0:
64,192,25557,1,0,0:0:0:0:
64,192,25789,128,0,26022:0:0:0:0:
448,192,25789,1,0,0:0:0:0:
448,192,26022,128,0,26254:0:0:0:0:
192,192,26022,1,0,0:0:0:0:
64,192,26254,1,0,0:0:0:0:
448,192,26370,128,0,26603:0:0:0:0:
192,192,26487,128,0,26603:0:0:0:0:
64,192,26719,1,0,0:0:0:0:
448,192,26835,128,0,27068:0:0:0:0:
320,192,26952,128,0,27068:0:0:0:0:
448,192,27184,128,0,27301:0:0:0:0:
192,192,27184,1,0,0:0:0:0:
64,192,27417,1,0,0:0:0:0:
192,192,27417,1,0,0:0:0:0:
448,192,27533,128,0,27649:0:0:0:0:
320,192,27649,1,0,0:0:0:0:
192,192,27882,128,0,28114:0:0:0:0:
448,192,27882,1,0,0:0:0:0:
320,192,28114,1,0,0:0:0:0:
192,192,28231,128,0,28347:0:0:0:0:
448,192,28347,128,0,28580:0:0:0:0:
64,192,28347,1,0,0:0:0:0:
192,192,28463,128,0,28580:0:0:0:0:
320,192,28580,1,0,0:0:0:0:
192,192,28696,128,0,28812:0:0:0:0:
448,192,28812,1,0,0:0:0:0:
64,192,28812,1,0,0:0:0:0:
320,192,28890,1,0,0:0:0:0:
192,192,28967,1,0,0:0:0:0:
448,192,29045,1,0,0:0:0:0:
320,192,29122,1,0,0:0:0:0:
192,192,29200,1,0,0:0:0:0:
448,192,29277,1,0,0:0:0:0:
320,192,29277,1,0,0:0:0:0:
64,192,29355,1,0,0:0:0:0:
192,192,29432,1,0,0:0:0:0:
320,192,29510,1,0,0:0:0:0:
192,192,29587,1,0,0:0:0:0:
448,192,29665,1,0,0:0:0:0:
320,192,29742,1,0,0:0:0:0:
64,192,29742,1,0,0:0:0:0:
192,192,29975,1,0,0:0:0:0:
64,192,29975,1,0,0:0:0:0:
448,192,30091,1,0,0:0:0:0:
192,192,30207,1,0,0:0:0:0:
320,192,30207,1,0,0:0:0:0:
64,192,30324,1,0,0:0:0:0:
320,192,30440,1,0,0:0:0:0:
448,192,30440,1,0,0:0:0:0:
192,192,30556,1,0,0:0:0:0:
320,192,30672,1,0,0:0:0:0:
64,192,30672,1,0,0:0:0:0:
448,192,30789,1,0,0:0:0:0:
192,192,30905,1,0,0:0:0:0:
64,192,30905,1,0,0:0:0:0:
192,192,31137,1,0,0:0:0:0:
320,192,31137,1,0,0:0:0:0:
320,192,31370,1,0,0:0:0:0:
192,192,31486,1,0,0:0:0:0:
64,192,31486,1,0,0:0:0:0:
320,192,31603,1,0,0:0:0:0:
448,192,31603,1,0,0:0:0:0:
64,192,31835,1,0,0:0:0:0:
320,192,32068,1,0,0:0:0:0:
192,192,32068,1,0,0:0:0:0:
448,192,32184,1,0,0:0:0:0:
64,192,32300,1,0,0:0:0:0:
192,192,32300,1,0,0:0:0:0:
320,192,32416,1,0,0:0:0:0:
64,192,32533,1,0,0:0:0:0:
448,192,32533,1,0,0:0:0:0:
320,192,32765,1,0,0:0:0:0:
192,192,32882,1,0,0:0:0:0:
320,192,32998,1,0,0:0:0:0:
448,192,32998,1,0,0:0:0:0:
64,192,33230,1,0,0:0:0:0:
448,192,33347,1,0,0:0:0:0:
192,192,33347,1,0,0:0:0:0:
64,192,33463,1,0,0:0:0:0:
320,192,33463,1,0,0:0:0:0:
448,192,33579,1,0,0:0:0:0:
320,192,33695,1,0,0:0:0:0:
192,192,33695,1,0,0:0:0:0:
64,192,33812,1,0,0:0:0:0:
320,192,33928,1,0,0:0:0:0:
448,192,33928,1,0,0:0:0:0:
448,192,34160,1,0,0:0:0:0:
192,192,34393,1,0,0:0:0:0:
448,192,34393,1,0,0:0:0:0:
320,192,34509,1,0,0:0:0:0:
64,192,34626,1,0,0:0:0:0:
192,192,34626,1,0,0:0:0:0:
448,192,34742,1,0,0:0:0:0:
64,192,34858,1,0,0:0:0:0:
320,192,34858,1,0,0:0:0:0:
192,192,34974,1,0,0:0:0:0:
320,192,35091,1,0,0:0:0:0:
448,192,35091,1,0,0:0:0:0:
64,192,35207,1,0,0:0:0:0:
320,192,35323,1,0,0:0:0:0:
192,192,35323,1,0,0:0:0:0:
448,192,35478,1,0,0:0:0:0:
64,192,35556,1,0,0:0:0:0:
192,192,35633,1,0,0:0:0:0:
320,192,35711,1,0,0:0:0:0:
64,192,35788,1,0,0:0:0:0:
192,192,35788,1,0,0:0:0:0:
320,192,36021,1,0,0:0:0:0:
448,192,36253,1,0,0:0:0:0:
64,192,36253,1,0,0:0:0:0:
320,192,36311,1,0,0:0:0:0:
192,192,36370,1,0,0:0:0:0:
448,192,36486,1,0,0:0:0:0:
192,192,36602,1,0,0:0:0:0:
64,192,36602,1,0,0:0:0:0:
320,192,36718,1,0,0:0:0:0:
448,192,36718,1,0,0:0:0:0:
192,192,36951,1,0,0:0:0:0:
64,192,37067,1,0,0:0:0:0:
320,192,37184,1,0,0:0:0:0:
448,192,37184,1,0,0:0:0:0:
192,192,37300,1,0,0:0:0:0:
64,192,37416,1,0,0:0:0:0:
320,192,37416,1,0,0:0:0:0:
448,192,37532,1,0,0:0:0:0:
320,192,37649,1,0,0:0:0:0:
192,192,37649,1,0,0:0:0:0:
448,192,37765,1,0,0:0:0:0:
192,192,37881,1,0,0:0:0:0:
64,192,37997,1,0,0:0:0:0:
320,192,38114,1,0,0:0:0:0:
448,192,38114,1,0,0:0:0:0:
64,192,38230,1,0,0:0:0:0:
192,192,38346,1,0,0:0:0:0:
320,192,38462,1,0,0:0:0:0:
192,192,38579,1,0,0:0:0:0:
64,192,38579,1,0,0:0:0:0:
448,192,38811,1,0,0:0:0:0:
64,192,38928,1,0,0:0:0:0:
448,192,39044,1,0,0:0:0:0:
320,192,39044,1,0,0:0:0:0:
320,192,39160,1,0,0:0:0:0:
64,192,39276,1,0,0:0:0:0:
448,192,39393,1,0,0:0:0:0:
320,192,39509,1,0,0:0:0:0:
192,192,39509,1,0,0:0:0:0:
192,192,39625,1,0,0:0:0:0:
320,192,39741,1,0,0:0:0:0:
64,192,39858,1,0,0:0:0:0:
448,192,39974,1,0,0:0:0:0:
192,192,39974,1,0,0:0:0:0:
320,192,39974,1,0,0:0:0:0:
64,192,40207,1,0,0:0:0:0:
320,192,40323,1,0,0:0:0:0:
64,192,40439,1,0,0:0:0:0:
192,192,40439,1,0,0:0:0:0:
448,192,40555,1,0,0:0:0:0:
320,192,40672,1,0,0:0:0:0:
192,192,40672,1,0,0:0:0:0:
448,192,40788,1,0,0:0:0:0:
192,192,40904,1,0,0:0:0:0:
64,192,40904,1,0,0:0:0:0:
448,192,41137,1,0,0:0:0:0:
448,192,41369,1,0,0:0:0:0:
320,192,41369,1,0,0:0:0:0:
192,192,41602,1,0,0:0:0:0:
192,192,41834,1,0,0:0:0:0:
320,192,41834,1,0,0:0:0:0:
64,192,42067,1,0,0:0:0:0:
320,192,42183,1,0,0:0:0:0:
64,192,42299,1,0,0:0:0:0:
448,192,42299,1,0,0:0:0:0:
320,192,42532,1,0,0:0:0:0:
320,192,42764,1,0,0:0:0:0:
64,192,42764,1,0,0:0:0:0:
448,192,42881,1,0,0:0:0:0:
192,192,42997,1,0,0:0:0:0:
192,192,43230,1,0,0:0:0:0:
448,192,43230,1,0,0:0:0:0:
320,192,43462,1,0,0:0:0:0:
192,192,43540,1,0,0:0:0:0:
64,192,43617,1,0,0:0:0:0:
320,192,43695,1,0,0:0:0:0:
448,192,43695,1,0,0:0:0:0:
192,192,43811,1,0,0:0:0:0:
64,192,43927,1,0,0:0:0:0:
320,192,44043,1,0,0:0:0:0:
64,192,44160,1,0,0:0:0:0:
192,192,44160,1,0,0:0:0:0:
448,192,44392,1,0,0:0:0:0:
64,192,44509,1,0,0:0:0:0:
320,192,44625,1,0,0:0:0:0:
192,192,44625,1,0,0:0:0:0:
320,192,44741,1,0,0:0:0:0:
64,192,44857,1,0,0:0:0:0:
192,192,44974,1,0,0:0:0:0:
320,192,45090,1,0,0:0:0:0:
448,192,45090,1,0,0:0:0:0:
448,192,45206,1,0,0:0:0:0:
64,192,45322,1,0,0:0:0:0:
64,192,45555,1,0,0:0:0:0:
192,192,45555,1,0,0:0:0:0:
448,192,45787,1,0,0:0:0:0:
448,192,46020,1,0,0:0:0:0:
320,192,46020,1,0,0:0:0:0:
192,192,46253,1,0,0:0:0:0:
448,192,46369,1,0,0:0:0:0:
192,192,46485,1,0,0:0:0:0:
64,192,46485,1,0,0:0:0:0:
64,192,46601,1,0,0:0:0:0:
320,192,46718,1,0,0:0:0:0:
192,192,46834,1,0,0:0:0:0:
320,192,46950,1,0,0:0:0:0:
64,192,46950,1,0,0:0:0:0:
320,192,47066,1,0,0:0:0:0:
448,192,47183,1,0,0:0:0:0:
448,192,47415,1,0,0:0:0:0:
64,192,47415,1,0,0:0:0:0:
192,192,47648,1,0,0:0:0:0:
192,192,47880,1,0,0:0:0:0:
320,192,47880,1,0,0:0:0:0:
448,192,48113,1,0,0:0:0:0:
448,192,48345,1,0,0:0:0:0:
64,192,48345,1,0,0:0:0:0:
64,192,48462,1,0,0:0:0:0:
192,192,48578,1,0,0:0:0:0:
448,192,48694,1,0,0:0:0:0:
192,192,48811,1,0,0:0:0:0:
320,192,48811,1,0,0:0:0:0:
320,192,48927,1,0,0:0:0:0:
448,192,49043,1,0,0:0:0:0:
448,192,49276,1,0,0:0:0:0:
320,192,49276,1,0,0:0:0:0:
64,192,49508,1,0,0:0:0:0:
64,192,49741,1,0,0:0:0:0:
320,192,49741,1,0,0:0:0:0:
192,192,49973,1,0,0:0:0:0:
320,192,50206,1,0,0:0:0:0:
192,192,50206,1,0,0:0:0:0:
64,192,50322,1,0,0:0:0:0:
448,192,50322,1,0,0:0:0:0:
320,192,50438,1,0,0:0:0:0:
448,192,50671,1,0,0:0:0:0:
192,192,50671,1,0,0:0:0:0:
64,192,50787,1,0,0:0:0:0:
320,192,50787,1,0,0:0:0:0:
192,192,50903,1,0,0:0:0:0:
64,192,51136,1,0,0:0:0:0:
192,192,51136,1,0,0:0:0:0:
320,192,51252,1,0,0:0:0:0:
448,192,51252,1,0,0:0:0:0:
64,192,51368,1,0,0:0:0:0:
192,192,51485,1,0,0:0:0:0:
320,192,51601,1,0,0:0:0:0:
64,192,51601,1,0,0:0:0:0:
448,192,51834,1,0,0:0:0:0:
64,192,52066,128,0,52764:0:0:0:0:
320,192,52066,1,0,0:0:0:0:
448,192,52299,1,0,0:0:0:0:
192,192,52415,1,0,0:0:0:0:
320,192,52531,128,0,53229:0:0:0:0:
192,192,52764,1,0,0:0:0:0:
448,192,52880,1,0,0:0:0:0:
192,192,52996,128,0,53461:0:0:0:0:
448,192,53229,1,0,0:0:0:0:
64,192,53461,1,0,0:0:0:0:
448,192,53461,1,0,0:0:0:0:
64,192,53694,1,0,0:0:0:0:
192,192,53694,1,0,0:0:0:0:
320,192,53810,1,0,0:0:0:0:
192,192,53926,1,0,0:0:0:0:
448,192,53926,1,0,0:0:0:0:
64,192,54043,1,0,0:0:0:0:
320,192,54159,1,0,0:0:0:0:
448,192,54159,1,0,0:0:0:0:
192,192,54275,1,0,0:0:0:0:
320,192,54391,1,0,0:0:0:0:
64,192,54391,1,0,0:0:0:0:
192,192,54508,1,0,0:0:0:0:
448,192,54624,1,0,0:0:0:0:
320,192,54624,1,0,0:0:0:0:
448,192,54740,1,0,0:0:0:0:
64,192,54857,1,0,0:0:0:0:
320,192,54857,1,0,0:0:0:0:
448,192,55089,128,0,55554:0:0:0:0:
192,192,55089,1,0,0:0:0:0:
320,192,55322,1,0,0:0:0:0:
192,192,55322,128,0,55554:0:0:0:0:
64,192,55554,1,0,0:0:0:0:
320,192,55670,1,0,0:0:0:0:
64,192,55787,1,0,0:0:0:0:
448,192,55787,1,0,0:0:0:0:
448,192,56019,1,0,0:0:0:0:
448,192,56252,1,0,0:0:0:0:
320,192,56252,1,0,0:0:0:0:
192,192,56484,1,0,0:0:0:0:
192,192,56717,1,0,0:0:0:0:
64,192,56717,1,0,0:0:0:0:
448,192,56833,1,0,0:0:0:0:
320,192,56949,1,0,0:0:0:0:
320,192,57182,1,0,0:0:0:0:
192,192,57182,1,0,0:0:0:0:
448,192,57415,1,0,0:0:0:0:
64,192,57531,1,0,0:0:0:0:
320,192,57647,1,0,0:0:0:0:
448,192,57647,128,0,58112:0:0:0:0:
64,192,57880,1,0,0:0:0:0:
64,192,58112,1,0,0:0:0:0:
192,192,58112,1,0,0:0:0:0:
320,192,58345,1,0,0:0:0:0:
448,192,58461,1,0,0:0:0:0:
320,192,58577,1,0,0:0:0:0:
192,192,58577,128,0,58810:0:0:0:0:
64,192,58810,1,0,0:0:0:0:
192,192,58926,1,0,0:0:0:0:
448,192,59042,1,0,0:0:0:0:
320,192,59042,128,0,59275:0:0:0:0:
64,192,59275,1,0,0:0:0:0:
448,192,59391,1,0,0:0:0:0:
192,192,59507,1,0,0:0:0:0:
64,192,59507,128,0,60438:0:0:0:0:
448,192,59972,1,0,0:0:0:0:
320,192,59972,1,0,0:0:0:0:
448,192,60438,1,0,0:0:0:0:
192,192,60438,1,0,0:0:0:0:
64,192,60903,1,0,0:0:0:0:
320,192,60903,1,0,0:0:0:0:
192,192,61135,128,0,62298:0:0:0:0:
448,192,61368,1,0,0:0:0:0:
320,192,61368,1,0,0:0:0:0:
64,192,61833,1,0,0:0:0:0:
320,192,61833,1,0,0:0:0:0:
448,192,62298,1,0,0:0:0:0:
64,192,62298,1,0,0:0:0:0:
192,192,62763,1,0,0:0:0:0:
320,192,62763,1,0,0:0:0:0:
64,192,62995,128,0,63228:0:0:0:0:
448,192,63112,1,0,0:0:0:0:
192,192,63228,1,0,0:0:0:0:
320,192,63228,1,0,0:0:0:0:
64,192,63461,1,0,0:0:0:0:
192,192,63693,1,0,0:0:0:0:
64,192,63693,1,0,0:0:0:0:
448,192,63926,1,0,0:0:0:0:
64,192,64158,1,0,0:0:0:0:
448,192,64158,1,0,0:0:0:0:
192,192,64391,1,0,0:0:0:0:
192,192,64623,1,0,0:0:0:0:
448,192,64623,1,0,0:0:0:0:
448,192,64856,128,0,65088:0:0:0:0:
192,192,65088,1,0,0:0:0:0:
64,192,65088,1,0,0:0:0:0:
320,192,65321,1,0,0:0:0:0:
320,192,65553,1,0,0:0:0:0:
64,192,65553,1,0,0:0:0:0:
192,192,65786,1,0,0:0:0:0:
320,192,66018,1,0,0:0:0:0:
192,192,66018,1,0,0:0:0:0:
64,192,66251,1,0,0:0:0:0:
192,192,66484,1,0,0:0:0:0:
64,192,66484,1,0,0:0:0:0:
320,192,66716,128,0,67879:0:0:0:0:
192,192,66949,1,0,0:0:0:0:
64,192,67065,1,0,0:0:0:0:
192,192,67181,1,0,0:0:0:0:
64,192,67297,1,0,0:0:0:0:
448,192,67414,1,0,0:0:0:0:
192,192,67530,1,0,0:0:0:0:
448,192,67646,1,0,0:0:0:0:
192,192,67763,1,0,0:0:0:0:
64,192,67879,1,0,0:0:0:0:
448,192,67995,1,0,0:0:0:0:
64,192,68111,1,0,0:0:0:0:
448,192,68228,1,0,0:0:0:0:
192,192,68344,1,0,0:0:0:0:
64,192,68460,1,0,0:0:0:0:
192,192,68576,128,0,69739:0:0:0:0:
64,192,68693,1,0,0:0:0:0:
448,192,68809,1,0,0:0:0:0:
320,192,68925,1,0,0:0:0:0:
448,192,69042,1,0,0:0:0:0:
320,192,69158,1,0,0:0:0:0:
64,192,69274,1,0,0:0:0:0:
448,192,69390,1,0,0:0:0:0:
64,192,69507,1,0,0:0:0:0:
448,192,69623,1,0,0:0:0:0:
320,192,69739,1,0,0:0:0:0:
64,192,69855,1,0,0:0:0:0:
320,192,69972,1,0,0:0:0:0:
64,192,70088,1,0,0:0:0:0:
320,192,70204,1,0,0:0:0:0:
192,192,70320,1,0,0:0:0:0:
64,192,70437,1,0,0:0:0:0:
448,192,70437,1,0,0:0:0:0:
64,192,70553,1,0,0:0:0:0:
320,192,70669,1,0,0:0:0:0:
192,192,70669,1,0,0:0:0:0:
320,192,70786,1,0,0:0:0:0:
192,192,70902,1,0,0:0:0:0:
448,192,70902,1,0,0:0:0:0:
192,192,71018,1,0,0:0:0:0:
320,192,71134,1,0,0:0:0:0:
448,192,71134,1,0,0:0:0:0:
448,192,71251,1,0,0:0:0:0:
64,192,71367,1,0,0:0:0:0:
320,192,71367,1,0,0:0:0:0:
64,192,71483,1,0,0:0:0:0:
320,192,71599,1,0,0:0:0:0:
192,192,71599,1,0,0:0:0:0:
192,192,71716,1,0,0:0:0:0:
448,192,71832,1,0,0:0:0:0:
64,192,71832,1,0,0:0:0:0:
448,192,71948,1,0,0:0:0:0:
320,192,72065,1,0,0:0:0:0:
64,192,72065,1,0,0:0:0:0:
64,192,72181,1,0,0:0:0:0:
192,192,72297,1,0,0:0:0:0:
320,192,72297,1,0,0:0:0:0:
320,192,72413,1,0,0:0:0:0:
64,192,72530,1,0,0:0:0:0:
448,192,72530,1,0,0:0:0:0:
64,192,73460,1,0,0:0:0:0:
320,192,73460,1,0,0:0:0:0:
448,192,73460,1,0,0:0:0:0:
192,192,73692,1,0,0:0:0:0:
320,192,73809,1,0,0:0:0:0:
448,192,73809,1,0,0:0:0:0:
192,192,73925,1,0,0:0:0:0:
64,192,73925,1,0,0:0:0:0:
192,192,74157,1,0,0:0:0:0:
320,192,74157,1,0,0:0:0:0:
64,192,74390,1,0,0:0:0:0:
192,192,74390,1,0,0:0:0:0:
448,192,74390,1,0,0:0:0:0:
320,192,74506,1,0,0:0:0:0:
64,192,74622,1,0,0:0:0:0:
448,192,74622,1,0,0:0:0:0:
320,192,74855,128,0,74971:0:0:0:0:
192,192,74855,1,0,0:0:0:0:
320,192,75088,128,0,75204:0:0:0:0:
64,192,75088,1,0,0:0:0:0:
192,192,75320,128,0,75436:0:0:0:0:
448,192,75320,1,0,0:0:0:0:
320,192,75436,1,0,0:0:0:0:
192,192,75553,128,0,75669:0:0:0:0:
64,192,75553,1,0,0:0:0:0:
448,192,75785,128,0,75901:0:0:0:0:
320,192,75785,1,0,0:0:0:0:
448,192,76018,128,0,76134:0:0:0:0:
192,192,76018,1,0,0:0:0:0:
448,192,76250,1,0,0:0:0:0:
64,192,76250,1,0,0:0:0:0:
320,192,76328,1,0,0:0:0:0:
192,192,76405,1,0,0:0:0:0:
448,192,76483,1,0,0:0:0:0:
320,192,76560,1,0,0:0:0:0:
64,192,76560,1,0,0:0:0:0:
64,192,76715,1,0,0:0:0:0:
448,192,76715,1,0,0:0:0:0:
320,192,76948,1,0,0:0:0:0:
320,192,77180,1,0,0:0:0:0:
64,192,77180,1,0,0:0:0:0:
448,192,77297,1,0,0:0:0:0:
192,192,77413,1,0,0:0:0:0:
64,192,77413,1,0,0:0:0:0:
320,192,77529,1,0,0:0:0:0:
192,192,77645,1,0,0:0:0:0:
448,192,77645,1,0,0:0:0:0:
64,192,77762,1,0,0:0:0:0:
320,192,77878,1,0,0:0:0:0:
448,192,77878,1,0,0:0:0:0:
192,192,77994,1,0,0:0:0:0:
320,192,78111,1,0,0:0:0:0:
64,192,78111,1,0,0:0:0:0:
192,192,78343,1,0,0:0:0:0:
448,192,78576,1,0,0:0:0:0:
320,192,78576,1,0,0:0:0:0:
192,192,78614,1,0,0:0:0:0:
448,192,78808,1,0,0:0:0:0:
64,192,78808,1,0,0:0:0:0:
320,192,78847,1,0,0:0:0:0:
448,192,79041,1,0,0:0:0:0:
320,192,79041,1,0,0:0:0:0:
192,192,79079,1,0,0:0:0:0:
448,192,79273,1,0,0:0:0:0:
64,192,79273,1,0,0:0:0:0:
320,192,79312,1,0,0:0:0:0:
448,192,79506,1,0,0:0:0:0:
320,192,79506,1,0,0:0:0:0:
192,192,79545,1,0,0:0:0:0:
448,192,79738,1,0,0:0:0:0:
64,192,79738,1,0,0:0:0:0:
320,192,79777,1,0,0:0:0:0:
320,192,79971,128,0,80126:0:0:0:0:
448,192,79971,128,0,80048:0:0:0:0:
192,192,79971,1,0,0:0:0:0:
64,192,80126,1,0,0:0:0:0:
192,192,80203,1,0,0:0:0:0:
448,192,80281,1,0,0:0:0:0:
320,192,80358,1,0,0:0:0:0:
64,192,80436,1,0,0:0:0:0:
192,192,80436,1,0,0:0:0:0:
320,192,80669,1,0,0:0:0:0:
320,192,80901,1,0,0:0:0:0:
192,192,80901,1,0,0:0:0:0:
64,192,81017,1,0,0:0:0:0:
448,192,81134,1,0,0:0:0:0:
320,192,81134,1,0,0:0:0:0:
192,192,81250,1,0,0:0:0:0:
64,192,81366,1,0,0:0:0:0:
448,192,81366,1,0,0:0:0:0:
320,192,81482,1,0,0:0:0:0:
64,192,81599,1,0,0:0:0:0:
192,192,81599,1,0,0:0:0:0:
448,192,81715,1,0,0:0:0:0:
320,192,81831,1,0,0:0:0:0:
192,192,81831,1,0,0:0:0:0:
320,192,82064,1,0,0:0:0:0:
192,192,82180,1,0,0:0:0:0:
64,192,82296,128,0,82413:0:0:0:0:
448,192,82296,1,0,0:0:0:0:
64,192,82529,128,0,82645:0:0:0:0:
192,192,82529,1,0,0:0:0:0:
320,192,82761,128,0,82878:0:0:0:0:
448,192,82761,1,0,0:0:0:0:
320,192,82994,128,0,83110:0:0:0:0:
64,192,82994,1,0,0:0:0:0:
192,192,83226,128,0,83343:0:0:0:0:
448,192,83226,1,0,0:0:0:0:
192,192,83459,128,0,83575:0:0:0:0:
320,192,83459,1,0,0:0:0:0:
192,192,83692,1,0,0:0:0:0:
64,192,83769,1,0,0:0:0:0:
320,192,83847,1,0,0:0:0:0:
448,192,83924,1,0,0:0:0:0:
192,192,84002,1,0,0:0:0:0:
320,192,84079,1,0,0:0:0:0:
192,192,84157,1,0,0:0:0:0:
64,192,84157,1,0,0:0:0:0:
320,192,84389,1,0,0:0:0:0:
320,192,84622,1,0,0:0:0:0:
64,192,84622,1,0,0:0:0:0:
448,192,84738,1,0,0:0:0:0:
192,192,84854,1,0,0:0:0:0:
64,192,84854,1,0,0:0:0:0:
320,192,84971,1,0,0:0:0:0:
192,192,85087,1,0,0:0:0:0:
448,192,85087,1,0,0:0:0:0:
320,192,85203,1,0,0:0:0:0:
64,192,85319,1,0,0:0:0:0:
448,192,85319,1,0,0:0:0:0:
192,192,85436,1,0,0:0:0:0:
320,192,85552,128,0,85784:0:0:0:0:
448,192,85552,128,0,85784:0:0:0:0:
448,192,85901,128,0,86133:0:0:0:0:
192,192,85901,128,0,86133:0:0:0:0:
64,192,86249,128,0,86482:0:0:0:0:
192,192,86249,128,0,86482:0:0:0:0:
320,192,86482,1,0,0:0:0:0:
448,192,86482,1,0,0:0:0:0:
320,192,86715,1,0,0:0:0:0:
64,192,86715,1,0,0:0:0:0:
192,192,86947,1,0,0:0:0:0:
320,192,86947,1,0,0:0:0:0:
192,192,87180,1,0,0:0:0:0:
448,192,87180,1,0,0:0:0:0:
448,192,87412,128,0,87645:0:0:0:0:
64,192,87412,128,0,87645:0:0:0:0:
64,192,87761,128,0,87994:0:0:0:0:
320,192,87761,128,0,87994:0:0:0:0:
448,192,87994,1,0,0:0:0:0:
192,192,88110,1,0,0:0:0:0:
320,192,88187,1,0,0:0:0:0:
448,192,88265,1,0,0:0:0:0:
192,192,88342,1,0,0:0:0:0:
64,192,88342,1,0,0:0:0:0:
320,192,88459,128,0,88575:0:0:0:0:
64,192,88575,1,0,0:0:0:0:
448,192,88807,128,0,89040:0:0:0:0:
64,192,88807,1,0,0:0:0:0:
192,192,89040,1,0,0:0:0:0:
448,192,89272,1,0,0:0:0:0:
320,192,89272,1,0,0:0:0:0:
64,192,89272,1,0,0:0:0:0:
192,192,89389,1,0,0:0:0:0:
448,192,89505,1,0,0:0:0:0:
64,192,89505,1,0,0:0:0:0:
192,192,89738,128,0,89854:0:0:0:0:
320,192,89738,1,0,0:0:0:0:
192,192,89970,128,0,90086:0:0:0:0:
448,192,89970,1,0,0:0:0:0:
320,192,90203,128,0,90319:0:0:0:0:
64,192,90203,1,0,0:0:0:0:
192,192,90319,1,0,0:0:0:0:
320,192,90435,128,0,90551:0:0:0:0:
448,192,90435,1,0,0:0:0:0:
64,192,90668,128,0,90784:0:0:0:0:
192,192,90668,1,0,0:0:0:0:
64,192,90900,128,0,91017:0:0:0:0:
320,192,90900,1,0,0:0:0:0:
64,192,91133,1,0,0:0:0:0:
448,192,91133,1,0,0:0:0:0:
192,192,91210,1,0,0:0:0:0:
320,192,91288,1,0,0:0:0:0:
64,192,91365,1,0,0:0:0:0:
192,192,91443,1,0,0:0:0:0:
448,192,91443,1,0,0:0:0:0:
448,192,91598,1,0,0:0:0:0:
64,192,91598,1,0,0:0:0:0:
192,192,91830,1,0,0:0:0:0:
64,192,92063,1,0,0:0:0:0:
448,192,92063,1,0,0:0:0:0:
192,192,92179,1,0,0:0:0:0:
320,192,92296,1,0,0:0:0:0:
448,192,92296,1,0,0:0:0:0:
64,192,92412,1,0,0:0:0:0:
320,192,92528,1,0,0:0:0:0:
192,192,92528,1,0,0:0:0:0:
64,192,92644,1,0,0:0:0:0:
448,192,92761,1,0,0:0:0:0:
320,192,92761,1,0,0:0:0:0:
192,192,92877,1,0,0:0:0:0:
64,192,92993,1,0,0:0:0:0:
448,192,92993,1,0,0:0:0:0:
192,192,93226,1,0,0:0:0:0:
64,192,93458,1,0,0:0:0:0:
320,192,93458,1,0,0:0:0:0:
448,192,93497,1,0,0:0:0:0:
192,192,93691,1,0,0:0:0:0:
320,192,93691,1,0,0:0:0:0:
64,192,93730,1,0,0:0:0:0:
64,192,93923,1,0,0:0:0:0:
320,192,93923,1,0,0:0:0:0:
448,192,93962,1,0,0:0:0:0:
192,192,94156,1,0,0:0:0:0:
320,192,94156,1,0,0:0:0:0:
64,192,94195,1,0,0:0:0:0:
64,192,94388,1,0,0:0:0:0:
320,192,94388,1,0,0:0:0:0:
448,192,94427,1,0,0:0:0:0:
192,192,94621,1,0,0:0:0:0:
320,192,94621,1,0,0:0:0:0:
64,192,94660,1,0,0:0:0:0:
192,192,94853,128,0,95008:0:0:0:0:
320,192,94853,128,0,94931:0:0:0:0:
64,192,94853,1,0,0:0:0:0:
448,192,95008,1,0,0:0:0:0:
320,192,95086,1,0,0:0:0:0:
64,192,95164,1,0,0:0:0:0:
192,192,95241,1,0,0:0:0:0:
448,192,95319,1,0,0:0:0:0:
320,192,95319,1,0,0:0:0:0:
192,192,95551,1,0,0:0:0:0:
192,192,95784,1,0,0:0:0:0:
320,192,95784,1,0,0:0:0:0:
448,192,95900,1,0,0:0:0:0:
64,192,96016,1,0,0:0:0:0:
192,192,96016,1,0,0:0:0:0:
320,192,96132,1,0,0:0:0:0:
448,192,96249,1,0,0:0:0:0:
64,192,96249,1,0,0:0:0:0:
192,192,96365,1,0,0:0:0:0:
448,192,96481,1,0,0:0:0:0:
320,192,96481,1,0,0:0:0:0:
64,192,96598,1,0,0:0:0:0:
192,192,96714,1,0,0:0:0:0:
320,192,96714,1,0,0:0:0:0:
192,192,96946,1,0,0:0:0:0:
320,192,97063,1,0,0:0:0:0:
448,192,97179,128,0,97295:0:0:0:0:
64,192,97179,1,0,0:0:0:0:
448,192,97411,128,0,97528:0:0:0:0:
320,192,97411,1,0,0:0:0:0:
192,192,97644,128,0,97760:0:0:0:0:
64,192,97644,1,0,0:0:0:0:
192,192,97876,128,0,97993:0:0:0:0:
448,192,97876,1,0,0:0:0:0:
320,192,98109,128,0,98225:0:0:0:0:
64,192,98109,1,0,0:0:0:0:
320,192,98342,128,0,98458:0:0:0:0:
192,192,98342,1,0,0:0:0:0:
320,192,98574,1,0,0:0:0:0:
448,192,98652,1,0,0:0:0:0:
192,192,98729,1,0,0:0:0:0:
64,192,98807,1,0,0:0:0:0:
320,192,98884,1,0,0:0:0:0:
192,192,98962,1,0,0:0:0:0:
320,192,99039,1,0,0:0:0:0:
448,192,99039,1,0,0:0:0:0:
192,192,99272,1,0,0:0:0:0:
192,192,99504,1,0,0:0:0:0:
448,192,99504,1,0,0:0:0:0:
64,192,99621,1,0,0:0:0:0:
320,192,99737,1,0,0:0:0:0:
448,192,99737,1,0,0:0:0:0:
192,192,99853,1,0,0:0:0:0:
320,192,99969,1,0,0:0:0:0:
64,192,99969,1,0,0:0:0:0:
192,192,100086,1,0,0:0:0:0:
448,192,100202,1,0,0:0:0:0:
64,192,100202,1,0,0:0:0:0:
320,192,100318,1,0,0:0:0:0:
192,192,100434,128,0,100667:0:0:0:0:
64,192,100434,128,0,100667:0:0:0:0:
64,192,100783,128,0,101016:0:0:0:0:
320,192,100783,128,0,101016:0:0:0:0:
448,192,101132,128,0,101365:0:0:0:0:
320,192,101132,128,0,101365:0:0:0:0:
192,192,101365,1,0,0:0:0:0:
64,192,101365,1,0,0:0:0:0:
192,192,101597,1,0,0:0:0:0:
448,192,101597,1,0,0:0:0:0:
320,192,101830,1,0,0:0:0:0:
192,192,101830,1,0,0:0:0:0:
320,192,102062,1,0,0:0:0:0:
64,192,102062,1,0,0:0:0:0:
64,192,102295,128,0,102527:0:0:0:0:
448,192,102295,128,0,102527:0:0:0:0:
448,192,102644,128,0,102876:0:0:0:0:
192,192,102644,128,0,102876:0:0:0:0:
64,192,102876,1,0,0:0:0:0:
320,192,102992,1,0,0:0:0:0:
192,192,103070,1,0,0:0:0:0:
64,192,103147,1,0,0:0:0:0:
320,192,103225,1,0,0:0:0:0:
448,192,103225,1,0,0:0:0:0:
192,192,103341,128,0,103457:0:0:0:0:
448,192,103457,1,0,0:0:0:0:
448,192,103690,1,0,0:0:0:0:
64,192,103690,128,0,103923:0:0:0:0:
320,192,103923,1,0,0:0:0:0:
448,192,104155,1,0,0:0:0:0:
64,192,104155,1,0,0:0:0:0:
448,192,104271,1,0,0:0:0:0:
320,192,104388,1,0,0:0:0:0:
192,192,104388,1,0,0:0:0:0:
64,192,104620,1,0,0:0:0:0:
448,192,104620,1,0,0:0:0:0:
320,192,104736,1,0,0:0:0:0:
64,192,104853,128,0,105085:0:0:0:0:
192,192,105085,1,0,0:0:0:0:
320,192,105085,1,0,0:0:0:0:
192,192,105318,128,0,105550:0:0:0:0:
448,192,105318,1,0,0:0:0:0:
448,192,105550,128,0,105783:0:0:0:0:
320,192,105550,1,0,0:0:0:0:
320,192,105783,128,0,106015:0:0:0:0:
64,192,105783,1,0,0:0:0:0:
64,192,106015,128,0,106248:0:0:0:0:
192,192,106015,1,0,0:0:0:0:
320,192,106248,1,0,0:0:0:0:
64,192,106480,1,0,0:0:0:0:
320,192,106480,1,0,0:0:0:0:
192,192,106713,1,0,0:0:0:0:
448,192,106829,1,0,0:0:0:0:
192,192,106946,128,0,107178:0:0:0:0:
320,192,106946,1,0,0:0:0:0:
320,192,107178,128,0,107411:0:0:0:0:
64,192,107178,1,0,0:0:0:0:
64,192,107411,128,0,107643:0:0:0:0:
448,192,107411,1,0,0:0:0:0:
448,192,107643,128,0,107876:0:0:0:0:
192,192,107643,1,0,0:0:0:0:
192,192,107876,128,0,108108:0:0:0:0:
320,192,107876,1,0,0:0:0:0:
64,192,108108,1,0,0:0:0:0:
64,192,108341,1,0,0:0:0:0:
448,192,108341,1,0,0:0:0:0:
320,192,108457,1,0,0:0:0:0:
192,192,108573,128,0,108806:0:0:0:0:
448,192,108806,1,0,0:0:0:0:
320,192,108806,1,0,0:0:0:0:
64,192,108922,1,0,0:0:0:0:
320,192,109038,128,0,109271:0:0:0:0:
192,192,109038,1,0,0:0:0:0:
192,192,109271,128,0,109503:0:0:0:0:
448,192,109271,1,0,0:0:0:0:
448,192,109503,128,0,109736:0:0:0:0:
64,192,109503,1,0,0:0:0:0:
64,192,109736,128,0,109969:0:0:0:0:
320,192,109736,1,0,0:0:0:0:
192,192,109969,1,0,0:0:0:0:
320,192,110085,1,0,0:0:0:0:
64,192,110201,128,0,110434:0:0:0:0:
448,192,110201,1,0,0:0:0:0:
192,192,110317,1,0,0:0:0:0:
320,192,110434,1,0,0:0:0:0:
192,192,110550,1,0,0:0:0:0:
64,192,110666,1,0,0:0:0:0:
448,192,110666,1,0,0:0:0:0:
320,192,110666,1,0,0:0:0:0:
320,192,110899,1,0,0:0:0:0:
192,192,110976,1,0,0:0:0:0:
64,192,111054,1,0,0:0:0:0:
320,192,111131,1,0,0:0:0:0:
448,192,111131,1,0,0:0:0:0:
192,192,111286,1,0,0:0:0:0:
320,192,111364,1,0,0:0:0:0:
64,192,111441,1,0,0:0:0:0:
192,192,111519,1,0,0:0:0:0:
448,192,111596,128,0,111829:0:0:0:0:
320,192,111596,1,0,0:0:0:0:
448,192,112061,1,0,0:0:0:0:
192,192,112061,1,0,0:0:0:0:
64,192,112294,128,0,112527:0:0:0:0:
192,192,112527,1,0,0:0:0:0:
320,192,112527,1,0,0:0:0:0:
448,192,112643,1,0,0:0:0:0:
64,192,112759,128,0,112992:0:0:0:0:
320,192,112759,1,0,0:0:0:0:
320,192,112992,128,0,113224:0:0:0:0:
192,192,112992,1,0,0:0:0:0:
192,192,113224,128,0,113457:0:0:0:0:
448,192,113224,1,0,0:0:0:0:
448,192,113457,128,0,113689:0:0:0:0:
64,192,113457,1,0,0:0:0:0:
192,192,113689,1,0,0:0:0:0:
64,192,113922,1,0,0:0:0:0:
192,192,113922,1,0,0:0:0:0:
320,192,114154,1,0,0:0:0:0:
64,192,114271,1,0,0:0:0:0:
320,192,114387,128,0,114619:0:0:0:0:
192,192,114387,1,0,0:0:0:0:
192,192,114619,128,0,114852:0:0:0:0:
448,192,114619,1,0,0:0:0:0:
448,192,114852,128,0,115084:0:0:0:0:
320,192,114852,1,0,0:0:0:0:
320,192,115084,128,0,115317:0:0:0:0:
64,192,115084,1,0,0:0:0:0:
64,192,115317,128,0,115550:0:0:0:0:
192,192,115317,1,0,0:0:0:0:
448,192,115550,1,0,0:0:0:0:
64,192,115666,1,0,0:0:0:0:
192,192,115782,1,0,0:0:0:0:
320,192,115782,1,0,0:0:0:0:
64,192,116015,1,0,0:0:0:0:
448,192,116131,128,0,116247:0:0:0:0:
192,192,116247,1,0,0:0:0:0:
320,192,116247,1,0,0:0:0:0:
448,192,116480,1,0,0:0:0:0:
448,192,116712,1,0,0:0:0:0:
192,192,116712,1,0,0:0:0:0:
64,192,116829,128,0,116945:0:0:0:0:
320,192,116945,1,0,0:0:0:0:
192,192,117177,128,0,117410:0:0:0:0:
320,192,117177,1,0,0:0:0:0:
448,192,117410,1,0,0:0:0:0:
192,192,117526,128,0,117759:0:0:0:0:
64,192,117642,1,0,0:0:0:0:
320,192,117642,1,0,0:0:0:0:
448,192,117875,1,0,0:0:0:0:
320,192,117991,1,0,0:0:0:0:
64,192,118107,1,0,0:0:0:0:
192,192,118107,1,0,0:0:0:0:
448,192,118224,1,0,0:0:0:0:
64,192,118340,1,0,0:0:0:0:
192,192,118456,1,0,0:0:0:0:
320,192,118573,1,0,0:0:0:0:
448,192,118573,1,0,0:0:0:0:
64,192,118650,1,0,0:0:0:0:
320,192,118728,1,0,0:0:0:0:
192,192,118805,1,0,0:0:0:0:
448,192,118883,1,0,0:0:0:0:
320,192,118960,1,0,0:0:0:0:
64,192,119038,1,0,0:0:0:0:
192,192,119038,1,0,0:0:0:0:
448,192,119076,1,0,0:0:0:0:
320,192,119270,128,0,119348:0:0:0:0:
64,192,119503,128,0,119580:0:0:0:0:
192,192,119735,128,0,119813:0:0:0:0:
448,192,119968,1,0,0:0:0:0:
320,192,119968,128,0,120045:0:0:0:0:
64,192,120200,128,0,120278:0:0:0:0:
64,192,120433,1,0,0:0:0:0:
320,192,120549,1,0,0:0:0:0:
448,192,120607,1,0,0:0:0:0:
192,192,120665,128,0,120743:0:0:0:0:
320,192,120898,1,0,0:0:0:0:
192,192,120956,1,0,0:0:0:0:
448,192,121014,1,0,0:0:0:0:
320,192,121072,1,0,0:0:0:0:
64,192,121130,128,0,121208:0:0:0:0:
320,192,121363,128,0,121518:0:0:0:0:
192,192,121596,128,0,121673:0:0:0:0:
192,192,121828,1,0,0:0:0:0:
320,192,121828,128,0,122061:0:0:0:0:
64,192,122061,128,0,122293:0:0:0:0:
192,192,122293,1,0,0:0:0:0:
448,192,122409,1,0,0:0:0:0:
320,192,122526,128,0,122603:0:0:0:0:
64,192,122758,128,0,122836:0:0:0:0:
320,192,122758,1,0,0:0:0:0:
448,192,122797,1,0,0:0:0:0:
192,192,122991,128,0,123068:0:0:0:0:
448,192,123223,128,0,123301:0:0:0:0:
64,192,123456,128,0,123533:0:0:0:0:
448,192,123688,1,0,0:0:0:0:
320,192,123688,128,0,123766:0:0:0:0:
192,192,123921,128,0,123998:0:0:0:0:
64,192,124154,128,0,124231:0:0:0:0:
320,192,124270,1,0,0:0:0:0:
192,192,124386,1,0,0:0:0:0:
448,192,124444,1,0,0:0:0:0:
64,192,124502,1,0,0:0:0:0:
320,192,124560,1,0,0:0:0:0:
448,192,124619,128,0,124696:0:0:0:0:
64,192,124735,1,0,0:0:0:0:
192,192,124851,128,0,125084:0:0:0:0:
320,192,125084,128,0,125161:0:0:0:0:
64,192,125316,128,0,125394:0:0:0:0:
192,192,125549,1,0,0:0:0:0:
320,192,125549,128,0,125781:0:0:0:0:
448,192,125781,128,0,125859:0:0:0:0:
64,192,125898,1,0,0:0:0:0:
320,192,125956,1,0,0:0:0:0:
192,192,126014,1,0,0:0:0:0:
448,192,126130,1,0,0:0:0:0:
320,192,126188,1,0,0:0:0:0:
192,192,126246,128,0,126324:0:0:0:0:
64,192,126479,128,0,126556:0:0:0:0:
448,192,126479,1,0,0:0:0:0:
320,192,126711,1,0,0:0:0:0:
192,192,126944,1,0,0:0:0:0:
448,192,127177,1,0,0:0:0:0:
320,192,127409,1,0,0:0:0:0:
192,192,127409,128,0,127874:0:0:0:0:
64,192,127642,1,0,0:0:0:0:
448,192,127874,1,0,0:0:0:0:
64,192,127990,1,0,0:0:0:0:
320,192,128049,1,0,0:0:0:0:
192,192,128107,1,0,0:0:0:0:
448,192,128339,1,0,0:0:0:0:
192,192,128339,1,0,0:0:0:0:
320,192,128378,1,0,0:0:0:0:
448,192,128572,1,0,0:0:0:0:
320,192,128572,1,0,0:0:0:0:
192,192,128611,1,0,0:0:0:0:
448,192,128804,1,0,0:0:0:0:
64,192,128804,1,0,0:0:0:0:
320,192,128843,1,0,0:0:0:0:
192,192,129037,1,0,0:0:0:0:
448,192,129037,1,0,0:0:0:0:
64,192,129076,1,0,0:0:0:0:
320,192,129269,1,0,0:0:0:0:
448,192,129269,1,0,0:0:0:0:
192,192,129308,1,0,0:0:0:0:
64,192,129502,1,0,0:0:0:0:
320,192,129734,1,0,0:0:0:0:
448,192,129734,128,0,130083:0:0:0:0:
192,192,129851,1,0,0:0:0:0:
320,192,129967,1,0,0:0:0:0:
64,192,130083,1,0,0:0:0:0:
192,192,130200,128,0,130432:0:0:0:0:
448,192,130432,1,0,0:0:0:0:
192,192,130665,128,0,130742:0:0:0:0:
448,192,130781,1,0,0:0:0:0:
320,192,130897,128,0,130975:0:0:0:0:
64,192,131013,1,0,0:0:0:0:
192,192,131130,1,0,0:0:0:0:
448,192,131130,128,0,131362:0:0:0:0:
320,192,131362,1,0,0:0:0:0:
192,192,131595,1,0,0:0:0:0:
320,192,131711,1,0,0:0:0:0:
192,192,131827,1,0,0:0:0:0:
448,192,131885,1,0,0:0:0:0:
320,192,131944,1,0,0:0:0:0:
64,192,132002,1,0,0:0:0:0:
192,192,132060,1,0,0:0:0:0:
320,192,132176,1,0,0:0:0:0:
64,192,132292,128,0,132370:0:0:0:0:
320,192,132525,128,0,132602:0:0:0:0:
192,192,132757,128,0,132990:0:0:0:0:
448,192,132874,1,0,0:0:0:0:
64,192,132990,1,0,0:0:0:0:
448,192,132990,128,0,133068:0:0:0:0:
320,192,133223,1,0,0:0:0:0:
64,192,133223,128,0,133455:0:0:0:0:
320,192,133339,1,0,0:0:0:0:
192,192,133455,1,0,0:0:0:0:
64,192,133688,1,0,0:0:0:0:
448,192,133804,1,0,0:0:0:0:
192,192,133920,1,0,0:0:0:0:
320,192,133920,1,0,0:0:0:0:
192,192,134036,1,0,0:0:0:0:
448,192,134153,1,0,0:0:0:0:
320,192,134269,1,0,0:0:0:0:
192,192,134385,1,0,0:0:0:0:
64,192,134385,1,0,0:0:0:0:
64,192,134502,1,0,0:0:0:0:
448,192,134618,1,0,0:0:0:0:
448,192,134850,1,0,0:0:0:0:
320,192,134850,1,0,0:0:0:0:
64,192,135083,1,0,0:0:0:0:
64,192,135315,1,0,0:0:0:0:
192,192,135315,1,0,0:0:0:0:
320,192,135548,1,0,0:0:0:0:
64,192,135664,1,0,0:0:0:0:
320,192,135781,1,0,0:0:0:0:
448,192,135781,1,0,0:0:0:0:
448,192,135897,1,0,0:0:0:0:
192,192,136013,1,0,0:0:0:0:
320,192,136129,1,0,0:0:0:0:
192,192,136246,1,0,0:0:0:0:
448,192,136246,1,0,0:0:0:0:
192,192,136362,1,0,0:0:0:0:
64,192,136478,1,0,0:0:0:0:
64,192,136711,1,0,0:0:0:0:
448,192,136711,1,0,0:0:0:0:
320,192,136943,1,0,0:0:0:0:
320,192,137176,1,0,0:0:0:0:
192,192,137176,1,0,0:0:0:0:
64,192,137408,1,0,0:0:0:0:
64,192,137641,1,0,0:0:0:0:
448,192,137641,1,0,0:0:0:0:
448,192,137757,1,0,0:0:0:0:
320,192,137873,1,0,0:0:0:0:
64,192,137990,1,0,0:0:0:0:
320,192,138106,1,0,0:0:0:0:
192,192,138106,1,0,0:0:0:0:
192,192,138222,1,0,0:0:0:0:
64,192,138338,1,0,0:0:0:0:
64,192,138571,1,0,0:0:0:0:
192,192,138571,1,0,0:0:0:0:
448,192,138804,1,0,0:0:0:0:
448,192,139036,1,0,0:0:0:0:
192,192,139036,1,0,0:0:0:0:
320,192,139269,1,0,0:0:0:0:
192,192,139501,1,0,0:0:0:0:
320,192,139501,1,0,0:0:0:0:
448,192,139617,1,0,0:0:0:0:
64,192,139617,1,0,0:0:0:0:
192,192,139734,1,0,0:0:0:0:
64,192,139966,1,0,0:0:0:0:
320,192,139966,1,0,0:0:0:0:
448,192,140083,1,0,0:0:0:0:
192,192,140083,1,0,0:0:0:0:
320,192,140199,1,0,0:0:0:0:
448,192,140431,1,0,0:0:0:0:
320,192,140431,1,0,0:0:0:0:
192,192,140548,1,0,0:0:0:0:
64,192,140548,1,0,0:0:0:0:
448,192,140664,1,0,0:0:0:0:
320,192,140780,1,0,0:0:0:0:
192,192,140896,1,0,0:0:0:0:
448,192,140896,1,0,0:0:0:0:
64,192,141129,1,0,0:0:0:0:
448,192,141361,128,0,142059:0:0:0:0:
192,192,141361,1,0,0:0:0:0:
64,192,141594,1,0,0:0:0:0:
320,192,141710,1,0,0:0:0:0:
192,192,141827,128,0,142524:0:0:0:0:
320,192,142059,1,0,0:0:0:0:
64,192,142175,1,0,0:0:0:0:
320,192,142292,128,0,142757:0:0:0:0:
64,192,142524,1,0,0:0:0:0:
448,192,142757,1,0,0:0:0:0:
64,192,142757,1,0,0:0:0:0:
448,192,142989,1,0,0:0:0:0:
320,192,142989,1,0,0:0:0:0:
192,192,143106,1,0,0:0:0:0:
320,192,143222,1,0,0:0:0:0:
64,192,143222,1,0,0:0:0:0:
448,192,143338,1,0,0:0:0:0:
192,192,143454,1,0,0:0:0:0:
64,192,143454,1,0,0:0:0:0:
320,192,143571,1,0,0:0:0:0:
192,192,143687,1,0,0:0:0:0:
448,192,143687,1,0,0:0:0:0:
320,192,143803,1,0,0:0:0:0:
64,192,143919,1,0,0:0:0:0:
192,192,143919,1,0,0:0:0:0:
64,192,144036,1,0,0:0:0:0:
448,192,144152,1,0,0:0:0:0:
192,192,144152,1,0,0:0:0:0:
64,192,144385,128,0,144850:0:0:0:0:
320,192,144385,1,0,0:0:0:0:
192,192,144617,1,0,0:0:0:0:
320,192,144617,128,0,144850:0:0:0:0:
448,192,144850,1,0,0:0:0:0:
192,192,144966,1,0,0:0:0:0:
448,192,145082,1,0,0:0:0:0:
64,192,145082,1,0,0:0:0:0:
64,192,145315,1,0,0:0:0:0:
64,192,145547,1,0,0:0:0:0:
192,192,145547,1,0,0:0:0:0:
320,192,145780,1,0,0:0:0:0:
320,192,146012,1,0,0:0:0:0:
448,192,146012,1,0,0:0:0:0:
64,192,146129,1,0,0:0:0:0:
192,192,146245,1,0,0:0:0:0:
192,192,146477,1,0,0:0:0:0:
320,192,146477,1,0,0:0:0:0:
64,192,146710,1,0,0:0:0:0:
448,192,146826,1,0,0:0:0:0:
192,192,146942,1,0,0:0:0:0:
64,192,146942,128,0,147408:0:0:0:0:
448,192,147175,1,0,0:0:0:0:
448,192,147408,1,0,0:0:0:0:
320,192,147408,1,0,0:0:0:0:
192,192,147640,1,0,0:0:0:0:
64,192,147756,1,0,0:0:0:0:
192,192,147873,1,0,0:0:0:0:
320,192,147873,128,0,148105:0:0:0:0:
448,192,148105,1,0,0:0:0:0:
320,192,148221,1,0,0:0:0:0:
64,192,148338,1,0,0:0:0:0:
192,192,148338,128,0,148570:0:0:0:0:
448,192,148570,1,0,0:0:0:0:
64,192,148686,1,0,0:0:0:0:
320,192,148803,1,0,0:0:0:0:
448,192,148803,128,0,149733:0:0:0:0:
64,192,149268,1,0,0:0:0:0:
192,192,149268,1,0,0:0:0:0:
64,192,149733,1,0,0:0:0:0:
320,192,149733,1,0,0:0:0:0:
448,192,150198,1,0,0:0:0:0:
192,192,150198,1,0,0:0:0:0:
320,192,150431,128,0,151593:0:0:0:0:
64,192,150663,1,0,0:0:0:0:
192,192,150663,1,0,0:0:0:0:
448,192,151128,1,0,0:0:0:0:
192,192,151128,1,0,0:0:0:0:
64,192,151593,1,0,0:0:0:0:
448,192,151593,1,0,0:0:0:0:
320,192,152058,1,0,0:0:0:0:
192,192,152058,1,0,0:0:0:0:
448,192,152291,128,0,152523:0:0:0:0:
64,192,152407,1,0,0:0:0:0:
320,192,152523,1,0,0:0:0:0:
192,192,152523,1,0,0:0:0:0:
448,192,152756,1,0,0:0:0:0:
320,192,152988,1,0,0:0:0:0:
448,192,152988,1,0,0:0:0:0:
64,192,153221,1,0,0:0:0:0:
448,192,153454,1,0,0:0:0:0:
64,192,153454,1,0,0:0:0:0:
320,192,153686,1,0,0:0:0:0:
320,192,153919,1,0,0:0:0:0:
64,192,153919,1,0,0:0:0:0:
64,192,154151,128,0,154384:0:0:0:0:
320,192,154384,1,0,0:0:0:0:
448,192,154384,1,0,0:0:0:0:
192,192,154616,1,0,0:0:0:0:
192,192,154849,1,0,0:0:0:0:
448,192,154849,1,0,0:0:0:0:
320,192,155081,1,0,0:0:0:0:
192,192,155314,1,0,0:0:0:0:
320,192,155314,1,0,0:0:0:0:
448,192,155546,1,0,0:0:0:0:
320,192,155779,1,0,0:0:0:0:
448,192,155779,1,0,0:0:0:0:
192,192,156012,128,0,157174:0:0:0:0:
320,192,156244,1,0,0:0:0:0:
448,192,156360,1,0,0:0:0:0:
320,192,156477,1,0,0:0:0:0:
448,192,156593,1,0,0:0:0:0:
64,192,156709,1,0,0:0:0:0:
320,192,156825,1,0,0:0:0:0:
64,192,156942,1,0,0:0:0:0:
320,192,157058,1,0,0:0:0:0:
448,192,157174,1,0,0:0:0:0:
64,192,157290,1,0,0:0:0:0:
448,192,157407,1,0,0:0:0:0:
64,192,157523,1,0,0:0:0:0:
320,192,157639,1,0,0:0:0:0:
448,192,157756,1,0,0:0:0:0:
320,192,157872,128,0,159035:0:0:0:0:
448,192,157988,1,0,0:0:0:0:
64,192,158104,1,0,0:0:0:0:
192,192,158221,1,0,0:0:0:0:
64,192,158337,1,0,0:0:0:0:
192,192,158453,1,0,0:0:0:0:
448,192,158569,1,0,0:0:0:0:
64,192,158686,1,0,0:0:0:0:
448,192,158802,1,0,0:0:0:0:
64,192,158918,1,0,0:0:0:0:
192,192,159035,1,0,0:0:0:0:
448,192,159151,1,0,0:0:0:0:
192,192,159267,1,0,0:0:0:0:
448,192,159383,1,0,0:0:0:0:
192,192,159500,1,0,0:0:0:0:
320,192,159616,1,0,0:0:0:0:
448,192,159732,1,0,0:0:0:0:
64,192,159732,1,0,0:0:0:0:
448,192,159848,1,0,0:0:0:0:
192,192,159965,1,0,0:0:0:0:
320,192,159965,1,0,0:0:0:0:
192,192,160081,1,0,0:0:0:0:
320,192,160197,1,0,0:0:0:0:
64,192,160197,1,0,0:0:0:0:
320,192,160314,1,0,0:0:0:0:
192,192,160430,1,0,0:0:0:0:
64,192,160430,1,0,0:0:0:0:
64,192,160546,1,0,0:0:0:0:
448,192,160662,1,0,0:0:0:0:
192,192,160662,1,0,0:0:0:0:
448,192,160779,1,0,0:0:0:0:
192,192,160895,1,0,0:0:0:0:
320,192,160895,1,0,0:0:0:0:
320,192,161011,1,0,0:0:0:0:
64,192,161127,1,0,0:0:0:0:
448,192,161127,1,0,0:0:0:0:
64,192,161244,1,0,0:0:0:0:
192,192,161360,1,0,0:0:0:0:
448,192,161360,1,0,0:0:0:0:
448,192,161476,1,0,0:0:0:0:
320,192,161592,1,0,0:0:0:0:
192,192,161592,1,0,0:0:0:0:
192,192,161709,1,0,0:0:0:0:
448,192,161825,1,0,0:0:0:0:
64,192,161825,1,0,0:0:0:0:
320,192,161903,1,0,0:0:0:0:
192,192,162058,1,0,0:0:0:0:
192,192,162290,1,0,0:0:0:0:
320,192,162445,1,0,0:0:0:0:
192,192,162600,1,0,0:0:0:0:
448,192,162755,1,0,0:0:0:0:
64,192,162755,1,0,0:0:0:0:
320,192,162755,1,0,0:0:0:0:
320,192,162988,1,0,0:0:0:0:
192,192,163104,1,0,0:0:0:0:
64,192,163104,1,0,0:0:0:0:
320,192,163220,1,0,0:0:0:0:
448,192,163220,1,0,0:0:0:0:
320,192,163453,1,0,0:0:0:0:
192,192,163453,1,0,0:0:0:0:
448,192,163685,1,0,0:0:0:0:
320,192,163685,1,0,0:0:0:0:
64,192,163685,1,0,0:0:0:0:
192,192,163802,1,0,0:0:0:0:
448,192,163918,1,0,0:0:0:0:
64,192,163918,1,0,0:0:0:0:
192,192,164150,128,0,164267:0:0:0:0:
320,192,164150,1,0,0:0:0:0:
64,192,164150,128,0,164383:0:0:0:0:
192,192,164383,128,0,164499:0:0:0:0:
448,192,164383,128,0,164615:0:0:0:0:
320,192,164615,128,0,164732:0:0:0:0:
64,192,164615,1,0,0:0:0:0:
192,192,164732,1,0,0:0:0:0:
320,192,164848,128,0,164964:0:0:0:0:
448,192,164848,1,0,0:0:0:0:
192,192,164848,128,0,165081:0:0:0:0:
64,192,165081,128,0,165197:0:0:0:0:
320,192,165081,1,0,0:0:0:0:
448,192,165081,128,0,165313:0:0:0:0:
64,192,165313,128,0,165429:0:0:0:0:
320,192,165313,1,0,0:0:0:0:
192,192,165313,128,0,165546:0:0:0:0:
64,192,165546,1,0,0:0:0:0:
448,192,165546,1,0,0:0:0:0:
320,192,165623,1,0,0:0:0:0:
192,192,165701,1,0,0:0:0:0:
64,192,165778,1,0,0:0:0:0:
192,192,165856,1,0,0:0:0:0:
448,192,165856,1,0,0:0:0:0:
64,192,166011,1,0,0:0:0:0:
448,192,166011,128,0,166243:0:0:0:0:
192,192,166243,1,0,0:0:0:0:
448,192,166476,1,0,0:0:0:0:
192,192,166476,128,0,166708:0:0:0:0:
64,192,166592,1,0,0:0:0:0:
320,192,166708,1,0,0:0:0:0:
448,192,166708,128,0,166941:0:0:0:0:
192,192,166825,1,0,0:0:0:0:
64,192,166941,1,0,0:0:0:0:
320,192,166941,128,0,167173:0:0:0:0:
448,192,167057,1,0,0:0:0:0:
192,192,167173,1,0,0:0:0:0:
64,192,167173,128,0,167406:0:0:0:0:
320,192,167290,1,0,0:0:0:0:
192,192,167406,1,0,0:0:0:0:
448,192,167406,128,0,167639:0:0:0:0:
320,192,167639,1,0,0:0:0:0:
192,192,167871,1,0,0:0:0:0:
64,192,167871,128,0,168104:0:0:0:0:
320,192,167910,1,0,0:0:0:0:
320,192,168104,1,0,0:0:0:0:
448,192,168104,128,0,168336:0:0:0:0:
192,192,168142,1,0,0:0:0:0:
64,192,168336,1,0,0:0:0:0:
192,192,168336,1,0,0:0:0:0:
320,192,168375,1,0,0:0:0:0:
448,192,168569,1,0,0:0:0:0:
64,192,168569,128,0,168801:0:0:0:0:
192,192,168607,1,0,0:0:0:0:
448,192,168801,1,0,0:0:0:0:
192,192,168801,128,0,169034:0:0:0:0:
320,192,168840,1,0,0:0:0:0:
64,192,169034,1,0,0:0:0:0:
448,192,169034,128,0,169266:0:0:0:0:
320,192,169073,1,0,0:0:0:0:
192,192,169266,128,0,169421:0:0:0:0:
64,192,169266,128,0,169344:0:0:0:0:
320,192,169266,1,0,0:0:0:0:
448,192,169421,1,0,0:0:0:0:
320,192,169499,1,0,0:0:0:0:
64,192,169576,1,0,0:0:0:0:
192,192,169654,1,0,0:0:0:0:
320,192,169731,1,0,0:0:0:0:
448,192,169731,128,0,169964:0:0:0:0:
192,192,169964,1,0,0:0:0:0:
192,192,170196,1,0,0:0:0:0:
320,192,170196,128,0,170429:0:0:0:0:
448,192,170313,1,0,0:0:0:0:
64,192,170429,1,0,0:0:0:0:
192,192,170429,1,0,0:0:0:0:
320,192,170545,1,0,0:0:0:0:
448,192,170662,1,0,0:0:0:0:
64,192,170662,1,0,0:0:0:0:
192,192,170778,1,0,0:0:0:0:
448,192,170894,1,0,0:0:0:0:
320,192,170894,1,0,0:0:0:0:
64,192,171010,1,0,0:0:0:0:
192,192,171127,1,0,0:0:0:0:
320,192,171127,128,0,171359:0:0:0:0:
64,192,171359,1,0,0:0:0:0:
320,192,171475,1,0,0:0:0:0:
448,192,171592,128,0,171708:0:0:0:0:
192,192,171592,128,0,171824:0:0:0:0:
448,192,171824,128,0,171941:0:0:0:0:
320,192,171824,128,0,172057:0:0:0:0:
192,192,172057,128,0,172173:0:0:0:0:
64,192,172057,1,0,0:0:0:0:
192,192,172289,128,0,172406:0:0:0:0:
448,192,172289,128,0,172522:0:0:0:0:
320,192,172522,128,0,172638:0:0:0:0:
64,192,172522,128,0,172754:0:0:0:0:
320,192,172754,128,0,172871:0:0:0:0:
192,192,172754,128,0,172987:0:0:0:0:
320,192,172987,1,0,0:0:0:0:
448,192,173064,1,0,0:0:0:0:
192,192,173142,1,0,0:0:0:0:
64,192,173219,1,0,0:0:0:0:
320,192,173297,1,0,0:0:0:0:
192,192,173375,1,0,0:0:0:0:
320,192,173452,1,0,0:0:0:0:
448,192,173452,128,0,173685:0:0:0:0:
192,192,173685,1,0,0:0:0:0:
448,192,173917,1,0,0:0:0:0:
192,192,173917,128,0,174150:0:0:0:0:
64,192,174033,1,0,0:0:0:0:
320,192,174150,1,0,0:0:0:0:
448,192,174150,128,0,174382:0:0:0:0:
192,192,174266,1,0,0:0:0:0:
64,192,174382,1,0,0:0:0:0:
320,192,174382,128,0,174615:0:0:0:0:
192,192,174498,1,0,0:0:0:0:
448,192,174615,1,0,0:0:0:0:
64,192,174615,1,0,0:0:0:0:
320,192,174731,1,0,0:0:0:0:
192,192,174847,128,0,175080:0:0:0:0:
64,192,174847,128,0,175080:0:0:0:0:
64,192,175196,128,0,175429:0:0:0:0:
320,192,175196,128,0,175429:0:0:0:0:
448,192,175545,128,0,175777:0:0:0:0:
320,192,175545,128,0,175777:0:0:0:0:
192,192,175777,1,0,0:0:0:0:
64,192,175777,1,0,0:0:0:0:
192,192,176010,1,0,0:0:0:0:
448,192,176010,1,0,0:0:0:0:
320,192,176242,1,0,0:0:0:0:
192,192,176242,1,0,0:0:0:0:
320,192,176475,1,0,0:0:0:0:
64,192,176475,1,0,0:0:0:0:
64,192,176708,128,0,176940:0:0:0:0:
448,192,176708,128,0,176940:0:0:0:0:
448,192,177056,128,0,177289:0:0:0:0:
192,192,177056,128,0,177289:0:0:0:0:
64,192,177289,1,0,0:0:0:0:
320,192,177405,1,0,0:0:0:0:
192,192,177483,1,0,0:0:0:0:
64,192,177560,1,0,0:0:0:0:
320,192,177638,1,0,0:0:0:0:
448,192,177638,1,0,0:0:0:0:
192,192,177754,128,0,177870:0:0:0:0:
448,192,177870,1,0,0:0:0:0:
64,192,178103,128,0,178335:0:0:0:0:
448,192,178103,1,0,0:0:0:0:
320,192,178335,1,0,0:0:0:0:
448,192,178568,1,0,0:0:0:0:
320,192,178568,1,0,0:0:0:0:
64,192,178568,1,0,0:0:0:0:
192,192,178684,1,0,0:0:0:0:
448,192,178800,1,0,0:0:0:0:
64,192,178800,1,0,0:0:0:0:
192,192,179033,128,0,179149:0:0:0:0:
320,192,179033,128,0,179266:0:0:0:0:
192,192,179266,128,0,179382:0:0:0:0:
448,192,179266,128,0,179498:0:0:0:0:
320,192,179498,128,0,179614:0:0:0:0:
64,192,179498,1,0,0:0:0:0:
192,192,179614,1,0,0:0:0:0:
320,192,179731,128,0,179847:0:0:0:0:
192,192,179731,128,0,179963:0:0:0:0:
64,192,179963,128,0,180079:0:0:0:0:
448,192,179963,128,0,180196:0:0:0:0:
64,192,180196,128,0,180312:0:0:0:0:
320,192,180196,128,0,180428:0:0:0:0:
64,192,180428,1,0,0:0:0:0:
448,192,180428,1,0,0:0:0:0:
192,192,180506,1,0,0:0:0:0:
320,192,180583,1,0,0:0:0:0:
64,192,180661,1,0,0:0:0:0:
192,192,180738,1,0,0:0:0:0:
448,192,180738,1,0,0:0:0:0:
64,192,180893,1,0,0:0:0:0:
448,192,180893,128,0,181126:0:0:0:0:
192,192,181126,1,0,0:0:0:0:
448,192,181358,1,0,0:0:0:0:
64,192,181358,128,0,181591:0:0:0:0:
192,192,181475,1,0,0:0:0:0:
320,192,181591,1,0,0:0:0:0:
448,192,181591,128,0,181823:0:0:0:0:
64,192,181707,1,0,0:0:0:0:
320,192,181823,1,0,0:0:0:0:
192,192,181823,128,0,182056:0:0:0:0:
64,192,181940,1,0,0:0:0:0:
448,192,182056,1,0,0:0:0:0:
320,192,182056,128,0,182289:0:0:0:0:
192,192,182172,1,0,0:0:0:0:
64,192,182289,1,0,0:0:0:0:
448,192,182289,128,0,182521:0:0:0:0:
192,192,182521,1,0,0:0:0:0:
320,192,182754,1,0,0:0:0:0:
64,192,182754,128,0,182986:0:0:0:0:
448,192,182792,1,0,0:0:0:0:
192,192,182986,1,0,0:0:0:0:
320,192,182986,128,0,183219:0:0:0:0:
448,192,183025,1,0,0:0:0:0:
64,192,183219,1,0,0:0:0:0:
192,192,183219,1,0,0:0:0:0:
448,192,183257,1,0,0:0:0:0:
320,192,183451,1,0,0:0:0:0:
192,192,183451,128,0,183684:0:0:0:0:
64,192,183490,1,0,0:0:0:0:
64,192,183684,1,0,0:0:0:0:
320,192,183684,128,0,183916:0:0:0:0:
448,192,183723,1,0,0:0:0:0:
192,192,183916,1,0,0:0:0:0:
448,192,183916,128,0,184149:0:0:0:0:
64,192,183955,1,0,0:0:0:0:
192,192,184149,128,0,184304:0:0:0:0:
320,192,184149,128,0,184226:0:0:0:0:
64,192,184149,1,0,0:0:0:0:
448,192,184304,1,0,0:0:0:0:
320,192,184381,1,0,0:0:0:0:
64,192,184459,1,0,0:0:0:0:
192,192,184536,1,0,0:0:0:0:
448,192,184614,1,0,0:0:0:0:
320,192,184614,128,0,184846:0:0:0:0:
192,192,184846,1,0,0:0:0:0:
192,192,185079,1,0,0:0:0:0:
320,192,185079,128,0,185312:0:0:0:0:
448,192,185195,1,0,0:0:0:0:
64,192,185312,1,0,0:0:0:0:
192,192,185312,1,0,0:0:0:0:
320,192,185428,1,0,0:0:0:0:
448,192,185544,1,0,0:0:0:0:
64,192,185544,1,0,0:0:0:0:
192,192,185660,1,0,0:0:0:0:
448,192,185777,1,0,0:0:0:0:
320,192,185777,1,0,0:0:0:0:
64,192,185893,1,0,0:0:0:0:
192,192,186009,1,0,0:0:0:0:
320,192,186009,128,0,186242:0:0:0:0:
64,192,186242,1,0,0:0:0:0:
192,192,186358,1,0,0:0:0:0:
448,192,186474,128,0,186591:0:0:0:0:
64,192,186474,128,0,186707:0:0:0:0:
448,192,186707,128,0,186823:0:0:0:0:
320,192,186707,128,0,186939:0:0:0:0:
192,192,186939,128,0,187056:0:0:0:0:
64,192,186939,1,0,0:0:0:0:
192,192,187172,128,0,187288:0:0:0:0:
448,192,187172,128,0,187404:0:0:0:0:
320,192,187404,128,0,187521:0:0:0:0:
64,192,187404,128,0,187637:0:0:0:0:
320,192,187637,128,0,187753:0:0:0:0:
192,192,187637,128,0,187870:0:0:0:0:
320,192,187870,1,0,0:0:0:0:
448,192,187947,1,0,0:0:0:0:
192,192,188025,1,0,0:0:0:0:
64,192,188102,1,0,0:0:0:0:
320,192,188180,1,0,0:0:0:0:
192,192,188257,1,0,0:0:0:0:
448,192,188335,1,0,0:0:0:0:
320,192,188335,128,0,188567:0:0:0:0:
192,192,188567,1,0,0:0:0:0:
448,192,188800,1,0,0:0:0:0:
192,192,188800,128,0,189032:0:0:0:0:
64,192,188916,1,0,0:0:0:0:
320,192,189032,1,0,0:0:0:0:
448,192,189032,128,0,189265:0:0:0:0:
192,192,189148,1,0,0:0:0:0:
64,192,189265,1,0,0:0:0:0:
320,192,189265,128,0,189497:0:0:0:0:
192,192,189381,1,0,0:0:0:0:
448,192,189497,1,0,0:0:0:0:
64,192,189497,1,0,0:0:0:0:
320,192,189614,1,0,0:0:0:0:
192,192,189730,128,0,189962:0:0:0:0:
64,192,189730,128,0,189962:0:0:0:0:
64,192,190079,128,0,190311:0:0:0:0:
320,192,190079,128,0,190311:0:0:0:0:
448,192,190427,128,0,190660:0:0:0:0:
320,192,190427,128,0,190660:0:0:0:0:
192,192,190660,1,0,0:0:0:0:
64,192,190660,1,0,0:0:0:0:
192,192,190893,1,0,0:0:0:0:
448,192,190893,1,0,0:0:0:0:
320,192,191125,1,0,0:0:0:0:
192,192,191125,1,0,0:0:0:0:
320,192,191358,1,0,0:0:0:0:
64,192,191358,1,0,0:0:0:0:
64,192,191590,128,0,191823:0:0:0:0:
448,192,191590,128,0,191823:0:0:0:0:
448,192,191939,128,0,192171:0:0:0:0:
192,192,191939,128,0,192171:0:0:0:0:
64,192,192171,1,0,0:0:0:0:
320,192,192288,1,0,0:0:0:0:
192,192,192365,1,0,0:0:0:0:
64,192,192443,1,0,0:0:0:0:
320,192,192520,1,0,0:0:0:0:
448,192,192520,1,0,0:0:0:0:
192,192,192637,128,0,192753:0:0:0:0:
448,192,192753,1,0,0:0:0:0:
448,192,192985,1,0,0:0:0:0:
64,192,192985,128,0,193218:0:0:0:0:
320,192,193218,1,0,0:0:0:0:
448,192,193450,1,0,0:0:0:0:
192,192,193450,1,0,0:0:0:0:
64,192,193450,1,0,0:0:0:0:
320,192,193567,1,0,0:0:0:0:
448,192,193683,1,0,0:0:0:0:
64,192,193683,1,0,0:0:0:0:
320,192,193916,128,0,194032:0:0:0:0:
192,192,193916,128,0,194148:0:0:0:0:
320,192,194148,128,0,194264:0:0:0:0:
64,192,194148,128,0,194381:0:0:0:0:
448,192,194381,1,0,0:0:0:0:
192,192,194381,128,0,194497:0:0:0:0:
320,192,194497,1,0,0:0:0:0:
192,192,194613,128,0,194729:0:0:0:0:
64,192,194613,128,0,194846:0:0:0:0:
448,192,194846,128,0,194962:0:0:0:0:
320,192,194846,128,0,195078:0:0:0:0:
448,192,195078,128,0,195195:0:0:0:0:
192,192,195078,128,0,195311:0:0:0:0:
64,192,195311,1,0,0:0:0:0:
448,192,195311,1,0,0:0:0:0:
320,192,195388,1,0,0:0:0:0:
192,192,195466,1,0,0:0:0:0:
448,192,195543,1,0,0:0:0:0:
64,192,195621,1,0,0:0:0:0:
320,192,195621,1,0,0:0:0:0:
448,192,195776,1,0,0:0:0:0:
64,192,195776,128,0,196008:0:0:0:0:
320,192,196008,1,0,0:0:0:0:
64,192,196241,1,0,0:0:0:0:
448,192,196241,128,0,196473:0:0:0:0:
320,192,196357,1,0,0:0:0:0:
192,192,196473,1,0,0:0:0:0:
64,192,196473,128,0,196706:0:0:0:0:
448,192,196590,1,0,0:0:0:0:
192,192,196706,1,0,0:0:0:0:
320,192,196706,128,0,196939:0:0:0:0:
448,192,196822,1,0,0:0:0:0:
64,192,196939,1,0,0:0:0:0:
192,192,196939,128,0,197171:0:0:0:0:
320,192,197055,1,0,0:0:0:0:
64,192,197171,1,0,0:0:0:0:
448,192,197171,128,0,197404:0:0:0:0:
320,192,197404,1,0,0:0:0:0:
320,192,197636,1,0,0:0:0:0:
192,192,197636,128,0,197869:0:0:0:0:
448,192,197675,1,0,0:0:0:0:
448,192,197869,1,0,0:0:0:0:
320,192,197869,128,0,198101:0:0:0:0:
64,192,197907,1,0,0:0:0:0:
192,192,198101,1,0,0:0:0:0:
448,192,198101,1,0,0:0:0:0:
64,192,198140,1,0,0:0:0:0:
64,192,198334,1,0,0:0:0:0:
192,192,198334,128,0,198566:0:0:0:0:
448,192,198373,1,0,0:0:0:0:
448,192,198566,1,0,0:0:0:0:
320,192,198566,128,0,198799:0:0:0:0:
64,192,198605,1,0,0:0:0:0:
192,192,198799,1,0,0:0:0:0:
64,192,198799,128,0,199031:0:0:0:0:
448,192,198838,1,0,0:0:0:0:
448,192,199031,1,0,0:0:0:0:
192,192,199031,128,0,199109:0:0:0:0:
320,192,199031,128,0,199186:0:0:0:0:
64,192,199186,1,0,0:0:0:0:
192,192,199264,1,0,0:0:0:0:
448,192,199341,1,0,0:0:0:0:
320,192,199419,1,0,0:0:0:0:
192,192,199497,1,0,0:0:0:0:
64,192,199497,128,0,199729:0:0:0:0:
320,192,199729,1,0,0:0:0:0:
192,192,199962,1,0,0:0:0:0:
320,192,199962,1,0,0:0:0:0:
64,192,200078,1,0,0:0:0:0:
320,192,200194,1,0,0:0:0:0:
448,192,200194,1,0,0:0:0:0:
192,192,200310,1,0,0:0:0:0:
448,192,200427,1,0,0:0:0:0:
64,192,200427,1,0,0:0:0:0:
320,192,200543,1,0,0:0:0:0:
192,192,200659,1,0,0:0:0:0:
64,192,200659,1,0,0:0:0:0:
448,192,200775,1,0,0:0:0:0:
320,192,200892,1,0,0:0:0:0:
192,192,200892,128,0,201124:0:0:0:0:
320,192,201124,1,0,0:0:0:0:
192,192,201241,1,0,0:0:0:0:
64,192,201357,128,0,201473:0:0:0:0:
448,192,201357,128,0,201589:0:0:0:0:
64,192,201589,128,0,201706:0:0:0:0:
192,192,201589,128,0,201822:0:0:0:0:
448,192,201822,1,0,0:0:0:0:
320,192,201822,128,0,201938:0:0:0:0:
320,192,202054,128,0,202171:0:0:0:0:
64,192,202054,128,0,202287:0:0:0:0:
192,192,202287,128,0,202403:0:0:0:0:
448,192,202287,128,0,202520:0:0:0:0:
192,192,202520,128,0,202636:0:0:0:0:
320,192,202520,128,0,202752:0:0:0:0:
192,192,202752,1,0,0:0:0:0:
64,192,202830,1,0,0:0:0:0:
320,192,202907,1,0,0:0:0:0:
448,192,202985,1,0,0:0:0:0:
192,192,203062,1,0,0:0:0:0:
320,192,203140,1,0,0:0:0:0:
192,192,203217,1,0,0:0:0:0:
64,192,203217,128,0,203450:0:0:0:0:
320,192,203450,1,0,0:0:0:0:
64,192,203682,1,0,0:0:0:0:
320,192,203682,128,0,203915:0:0:0:0:
448,192,203799,1,0,0:0:0:0:
192,192,203915,1,0,0:0:0:0:
64,192,203915,128,0,204147:0:0:0:0:
320,192,204031,1,0,0:0:0:0:
448,192,204147,1,0,0:0:0:0:
192,192,204147,128,0,204380:0:0:0:0:
320,192,204264,1,0,0:0:0:0:
448,192,204380,1,0,0:0:0:0:
64,192,204380,1,0,0:0:0:0:
192,192,204496,1,0,0:0:0:0:
448,192,204612,128,0,204845:0:0:0:0:
320,192,204612,128,0,204845:0:0:0:0:
192,192,204961,128,0,205194:0:0:0:0:
448,192,204961,128,0,205194:0:0:0:0:
192,192,205310,128,0,205543:0:0:0:0:
64,192,205310,128,0,205543:0:0:0:0:
448,192,205543,1,0,0:0:0:0:
320,192,205543,1,0,0:0:0:0:
64,192,205775,1,0,0:0:0:0:
320,192,205775,1,0,0:0:0:0:
320,192,206008,1,0,0:0:0:0:
192,192,206008,1,0,0:0:0:0:
448,192,206240,1,0,0:0:0:0:
192,192,206240,1,0,0:0:0:0:
64,192,206473,128,0,206705:0:0:0:0:
448,192,206473,128,0,206705:0:0:0:0:
320,192,206822,128,0,207054:0:0:0:0:
64,192,206822,128,0,207054:0:0:0:0:
448,192,207054,1,0,0:0:0:0:
192,192,207170,1,0,0:0:0:0:
320,192,207248,1,0,0:0:0:0:
448,192,207325,1,0,0:0:0:0:
64,192,207403,1,0,0:0:0:0:
192,192,207403,1,0,0:0:0:0:
320,192,207519,128,0,207635:0:0:0:0:
64,192,207635,1,0,0:0:0:0:
448,192,207868,128,0,208100:0:0:0:0:
64,192,207868,1,0,0:0:0:0:
192,192,208100,1,0,0:0:0:0:
