osu file format v14

[General]
AudioFilename: audio.mp3
AudioLeadIn: 0
PreviewTime: 67781
Countdown: 1
SampleSet: Soft
StackLeniency: 0.7
Mode: 0
LetterboxInBreaks: 0
WidescreenStoryboard: 1

[Editor]
Bookmarks: 7781,83972,99210,190639,205401
DistanceSpacing: 1.4
BeatDivisor: 4
GridSize: 4
TimelineZoom: 1

[Metadata]
Title:BBoom BBoom
TitleUnicode:뿜뿜
Artist:MOMOLAND
ArtistUnicode:모모랜드
Creator:Nekomata
Version:Normal
Source:
Tags:kpop great loen dublekick hyebin 혜빈 yeonwoo 연우 jane 제인 taeha 태하 nayun 나윤 daisy 데이지 ahin 아인 nancy 낸시 jooe 낸시 ataraxia
BeatmapID:1572495
BeatmapSetID:725525

[Difficulty]
HPDrainRate:3
CircleSize:3
OverallDifficulty:3
ApproachRate:3.5
SliderMultiplier:1.2
SliderTickRate:2

[Events]
//Background and Video events
Video,-743,"bboom.mp4"
0,0,"momoland-bg.jpg",0,0
//Break Periods
2,84172,97770
2,160162,170151
//Storyboard Layer 0 (Background)
//Storyboard Layer 1 (Fail)
//Storyboard Layer 2 (Pass)
//Storyboard Layer 3 (Foreground)
//Storyboard Sound Samples

[TimingPoints]
7782,476.190476190476,4,2,1,70,1,0
65877,-100,4,2,1,80,0,0
66353,-100,4,2,1,90,0,0
66710,-100,4,2,1,5,0,0
67781,-100,4,2,1,70,0,0
68734,-100,4,2,1,70,0,1
83972,-100,4,2,1,70,0,0
99210,-100,4,2,99,60,0,0
114329,-100,4,2,1,5,0,0
114448,-100,4,2,1,70,0,0
142068,-100,4,2,1,80,0,0
142544,-100,4,2,1,90,0,0
142901,-100,4,2,1,5,0,0
143972,-100,4,2,1,70,0,0
144924,-100,4,2,1,70,0,1
160162,-100,4,2,1,70,0,0
175401,-100,4,2,1,70,0,1
190639,-100,4,2,1,70,0,0

[Colours]
Combo1 : 145,211,44
Combo2 : 202,46,0
Combo3 : 153,79,193
Combo4 : 218,48,124

[HitObjects]
96,76,7781,6,0,B|125:88|154:75|154:75|180:97|216:93,2,120,0|8|4,2:0|2:0|2:3,0:0:0:0:
20,226,9210,2,0,L|35:284,1,60,8|0,0:0|0:0,0:0:0:0:
114,312,9686,2,0,P|153:285|227:273,1,120,4|8,0:3|0:0,0:0:0:0:
379,334,10639,1,4,0:3:0:0:
441,178,11115,1,8,0:0:0:0:
297,90,11591,6,0,B|276:107|241:109|241:109|208:111|190:145,2,120,4|8|4,0:3|0:0|0:3,0:0:0:0:
441,178,13020,2,0,L|430:247,1,60,8|0,0:0|0:0,0:0:0:0:
384,306,13496,2,0,P|332:292|264:292,1,120,4|8,0:3|0:0,0:0:0:0:
190,327,14210,1,0,0:0:0:0:
109,303,14448,2,0,P|87:264|75:187,1,120,4|8,0:3|0:0,0:0:0:0:
169,51,15401,6,0,B|226:33|226:33|254:45|285:43,1,120,4|8,0:3|0:0,0:0:0:0:
435,118,16353,1,4,0:3:0:0:
409,283,16829,1,8,0:0:0:0:
253,218,17305,2,0,P|192:206|133:206,1,120,4|8,0:3|0:0,0:0:0:0:
23,332,18258,2,0,L|87:332,1,60,4|0,0:3|0:0,0:0:0:0:
157,371,18734,2,0,L|221:371,1,60,8|0,0:0|0:0,0:0:0:0:
288,326,19210,6,0,P|310:272|305:210,2,120,4|8|4,0:3|0:0|0:3,0:0:0:0:
140,245,20639,1,8,0:0:0:0:
195,86,21115,2,0,P|253:109|312:104,1,120,4|8,0:3|0:0,0:0:0:0:
381,60,21829,1,0,0:0:0:0:
458,93,22067,2,0,P|450:152|423:207,1,120,4|8,0:3|0:0,0:0:0:0:
302,322,23020,6,0,P|243:331|184:319,1,120,6|4,0:3|0:3,0:0:0:0:
100,173,23972,2,0,P|93:140|94:111,1,60,4|0,0:3|0:0,0:0:0:0:
172,84,24448,2,0,P|194:102|223:117,1,60,4|0,0:3|0:0,0:0:0:0:
296,77,24924,2,0,P|342:62|416:68,2,120,4|4|4,0:3|0:3|0:3,0:0:0:0:
424,185,26353,1,4,0:3:0:0:
308,307,26829,6,0,P|257:291|192:294,1,120,4|4,0:3|0:3,0:0:0:0:
26,263,27781,2,0,L|11:201,1,60,4|0,0:3|0:0,0:0:0:0:
90,174,28258,2,0,L|92:112,1,60,4|0,0:3|0:0,0:0:0:0:
174,128,28734,2,0,B|190:69|190:69|250:56,1,120,4|4,0:3|0:3,0:0:0:0:
406,110,29686,2,0,B|437:164|437:164|417:222,1,120,4|4,0:3|0:3,0:0:0:0:
251,243,30639,6,0,P|200:229|133:240,1,120,4|4,0:3|0:3,0:0:0:0:
96,76,31591,2,0,P|147:62|214:73,1,120,4|4,0:3|0:3,0:0:0:0:
369,132,32543,1,4,0:3:0:0:
432,287,33020,1,4,0:3:0:0:
265,265,33496,2,0,B|208:228|208:228|180:179,1,120,4|4,0:3|0:3,0:0:0:0:
243,26,34448,6,0,P|286:68|341:91,1,120,4|4,0:3|0:3,0:0:0:0:
489,168,35401,2,0,P|460:221|412:260,1,120,4|4,0:3|0:3,0:0:0:0:
247,245,36353,2,0,P|204:228|127:226,1,120,4|4,0:3|0:3,0:0:0:0:
64,71,37305,2,0,P|107:54|184:52,1,120,4|4,0:3|0:3,0:0:0:0:
251,96,38020,1,0,0:0:0:0:
328,62,38258,5,6,0:3:0:0:
390,217,38734,1,8,0:3:0:0:
255,316,39210,2,0,L|192:316,1,60,4|0,0:3|0:3,0:0:0:0:
112,329,39686,2,0,L|90:271,1,60,8|0,0:3|0:3,0:0:0:0:
156,220,40162,1,4,0:3:0:0:
324,220,40639,1,8,0:3:0:0:
205,101,41115,2,0,L|231:47,1,60,4|0,0:3|0:3,0:0:0:0:
306,9,41591,2,0,L|368:19,1,60,8|0,0:3|0:3,0:0:0:0:
342,99,42067,5,4,0:3:0:0:
455,223,42543,1,8,0:3:0:0:
332,338,43020,2,0,L|269:331,1,60,4|0,0:3|0:3,0:0:0:0:
227,260,43496,2,0,L|164:261,1,60,8|0,0:3|0:3,0:0:0:0:
98,308,43972,1,4,0:3:0:0:
59,144,44448,1,8,0:3:0:0:
222,106,44924,1,4,0:3:0:0:
262,269,45401,1,8,0:3:0:0:
98,308,45877,6,0,P|47:277|16:221,2,120,6|8|4,0:3|0:3|0:3,0:0:0:0:
208,181,47305,2,0,L|226:239,1,60,8|0,0:3|0:3,0:0:0:0:
261,314,47781,2,0,P|320:306|368:267,2,120,4|8|4,0:3|0:3|0:3,0:0:0:0:
107,244,49210,2,0,L|119:178,1,60,8|0,0:3|0:3,0:0:0:0:
135,102,49686,6,0,P|192:118|255:110,1,120,4|8,0:3|0:3,0:0:0:0:
399,30,50639,2,0,P|422:83|420:145,1,120,4|8,0:3|0:3,0:0:0:0:
371,304,51591,1,4,0:3:0:0:
219,231,52067,2,0,P|161:215|100:222,2,120,8|6|4,0:3|0:3|0:3,0:0:0:0:
378,285,53496,6,0,B|356:131|356:131|293:184|293:184|232:131|232:131|219:234,1,420,12|0,3:1|3:0,0:0:0:0:
233,314,55401,2,0,P|166:382|118:277,1,240,8|8,3:1|3:1,0:0:0:0:
36,247,56592,2,0,L|21:308,2,60,0|8|8,3:0|3:1|3:1,0:0:0:0:
6,169,57305,6,0,P|36:163|67:170,1,60,8|0,3:1|3:0,0:0:0:0:
138,128,57781,2,0,P|168:132|199:128,1,60,8|0,3:1|3:0,0:0:0:0:
265,177,58258,2,0,P|325:169|384:183,1,120,8|8,3:1|3:1,0:0:0:0:
433,249,58972,2,0,P|463:200|453:139,1,120,0|0,3:0|3:0,0:0:0:0:
399,76,59686,2,0,L|339:77,1,60,8|0,3:1|3:0,0:0:0:0:
270,29,60162,2,0,L|212:56,1,60,8|0,3:1|3:0,0:0:0:0:
137,86,60639,2,0,L|132:155,1,60,8|8,3:1|3:1,0:0:0:0:
189,207,61115,6,0,B|245:133|245:133|273:215|273:215|357:202|357:202|321:291|321:291|368:328,1,420,8|0,3:1|0:1,0:0:0:0:
451,316,63020,2,0,P|523:268|432:187,1,240,8|8,3:1|3:1,0:0:0:0:
385,119,64211,2,0,L|429:50,2,60,0|8|0,3:1|3:1|3:1,0:0:0:0:
256,192,64924,12,8,66710,3:1:0:0:
407,338,67781,6,0,L|370:210,1,120,0|8,0:1|0:0,0:0:0:0:
350,141,68496,1,0,0:1:0:0:
278,184,68734,6,0,P|223:205|160:205,1,120,6|8,0:3|0:0,0:0:0:0:
86,170,69448,1,0,0:0:0:0:
117,92,69686,2,0,P|140:72|167:57,1,60,4|0,0:3|0:0,0:0:0:0:
248,74,70162,2,0,P|270:89|304:100,1,60,8|0,0:0|0:0,0:0:0:0:
380,71,70639,2,0,P|379:130|339:174,2,120,4|8|4,0:3|0:0|0:3,0:0:0:0:
486,200,72067,2,0,L|461:256,1,60,8|0,0:0|0:0,0:0:0:0:
399,311,72543,6,0,P|335:294|281:295,1,120,4|8,0:3|0:0,0:0:0:0:
204,328,73258,1,0,0:0:0:0:
121,344,73496,2,0,L|117:280,1,60,4|0,0:3|0:0,0:0:0:0:
33,280,73972,2,0,L|39:217,1,60,8|0,0:0|0:0,0:0:0:0:
103,167,74448,1,4,0:3:0:0:
418,50,75401,2,0,L|425:113,1,60,4|0,0:3|0:0,0:0:0:0:
341,117,75877,2,0,L|333:180,1,60,8|0,0:0|0:0,0:0:0:0:
415,194,76353,6,0,P|413:253|378:306,1,120,6|8,0:3|0:0,0:0:0:0:
306,342,77067,1,0,0:0:0:0:
225,319,77305,2,0,P|196:308|167:305,1,60,4|0,0:3|0:0,0:0:0:0:
84,316,77781,2,0,P|56:302|35:283,1,60,8|0,0:0|0:0,0:0:0:0:
78,210,78258,2,0,P|85:165|71:84,2,120,4|8|4,0:3|0:2|0:3,0:0:0:0:
207,103,79686,2,0,P|238:91|266:88,1,60,8|0,0:2|0:0,0:0:0:0:
321,149,80162,6,0,P|345:112|344:63,2,90,4|2|2,0:3|0:0|0:0,0:0:0:0:
254,201,81115,2,0,P|304:233|364:222,1,120,4|8,0:3|0:2,0:0:0:0:
436,185,81829,1,2,0:0:0:0:
471,261,82067,2,0,P|449:298|410:329,2,90,4|2|2,0:3|0:0|0:0,0:0:0:0:
436,185,83020,2,0,P|392:145|333:142,1,120,4|8,0:3|0:0,0:0:0:0:
265,190,83734,1,2,0:0:0:0:
252,273,83972,5,6,0:3:0:0:
80,240,99210,6,0,P|135:265|197:266,2,120,0|0|0,0:0|3:0|1:0,0:0:0:0:
50,161,100401,1,0,0:0:0:0:
68,79,100639,2,0,L|129:83,1,60,4|0,3:0|3:0,0:0:0:0:
200,125,101115,1,0,3:0:0:0:
351,52,101591,1,4,3:0:0:0:
452,185,102067,2,0,P|446:245|410:294,1,120,0|0,1:0|3:0,0:0:0:0:
328,289,102781,1,0,3:0:0:0:
281,359,103020,6,0,P|221:357|173:317,2,120,4|0|0,3:0|3:0|1:0,0:0:0:0:
328,289,104210,1,0,0:0:0:0:
300,209,104448,2,0,L|237:200,1,60,4|0,3:0|0:0,0:0:0:0:
160,225,104924,1,0,0:0:0:0:
17,134,105401,1,4,0:3:0:0:
166,56,105877,2,0,P|223:73|286:68,1,120,2|0,1:0|3:0,0:0:0:0:
361,41,106591,1,0,3:0:0:0:
430,88,106829,6,0,B|451:130|451:130|409:182|409:182|427:258|380:304,1,240,4|0,0:1|1:2,0:0:0:0:
222,347,108258,1,4,3:0:0:0:
102,228,108734,2,0,L|93:163,1,60,0|0,3:0|3:0,0:0:0:0:
19,129,109210,2,0,L|11:65,1,60
81,22,109686,1,0,0:0:0:0:
190,149,110162,2,0,L|251:157,1,60,0|0,3:0|3:0,0:0:0:0:
296,86,110639,6,0,P|354:68|413:69,1,120,4|0,0:3|3:0,0:0:0:0:
480,118,111353,1,4,3:0:0:0:
420,177,111591,2,0,P|375:216|349:272,1,120,0|4,1:0|3:0,0:0:0:0:
340,353,112305,1,0,3:0:0:0:
262,321,112543,1,8,0:0:0:0:
238,154,113020,1,4,0:3:0:0:
106,258,113496,2,0,L|88:198,1,60,8|4,0:0|0:3,0:0:0:0:
74,117,113972,1,8,0:1:0:0:
238,154,114448,5,6,0:3:0:0:
199,317,114924,1,8,0:3:0:0:
360,269,115401,2,0,L|365:207,1,60,4|0,0:3|0:3,0:0:0:0:
448,202,115877,2,0,L|461:264,1,60,8|0,0:3|0:3,0:0:0:0:
465,344,116353,1,4,0:3:0:0:
364,209,116829,1,8,0:3:0:0:
420,50,117305,2,0,L|360:35,1,60,4|0,0:3|0:3,0:0:0:0:
291,81,117781,2,0,L|232:76,1,60,8|0,0:3|0:3,0:0:0:0:
147,79,118258,5,4,0:3:0:0:
265,198,118734,1,8,0:3:0:0:
100,166,119210,2,0,L|87:230,1,60,4|0,0:3|0:3,0:0:0:0:
171,233,119686,2,0,L|178:295,1,60,8|0,0:3|0:3,0:0:0:0:
116,349,120162,1,4,0:3:0:0:
283,331,120639,1,8,0:3:0:0:
448,302,121115,1,4,0:3:0:0:
367,154,121591,1,8,0:3:0:0:
226,246,122067,6,0,P|201:197|202:126,2,120,6|8|4,0:3|0:3|0:3,0:0:0:0:
367,154,123496,2,0,L|337:99,1,60,8|0,0:3|0:3,0:0:0:0:
279,40,123972,2,0,P|223:17|164:17,1,120,4|8,0:3|0:3,0:0:0:0:
40,129,124924,2,0,P|84:112|163:112,1,120,4|8,0:3|0:3,0:0:0:0:
217,168,125639,1,0,0:3:0:0:
256,241,125877,6,0,P|304:276|365:283,1,120,4|8,0:3|0:3,0:0:0:0:
439,249,126591,1,0,0:3:0:0:
445,165,126829,2,0,L|434:101,1,60,4|0,0:3|0:0,0:0:0:0:
366,57,127305,2,0,L|331:106,1,60,8|0,0:3|0:3,0:0:0:0:
251,132,127781,2,0,P|221:108|143:93,1,120,4|8,0:3|0:3,0:0:0:0:
75,144,128496,1,8,0:2:0:0:
52,224,128734,2,0,P|80:274|134:308,1,120,6|4,0:3|0:3,0:0:0:0:
258,197,129686,6,0,B|280:43|280:43|345:97|345:97|411:41|411:41|422:136,1,420,12|0,3:1|3:0,0:0:0:0:
434,217,131591,2,0,P|376:288|368:187,1,240,8|8,3:1|3:1,0:0:0:0:
421,133,132781,2,0,P|453:135|478:145,2,60,0|8|8,3:0|3:1|3:1,0:0:0:0:
359,190,133496,6,0,L|322:141,1,60,8|0,3:1|3:0,0:0:0:0:
240,125,133972,2,0,L|188:157,1,60,8|0,3:1|3:0,0:0:0:0:
117,200,134448,2,0,P|106:144|138:91,1,120,8|8,3:1|3:1,0:0:0:0:
210,51,135162,2,0,P|269:50|313:93,1,120,0|0,3:0|3:0,0:0:0:0:
352,163,135877,2,0,L|415:152,1,60,8|0,3:1|3:0,0:0:0:0:
477,204,136353,2,0,L|474:275,1,60,8|0,3:1|3:0,0:0:0:0:
393,285,136829,2,0,L|344:242,1,60,8|8,3:1|3:1,0:0:0:0:
352,163,137305,6,0,B|330:9|330:9|265:63|265:63|199:7|199:7|188:102,1,420,8|0,3:1|0:1,0:0:0:0:
176,183,139210,2,0,P|234:254|242:153,1,240,8|8,3:1|3:1,0:0:0:0:
188,99,140401,2,0,L|127:99,2,60,0|8|0,3:1|3:1|3:1,0:0:0:0:
256,192,141115,12,8,142901,3:1:0:0:
65,71,143972,6,0,P|102:117|160:137,1,120,0|8,0:1|0:0,0:0:0:0:
240,118,144686,1,0,0:1:0:0:
323,119,144924,6,0,P|349:172|351:233,1,120,6|8,0:3|0:0,0:0:0:0:
331,314,145639,1,0,0:0:0:0:
253,282,145877,2,0,P|223:275|193:275,1,60,4|0,0:3|0:0,0:0:0:0:
141,209,146353,2,0,P|170:195|199:192,1,60,8|0,0:0|0:0,0:0:0:0:
247,124,146829,2,0,P|189:109|131:122,2,120,4|8|4,0:3|0:0|0:3,0:0:0:0:
358,249,148258,2,0,L|369:178,1,60,8|0,0:0|0:0,0:0:0:0:
450,179,148734,6,0,P|447:239|430:298,1,120,4|8,0:3|0:0,0:0:0:0:
375,359,149448,1,0,0:0:0:0:
296,328,149686,2,0,L|234:318,1,60,4|0,0:3|0:0,0:0:0:0:
164,361,150162,2,0,L|106:342,1,60,8|0,0:0|0:0,0:0:0:0:
59,272,150639,1,4,0:3:0:0:
327,70,151591,2,0,L|363:121,1,60,4|0,0:3|0:0,0:0:0:0:
304,180,152067,2,0,L|249:143,1,60,8|0,0:0|0:0,0:0:0:0:
186,196,152543,6,0,L|266:290,1,120,6|8,0:3|0:0,0:0:0:0:
324,346,153258,1,0,0:0:0:0:
397,305,153496,2,0,P|413:278|419:249,1,60,4|0,0:3|0:0,0:0:0:0:
365,185,153972,2,0,P|371:155|386:130,1,60,8|0,0:0|0:0,0:0:0:0:
465,99,154448,2,0,P|423:53|369:48,2,120,4|8|4,0:3|0:2|0:3,0:0:0:0:
458,267,155877,2,0,L|411:308,1,60,8|0,0:2|0:0,0:0:0:0:
338,267,156353,6,0,P|293:249|250:245,2,90,4|2|2,0:3|0:0|0:0,0:0:0:0:
333,350,157305,2,0,P|274:346|216:321,1,120,4|8,0:3|0:2,0:0:0:0:
160,261,158020,1,2,0:0:0:0:
96,315,158258,2,0,P|56:337|11:342,2,90,4|2|2,0:3|0:0|0:0,0:0:0:0:
160,261,159210,2,0,P|185:282|271:302,1,120,4|8,0:3|0:0,0:0:0:0:
256,192,171591,12,4,173496,0:3:0:0:
142,304,174448,6,0,P|193:278|255:274,1,120,12|8,0:3|0:0,0:0:0:0:
335,298,175162,1,0,0:0:0:0:
376,224,175401,6,0,P|368:166|336:113,1,120,6|8,0:3|0:0,0:0:0:0:
257,86,176115,1,0,0:0:0:0:
216,159,176353,2,0,L|170:118,1,60,4|0,0:3|0:0,0:0:0:0:
123,49,176829,2,0,P|101:70|89:99,1,60,8|0,0:0|0:0,0:0:0:0:
112,177,177305,2,0,P|55:172|13:127,2,120,4|8|4,0:3|0:0|0:3,0:0:0:0:
171,119,178496,1,0,0:0:0:0:
218,188,178734,2,0,L|218:248,1,60,8|0,0:0|0:0,0:0:0:0:
219,331,179210,6,0,P|259:321|341:322,1,120,4|8,0:3|0:0,0:0:0:0:
414,353,179924,1,0,0:0:0:0:
470,290,180162,2,0,L|458:220,1,60,4|0,0:3|0:0,0:0:0:0:
378,207,180639,2,0,L|388:140,1,60,8|0,0:0|0:0,0:0:0:0:
435,79,181115,1,4,0:3:0:0:
99,60,182067,2,0,L|120:127,1,60,4|0,0:3|0:0,0:0:0:0:
197,142,182543,2,0,L|192:212,1,60,8|0,0:0|0:0,0:0:0:0:
130,259,183020,6,0,P|180:286|242:272,1,120,6|8,0:3|0:0,0:0:0:0:
303,219,183734,1,0,0:0:0:0:
349,149,183972,2,0,L|342:81,1,60,4|0,0:3|0:0,0:0:0:0:
426,80,184448,2,0,L|433:148,1,60,8|0,0:0|0:0,0:0:0:0:
441,223,184924,2,0,P|422:280|376:317,2,120,4|8|4,0:3|0:0|0:3,0:0:0:0:
432,139,186115,1,0,0:0:0:0:
375,77,186353,2,0,L|315:60,1,60,8|0,0:0|0:0,0:0:0:0:
246,106,186829,6,0,P|231:68|243:18,2,90,4|2|2,0:3|0:0|0:0,0:0:0:0:
298,171,187781,2,0,L|271:226,1,60,4|2,0:3|0:0,0:0:0:0:
194,259,188258,2,0,L|131:243,1,60,8|2,0:0|0:0,0:0:0:0:
81,180,188734,2,0,P|77:133|98:93,2,90,4|2|2,0:3|0:0|0:0,0:0:0:0:
135,244,189686,2,0,P|139:303|106:352,1,120,4|8,0:3|0:0,0:0:0:0:
24,329,190401,1,2,0:0:0:0:
25,245,190639,5,6,0:3:0:0:
