osu file format v14

[General]
AudioFilename: audio.mp3
AudioLeadIn: 0
PreviewTime: 67781
Countdown: 1
SampleSet: Soft
StackLeniency: 0.7
Mode: 0
LetterboxInBreaks: 0
WidescreenStoryboard: 1

[Editor]
Bookmarks: 7781,83972,99210,190639,205401
DistanceSpacing: 1.3
BeatDivisor: 4
GridSize: 4
TimelineZoom: 1

[Metadata]
Title:BBoom BBoom
TitleUnicode:뿜뿜
Artist:MOMOLAND
ArtistUnicode:모모랜드
Creator:Nekomata
Version:Hard
Source:
Tags:kpop great loen dublekick hyebin 혜빈 yeonwoo 연우 jane 제인 taeha 태하 nayun 나윤 daisy 데이지 ahin 아인 nancy 낸시 jooe 낸시 ataraxia
BeatmapID:1531876
BeatmapSetID:725525

[Difficulty]
HPDrainRate:6
CircleSize:4
OverallDifficulty:6
ApproachRate:7.5
SliderMultiplier:1.6
SliderTickRate:2

[Events]
//Background and Video events
Video,-743,"bboom.mp4"
0,0,"momoland-bg.jpg",0,0
//Break Periods
2,84172,98385
//Storyboard Layer 0 (Background)
//Storyboard Layer 1 (Fail)
//Storyboard Layer 2 (Pass)
//Storyboard Layer 3 (Foreground)
//Storyboard Sound Samples

[TimingPoints]
7782,476.190476190476,4,2,1,70,1,0
64924,-100,4,2,1,60,0,0
65401,-100,4,2,1,70,0,0
65877,-100,4,2,1,80,0,0
66353,-100,4,2,1,90,0,0
67781,-100,4,2,1,70,0,0
68139,-100,4,2,1,50,0,0
68258,-76.9230769230769,4,2,1,70,0,0
68734,-83.3333333333333,4,2,1,70,0,1
83972,-90.9090909090909,4,2,1,70,0,0
99210,-133.333333333333,4,2,99,60,0,0
114329,-133.333333333333,4,2,1,5,0,0
114448,-100,4,2,1,70,0,0
141115,-100,4,2,1,60,0,0
141592,-100,4,2,1,70,0,0
142068,-100,4,2,1,80,0,0
142544,-100,4,2,1,90,0,0
143972,-100,4,2,1,70,0,0
144330,-100,4,2,1,50,0,0
144448,-76.9230769230769,4,2,1,70,0,0
144924,-83.3333333333333,4,2,1,70,0,1
160162,-90.9090909090909,4,2,1,70,0,0
174924,-76.9230769230769,4,2,1,70,0,0
175401,-83.3333333333333,4,2,1,70,0,1
190639,-90.9090909090909,4,2,1,70,0,0

[Colours]
Combo1 : 145,211,44
Combo2 : 202,46,0
Combo3 : 153,79,193
Combo4 : 218,48,124

[HitObjects]
139,117,7781,6,0,P|176:102|216:100,1,80,0|0,2:0|2:0,0:0:0:0:
199,203,8258,1,8,0:0:0:0:
296,166,8496,1,0,0:0:0:0:
279,268,8734,2,0,P|249:293|211:306,1,80,4|0,0:3|0:0,0:0:0:0:
199,203,9210,1,8,0:0:0:0:
116,265,9448,1,0,0:0:0:0:
50,184,9686,6,0,B|42:142|42:142|91:110|92:41,1,160,4|8,0:3|0:0,0:0:0:0:
195,55,10401,1,0,0:0:0:0:
195,55,10639,2,0,P|231:76|269:78,1,80,4|0,0:3|0:0,0:0:0:0:
333,159,11115,2,0,P|297:179|259:181,1,80,8|0,0:0|0:0,0:0:0:0:
116,253,11591,6,0,P|153:233|192:228,1,80,4|0,0:3|0:0,0:0:0:0:
275,286,12067,1,8,0:0:0:0:
182,333,12305,1,0,0:0:0:0:
116,253,12543,2,0,P|101:218|100:177,1,80,4|0,0:3|0:0,0:0:0:0:
158,90,13020,1,8,0:0:0:0:
223,170,13258,1,0,0:0:0:0:
275,80,13496,5,4,0:3:0:0:
223,170,13734,1,0,0:0:0:0:
158,90,13972,1,8,0:0:0:0:
223,170,14210,1,0,0:0:0:0:
275,80,14448,2,0,P|310:100|339:128,1,80,4|0,0:3|0:0,0:0:0:0:
223,170,14924,2,0,P|188:190|159:218,1,80,8|0,0:0|0:0,0:0:0:0:
296,302,15401,6,0,P|330:278|355:248,1,80,4|0,0:3|0:0,0:0:0:0:
325,149,15877,1,8,0:0:0:0:
223,170,16115,1,0,0:0:0:0:
325,149,16353,2,0,L|331:62,1,80,4|0,0:3|0:0,0:0:0:0:
223,170,16829,2,0,L|217:257,1,80,8|0,0:0|0:0,0:0:0:0:
297,316,17305,6,0,B|338:317|338:317|366:289|366:289|402:284|402:284|428:250,1,160,4|8,0:3|0:0,0:0:0:0:
448,148,18020,1,0,0:0:0:0:
448,148,18258,2,0,L|420:72,1,80,4|0,0:3|0:0,0:0:0:0:
317,73,18734,2,0,L|287:155,1,80,8|0,0:0|0:0,0:0:0:0:
207,212,19210,6,0,P|178:173|173:102,2,120,4|2|0,0:3|0:2|0:0,0:0:0:0:
207,212,20043,1,2,0:0:0:0:
207,212,20162,1,4,0:3:0:0:
310,226,20401,1,0,0:0:0:0:
247,309,20639,1,8,0:0:0:0:
247,309,20758,1,2,0:0:0:0:
247,309,20877,1,0,0:0:0:0:
310,226,21115,6,0,P|329:180|327:105,2,120,4|2|0,0:3|0:0|0:0,0:0:0:0:
207,212,22067,2,0,P|168:202|126:200,1,80,4|0,0:3|0:0,0:0:0:0:
102,99,22543,2,0,P|141:109|183:111,1,80,8|0,0:0|0:0,0:0:0:0:
339,85,23020,6,0,L|379:243,1,160,6|4,0:3|0:3,0:0:0:0:
337,335,23734,1,0,0:0:0:0:
266,258,23972,2,0,L|232:335,1,80,4|0,0:3|0:0,0:0:0:0:
164,253,24448,1,4,0:3:0:0:
133,352,24686,1,0,0:0:0:0:
63,274,24924,6,0,P|81:195|143:151,1,160,4|4,0:3|0:3,0:0:0:0:
244,173,25639,1,0,0:0:0:0:
346,155,25877,2,0,P|346:115|272:26,1,160,4|4,0:3|0:3,0:0:0:0:
172,51,26591,1,0,0:0:0:0:
142,151,26829,6,0,P|154:189|180:219,1,80,4|0,0:3|0:0,0:0:0:0:
283,208,27305,1,4,0:3:0:0:
325,302,27543,1,0,0:0:0:0:
411,167,27781,1,4,0:3:0:0:
423,270,28020,1,0,0:0:0:0:
283,208,28258,1,4,0:3:0:0:
325,302,28496,1,0,0:0:0:0:
411,167,28734,6,0,P|391:91|328:45,1,160,4|4,0:3|0:3,0:0:0:0:
238,96,29448,1,0,0:0:0:0:
148,43,29686,2,0,P|133:82|138:123,1,80,4|0,0:3|0:0,0:0:0:0:
160,220,30162,1,4,0:3:0:0:
242,283,30401,1,0,0:0:0:0:
320,215,30639,6,0,P|357:194|396:193,1,80,4|0,0:3|0:0,0:0:0:0:
459,112,31115,2,0,P|422:91|383:90,1,80,4|0,0:3|0:0,0:0:0:0:
287,123,31591,2,0,P|247:134|207:131,1,80,4|0,0:3|0:0,0:0:0:0:
164,106,31948,1,0,0:0:0:0:
164,106,32067,1,4,0:3:0:0:
238,33,32305,1,0,0:0:0:0:
287,123,32543,6,0,L|304:159,1,40,4|0,0:3|0:0,0:0:0:0:
364,303,33020,2,0,L|360:253,1,40,4|0,0:3|0:0,0:0:0:0:
446,132,33496,2,0,L|462:212,1,80,4|0,0:3|0:0,0:0:0:0:
347,99,33972,2,0,B|307:85|307:85|269:85,1,80,4|0,0:3|0:0,0:0:0:0:
180,139,34448,5,4,0:3:0:0:
109,62,34686,1,0,0:0:0:0:
78,161,34924,1,4,0:3:0:0:
147,238,35162,1,0,0:0:0:0:
180,139,35401,2,0,P|214:118|331:121,1,160,4|4,0:3|0:3,0:0:0:0:
386,207,36115,1,0,0:0:0:0:
469,144,36353,6,0,P|486:181|488:222,1,80,4|0,0:3|0:0,0:0:0:0:
426,303,36829,1,4,0:3:0:0:
386,207,37067,1,0,0:0:0:0:
317,285,37305,2,0,P|292:253|282:214,1,80,0|8,0:0|0:0,0:0:0:0:
290,164,37662,1,8,0:0:0:0:
322,123,37781,1,4,0:3:0:0:
216,280,38020,1,0,0:0:0:0:
75,205,38258,6,0,P|76:164|92:124,1,80,6|0,0:3|0:3,0:0:0:0:
216,280,38734,2,0,P|246:255|270:223,1,80,8|0,0:3|0:3,0:0:0:0:
267,119,39210,1,4,0:3:0:0:
175,69,39448,1,0,0:3:0:0:
267,119,39686,1,8,0:3:0:0:
175,69,39924,1,0,0:3:0:0:
270,222,40162,6,0,P|308:210|346:187,1,80,4|0,0:3|0:3,0:0:0:0:
266,331,40639,2,0,P|228:319|190:296,1,80,8|0,0:3|0:3,0:0:0:0:
170,197,41115,1,4,0:3:0:0:
94,268,41353,1,0,0:3:0:0:
170,197,41591,1,8,0:3:0:0:
94,268,41829,1,0,0:3:0:0:
270,222,42067,6,0,P|288:182|291:143,1,80,4|0,0:3|0:3,0:0:0:0:
94,268,42543,2,0,P|63:240|45:207,1,80,8|0,0:3|0:3,0:0:0:0:
88,111,43020,1,4,0:3:0:0:
165,179,43258,1,0,0:3:0:0:
208,84,43496,1,8,0:3:0:0:
291,146,43734,1,0,0:3:0:0:
343,56,43972,6,0,L|348:17,1,40,4|0,0:3|0:3,0:0:0:0:
414,157,44448,2,0,L|429:119,1,40,8|0,0:3|0:3,0:0:0:0:
435,275,44924,2,0,L|465:249,1,40,4|0,0:3|0:3,0:0:0:0:
357,361,45401,2,0,L|437:376,1,80,8|0,0:3|0:3,0:0:0:0:
313,273,45877,6,0,P|271:261|236:263,1,80,6|0,0:3|0:3,0:0:0:0:
87,202,46353,2,0,P|129:190|164:192,1,80,8|0,0:3|0:3,0:0:0:0:
308,121,46829,2,0,P|266:109|231:111,1,80,4|0,0:3|0:3,0:0:0:0:
164,192,47305,1,8,0:3:0:0:
235,263,47543,1,0,0:3:0:0:
164,339,47781,6,0,P|124:343|84:340,1,80,4|0,0:3|0:3,0:0:0:0:
26,253,48258,2,0,P|31:212|42:173,1,80,8|0,0:3|0:3,0:0:0:0:
65,128,48615,1,0,0:3:0:0:
65,128,48734,1,4,0:3:0:0:
145,193,48972,1,0,0:3:0:0:
223,124,49210,2,0,P|233:86|235:45,1,80,8|0,0:3|0:3,0:0:0:0:
317,108,49686,5,4,0:3:0:0:
361,201,49924,1,0,0:3:0:0:
445,140,50162,1,8,0:3:0:0:
461,243,50401,1,0,0:3:0:0:
415,336,50639,2,0,P|341:355|259:346,1,160,4|8,0:3|0:3,0:0:0:0:
184,273,51353,1,0,0:3:0:0:
184,273,51591,6,0,P|184:230|192:194,1,80,4|0,0:3|0:3,0:0:0:0:
320,98,52067,2,0,P|320:141|312:177,1,80,8|8,0:3|0:2,0:0:0:0:
288,223,52424,1,8,0:0:0:0:
288,223,52543,2,0,P|330:203|443:205,1,160,6|4,0:3|0:3,0:0:0:0:
277,333,53496,5,12,3:1:0:0:
190,275,53734,1,0,3:0:0:0:
190,275,53972,1,8,3:1:0:0:
190,275,54210,1,0,3:0:0:0:
42,334,54448,1,8,3:1:0:0:
36,230,54686,1,0,3:0:0:0:
36,230,54924,1,8,3:1:0:0:
36,230,55162,1,0,3:0:0:0:
190,275,55401,5,8,3:1:0:0:
183,171,55639,1,0,3:0:0:0:
183,171,55877,1,8,3:1:0:0:
183,171,56115,1,0,3:0:0:0:
335,219,56353,1,8,3:1:0:0:
308,118,56591,1,0,3:0:0:0:
392,57,56829,1,8,3:1:0:0:
475,118,57067,1,8,3:1:0:0:
475,118,57186,1,8,3:1:0:0:
475,118,57305,6,0,L|469:201,1,80,8|0,3:1|3:0,0:0:0:0:
370,230,57781,2,0,L|364:313,1,80,8|0,3:1|3:0,0:0:0:0:
260,309,58258,2,0,P|222:291|183:286,2,80,8|0|8,3:1|3:0|3:1,0:0:0:0:
265,205,58972,6,0,P|183:191|106:203,1,160,0|0,3:0|3:0,0:0:0:0:
15,250,59686,1,8,3:1:0:0:
102,306,59924,1,0,3:0:0:0:
15,250,60162,2,0,P|5:210|8:172,1,80,8|0,3:1|3:0,0:0:0:0:
48,75,60639,1,8,3:1:0:0:
107,202,60877,1,8,3:1:0:0:
107,202,60996,1,8,3:1:0:0:
107,202,61115,6,0,P|151:212|265:195,2,160,8|8|8,3:1|3:1|3:1,0:0:0:0:
144,104,62305,1,0,0:1:0:0:
241,68,62543,1,8,0:1:0:0:
340,97,62781,1,0,0:1:0:0:
340,97,63020,6,0,P|375:168|371:260,2,160,8|8|8,3:1|3:1|3:1,0:0:0:0:
249,45,64210,1,0,3:1:0:0:
192,131,64448,1,8,3:1:0:0:
282,182,64686,1,0,3:1:0:0:
192,131,64924,6,0,L|172:165,3,40,8|0|0|0,3:1|3:0|3:0|3:0,0:0:0:0:
126,192,65401,2,0,L|119:231,3,40,8|0|0|0,3:1|3:0|3:0|3:0,0:0:0:0:
77,262,65877,2,0,L|86:302,3,40,8|0|0|0,3:1|3:0|3:0|3:0,0:0:0:0:
57,344,66353,2,0,L|77:381,3,40,8|0|0|0,3:1|3:0|3:0|3:0,0:0:0:0:
440,85,67781,6,0,L|436:174,1,80,0|0,0:1|0:0,0:0:0:0:
432,217,68139,1,8,0:0:0:0:
432,217,68258,2,0,P|385:198|332:201,1,103.999995239258,8|0,0:0|0:1,0:0:0:0:
159,282,68734,6,0,P|204:266|252:266,1,95.9999970703126,6|0,0:3|0:0,0:0:0:0:
350,342,69210,1,8,0:0:0:0:
446,263,69448,1,0,0:0:0:0:
350,342,69686,1,4,0:3:0:0:
251,265,69924,1,0,0:0:0:0:
348,185,70162,1,8,0:0:0:0:
251,265,70401,1,0,0:0:0:0:
348,185,70639,6,0,P|365:143|365:93,1,95.9999970703126,4|0,0:3|0:0,0:0:0:0:
331,45,70996,1,0,0:0:0:0:
331,45,71115,1,8,0:0:0:0:
225,113,71353,1,0,0:0:0:0:
348,185,71591,2,0,P|396:183|447:169,1,95.9999970703126,4|0,0:3|0:0,0:0:0:0:
251,265,72067,2,0,P|207:271|147:268,1,95.9999970703126,8|0,0:0|0:0,0:0:0:0:
325,359,72543,6,0,P|358:318|369:272,1,95.9999970703126,4|0,0:3|0:0,0:0:0:0:
320,161,73020,1,8,0:0:0:0:
251,265,73258,1,0,0:0:0:0:
173,167,73496,1,4,0:3:0:0:
174,291,73734,1,0,0:0:0:0:
64,230,73972,1,8,0:0:0:0:
64,230,74210,1,0,0:0:0:0:
106,347,74448,6,0,P|143:373|198:377,1,95.9999970703126,4|0,0:3|0:0,0:0:0:0:
345,262,74924,2,0,P|308:288|253:292,1,95.9999970703126,8|0,0:0|0:0,0:0:0:0:
184,191,75401,1,4,0:3:0:0:
254,88,75639,1,0,0:0:0:0:
184,191,75877,2,0,P|140:216|96:223,1,95.9999970703126,8|0,0:0|0:0,0:0:0:0:
254,88,76353,6,0,P|298:113|342:120,1,95.9999970703126,6|0,0:3|0:0,0:0:0:0:
457,72,76829,1,8,0:0:0:0:
440,195,77067,1,0,0:0:0:0:
342,120,77305,1,4,0:3:0:0:
325,243,77543,1,0,0:0:0:0:
440,195,77781,1,8,0:0:0:0:
325,243,78020,1,0,0:0:0:0:
457,72,78258,6,0,P|425:34|383:17,1,95.9999970703126,4|0,0:3|0:0,0:0:0:0:
322,34,78615,1,0,0:0:0:0:
322,34,78734,2,0,P|333:80|326:129,1,95.9999970703126,8|0,0:2|0:0,0:0:0:0:
208,86,79210,1,4,0:3:0:0:
160,201,79448,1,0,0:0:0:0:
36,185,79686,2,0,P|40:237|60:277,1,95.9999970703126,8|0,0:2|0:0,0:0:0:0:
173,326,80162,6,0,P|224:305|312:306,2,143.999995605469,4|2|2,0:3|0:0|0:0,0:0:0:0:
160,201,81115,2,0,P|207:186|256:182,1,95.9999970703126,4|2,0:3|0:0,0:0:0:0:
343,95,81591,2,0,P|296:80|247:76,1,95.9999970703126,8|2,0:2|0:0,0:0:0:0:
160,201,82067,6,0,P|112:148|94:78,3,143.999995605469,4|2|2|2,0:3|0:0|0:0|0:0,0:0:0:0:
98,266,83496,2,0,P|141:288|189:287,1,95.9999970703126,8|2,0:0|0:0,0:0:0:0:
289,235,83972,5,6,0:3:0:0:
99,172,99210,5,0,0:0:0:0:
137,240,99448,1,0,0:0:0:0:
207,206,99686,1,0,3:0:0:0:
207,206,99924,1,0,3:0:0:0:
207,206,100162,2,0,P|239:194|266:193,1,60.0000022888184,0|0,1:0|0:0,0:0:0:0:
359,268,100639,2,0,P|327:280|300:281,1,60.0000022888184,4|0,3:0|3:0,0:0:0:0:
207,206,101115,5,0,3:0:0:0:
151,261,101353,1,0,3:0:0:0:
116,146,101591,1,4,3:0:0:0:
61,201,101829,1,0,0:0:0:0:
73,81,102067,1,0,1:0:0:0:
116,146,102305,2,0,P|143:152|176:151,1,60.0000022888184,4|0,3:0|3:0,0:0:0:0:
212,138,102662,1,0,3:0:0:0:
241,112,102781,1,0,3:0:0:0:
187,233,103020,6,0,P|209:249|240:261,1,60.0000022888184,4|4,3:0|0:3,0:0:0:0:
316,246,103496,1,0,3:0:0:0:
290,319,103734,1,4,3:0:0:0:
392,231,103972,1,0,1:0:0:0:
366,304,104210,1,0,0:0:0:0:
467,217,104448,1,4,3:0:0:0:
442,290,104686,1,0,0:0:0:0:
467,217,104924,6,0,P|469:189|462:156,1,60.0000022888184,0|0,0:0|3:0,0:0:0:0:
386,138,105401,2,0,P|400:112|426:88,1,60.0000022888184,4|0,0:3|3:0,0:0:0:0:
443,16,105877,2,0,P|414:13|383:23,1,60.0000022888184,2|4,1:0|3:3,0:0:0:0:
352,43,106234,1,0,3:0:0:0:
329,74,106353,1,0,3:0:0:0:
397,187,106591,1,0,3:0:0:0:
329,74,106829,6,0,P|271:70|213:96,2,120.000004577637,4|0|0,0:1|3:0|1:2,0:0:0:0:
325,274,108258,1,4,3:0:0:0:
325,274,108734,5,0,3:0:0:0:
263,321,108972,1,0,3:0:0:0:
187,192,109210,1,0,0:0:0:0:
249,239,109448,1,0,0:0:0:0:
318,106,109686,2,0,B|294:124|294:124|261:124,1,60.0000022888184,0|0,0:0|0:0,0:0:0:0:
207,69,110162,1,0,3:0:0:0:
169,57,110281,1,0,3:0:0:0:
129,61,110401,1,0,3:0:0:0:
95,81,110520,1,0,3:0:0:0:
68,109,110639,6,0,P|52:160|51:227,1,120.000004577637,4|0,0:3|3:0,0:0:0:0:
77,299,111353,1,4,3:0:0:0:
147,266,111591,2,0,P|195:243|262:235,1,120.000004577637,0|4,1:0|3:0,0:0:0:0:
323,280,112305,1,0,3:0:0:0:
323,280,112543,6,0,L|371:233,1,60.0000022888184,8|0,0:0|0:0,0:0:0:0:
394,121,113020,2,0,L|419:176,1,60.0000022888184,4|8,0:3|0:0,0:0:0:0:
436,210,113377,1,8,0:0:0:0:
453,244,113496,1,8,0:0:0:0:
478,96,113734,1,4,0:3:0:0:
365,238,113972,2,0,L|273:237,1,90.0000034332277,8|0,0:1|0:0,0:0:0:0:
227,257,114448,6,0,L|168:198,1,80,6|0,0:3|0:3,0:0:0:0:
70,170,114924,2,0,L|91:90,1,80,8|0,0:3|0:3,0:0:0:0:
175,31,115401,1,4,0:3:0:0:
229,119,115639,1,0,0:3:0:0:
288,33,115877,1,8,0:3:0:0:
229,119,116115,1,0,0:3:0:0:
310,184,116353,6,0,P|346:154|382:147,1,80,4|0,0:3|0:3,0:0:0:0:
425,239,116829,2,0,P|389:269|353:276,1,80,8|0,0:3|0:3,0:0:0:0:
253,273,117305,1,4,0:3:0:0:
192,357,117543,1,0,0:3:0:0:
253,273,117781,1,8,0:3:0:0:
192,357,118020,1,0,0:3:0:0:
187,197,118258,6,0,P|174:160|149:128,1,80,4|0,0:3|0:3,0:0:0:0:
42,297,118734,2,0,P|55:260|80:228,1,80,8|0,0:3|0:3,0:0:0:0:
163,365,119210,1,4,0:3:0:0:
236,286,119448,1,0,0:3:0:0:
163,365,119686,1,8,0:3:0:0:
172,225,119924,1,0,0:3:0:0:
320,286,120162,6,0,L|359:281,1,40,4|0,0:3|0:3,0:0:0:0:
364,125,120639,2,0,L|320:118,1,40,8|0,0:3|0:3,0:0:0:0:
183,185,121115,2,0,L|183:226,1,40,4|0,0:3|0:3,0:0:0:0:
304,323,121591,2,0,L|382:346,1,80,8|0,0:3|0:3,0:0:0:0:
375,242,122067,6,0,P|337:226|304:202,1,80,6|0,0:3|0:3,0:0:0:0:
393,148,122543,2,0,P|431:132|464:108,1,80,8|0,0:3|0:3,0:0:0:0:
370,60,123020,2,0,P|332:44|299:20,1,80,4|0,0:3|0:3,0:0:0:0:
252,113,123496,1,8,0:3:0:0:
305,203,123734,1,0,0:3:0:0:
252,113,123972,6,0,P|210:98|173:96,1,80,4|0,0:3|0:3,0:0:0:0:
57,204,124448,2,0,P|96:194|137:196,1,80,8|0,0:3|0:3,0:0:0:0:
182,217,124805,1,0,0:3:0:0:
182,217,124924,1,4,0:3:0:0:
106,288,125162,1,0,0:3:0:0:
205,320,125401,2,0,P|244:319|284:306,1,80,8|0,0:3|0:3,0:0:0:0:
353,230,125877,5,4,0:3:0:0:
419,309,126115,1,0,0:3:0:0:
454,211,126353,1,8,0:3:0:0:
419,309,126591,1,0,0:3:0:0:
454,211,126829,1,4,0:3:0:0:
386,131,127067,1,0,0:0:0:0:
353,230,127305,1,8,0:3:0:0:
386,131,127543,1,0,0:3:0:0:
353,230,127781,6,0,P|317:249|277:256,1,80,4|0,0:3|0:3,0:0:0:0:
136,182,128258,2,0,P|172:163|212:156,1,80,8|8,0:3|0:2,0:0:0:0:
112,282,128734,2,0,P|57:247|37:154,1,160,6|4,0:3|0:3,0:0:0:0:
229,233,129686,6,0,L|306:253,1,80,12|0,3:1|3:0,0:0:0:0:
408,274,130162,1,8,3:1:0:0:
408,274,130401,1,0,3:0:0:0:
398,114,130639,2,0,L|317:127,1,80,8|0,3:1|0:0,0:0:0:0:
216,141,131115,1,8,3:1:0:0:
216,141,131353,1,0,3:0:0:0:
73,69,131591,6,0,L|86:150,1,80,8|0,3:1|3:0,0:0:0:0:
99,250,132067,1,8,3:1:0:0:
99,250,132305,1,0,3:0:0:0:
216,141,132543,2,0,P|257:131|296:133,1,80,8|0,3:1|3:0,0:0:0:0:
362,212,133020,1,8,3:1:0:0:
212,268,133258,1,8,3:1:0:0:
212,268,133377,1,8,3:1:0:0:
212,268,133496,6,0,P|175:250|135:247,1,80,8|0,3:1|3:0,0:0:0:0:
73,164,133972,2,0,P|110:146|150:143,1,80,8|0,3:1|3:0,0:0:0:0:
251,155,134448,1,8,3:1:0:0:
317,234,134686,1,0,3:0:0:0:
410,188,134924,1,8,3:1:0:0:
334,329,135162,6,0,P|252:344|177:335,1,160,0|0,3:0|3:0,0:0:0:0:
96,267,135877,1,8,3:1:0:0:
40,354,136115,1,0,3:0:0:0:
21,195,136353,1,8,3:1:0:0:
96,267,136591,1,0,3:0:0:0:
121,166,136829,1,8,3:1:0:0:
21,195,137067,1,8,3:1:0:0:
196,238,137305,6,0,P|241:231|331:158,2,160,8|8|8,3:1|3:1|3:1,0:0:0:0:
177,135,138496,1,0,0:1:0:0:
274,98,138734,1,8,0:1:0:0:
196,238,138972,1,0,0:1:0:0:
260,319,139210,6,0,P|302:324|412:281,2,160,8|8|8,3:1|3:1|3:1,0:0:0:0:
196,238,140401,1,0,3:1:0:0:
263,159,140639,1,8,3:1:0:0:
260,319,140877,1,0,3:1:0:0:
350,268,141115,6,0,L|381:243,3,40,8|0|0|0,3:1|3:0|3:0|3:0,0:0:0:0:
433,240,141591,2,0,L|445:198,3,40,8|0|0|0,3:1|3:0|3:0|3:0,0:0:0:0:
475,160,142067,2,0,L|467:113,3,40,8|0|0|0,3:1|3:0|3:0|3:0,0:0:0:0:
481,70,142543,2,0,L|461:32,3,40,8|0|0|0,3:1|3:0|3:0|3:0,0:0:0:0:
100,327,143972,6,0,P|86:290|88:249,1,80,0|0,0:1|0:0,0:0:0:0:
109,202,144329,1,8,0:0:0:0:
109,202,144448,2,0,B|167:240|167:240|199:223,1,103.999995239258,8|0,0:0|0:1,0:0:0:0:
351,108,144924,6,0,P|307:128|260:129,1,95.9999970703126,6|0,0:3|0:0,0:0:0:0:
143,82,145401,1,8,0:0:0:0:
109,202,145639,1,0,0:0:0:0:
22,112,145877,1,4,0:3:0:0:
143,82,146115,1,0,0:0:0:0:
109,202,146353,1,8,0:0:0:0:
230,172,146591,1,0,0:0:0:0:
194,291,146829,6,0,P|240:305|291:299,1,95.9999970703126,4|0,0:3|0:0,0:0:0:0:
334,260,147186,1,0,0:0:0:0:
334,260,147305,1,8,0:0:0:0:
422,348,147543,1,0,0:0:0:0:
474,234,147781,2,0,P|489:191|486:142,1,95.9999970703126,4|0,0:3|0:0,0:0:0:0:
324,76,148258,2,0,P|282:95|228:97,1,95.9999970703126,8|0,0:0|0:0,0:0:0:0:
64,139,148734,6,0,P|97:172|141:189,1,95.9999970703126,4|0,0:3|0:0,0:0:0:0:
266,186,149210,1,8,0:0:0:0:
201,292,149448,1,0,0:0:0:0:
266,186,149686,1,4,0:3:0:0:
360,267,149924,1,0,0:0:0:0:
421,158,150162,1,8,0:0:0:0:
421,158,150401,1,0,0:0:0:0:
433,350,150639,6,0,P|391:373|342:377,1,95.9999970703126,4|0,0:3|0:0,0:0:0:0:
187,266,151115,2,0,P|229:289|278:293,1,95.9999970703126,8|0,0:0|0:0,0:0:0:0:
373,215,151591,1,4,0:3:0:0:
311,106,151829,1,0,0:0:0:0:
190,138,152067,2,0,P|142:150|96:148,1,95.9999970703126,8|0,0:0|0:0,0:0:0:0:
279,206,152543,6,0,P|326:216|374:215,1,95.9999970703126,6|0,0:3|0:0,0:0:0:0:
475,141,153020,1,8,0:0:0:0:
487,265,153258,1,0,0:0:0:0:
373,215,153496,1,4,0:3:0:0:
475,141,153734,1,0,0:0:0:0:
387,339,153972,1,8,0:0:0:0:
487,265,154210,1,0,0:0:0:0:
272,290,154448,6,0,P|222:287|179:272,1,95.9999970703126,4|0,0:3|0:0,0:0:0:0:
134,315,154805,1,0,0:0:0:0:
134,315,154924,2,0,P|116:271|119:224,1,95.9999970703126,8|0,0:2|0:0,0:0:0:0:
180,114,155401,1,4,0:3:0:0:
277,191,155639,1,0,0:0:0:0:
353,92,155877,2,0,L|401:177,1,95.9999970703126,8|0,0:2|0:0,0:0:0:0:
461,284,156353,6,0,P|398:286|322:319,2,143.999995605469,4|2|2,0:3|0:0|0:0,0:0:0:0:
446,160,157305,2,0,P|398:157|349:163,1,95.9999970703126,4|2,0:3|0:0,0:0:0:0:
260,249,157781,2,0,P|212:254|164:251,1,95.9999970703126,8|2,0:2|0:0,0:0:0:0:
82,156,158258,6,0,P|42:216|42:287,3,143.999995605469,4|2|2|2,0:3|0:0|0:0|0:0,0:0:0:0:
174,153,159686,2,0,P|160:105|124:75,1,95.9999970703126,8|0,0:0|0:0,0:0:0:0:
145,251,160162,6,0,P|223:242|275:163,2,176.000005371094,6|8|4,0:3|0:3|0:3,0:0:0:0:
64,168,161353,2,0,L|55:81,2,88.000002685547,0|8|0,0:3|0:3|0:3,0:0:0:0:
145,251,162067,5,4,0:3:0:0:
145,251,162305,2,0,L|156:341,2,88.000002685547,0|8|0,0:3|0:3|0:3,0:0:0:0:
201,151,163020,2,0,P|242:171|285:175,1,88.000002685547,4|0,0:3|0:3,0:0:0:0:
355,263,163496,2,0,P|314:283|271:287,1,88.000002685547,8|0,0:3|0:3,0:0:0:0:
393,159,163972,6,0,P|441:197|464:264,3,132.00000402832,4|2|2|2,0:3|0:3|0:3|0:3,0:0:0:0:
457,90,165401,1,8,0:3:0:0:
315,269,165877,6,0,B|284:272|255:287|255:287|219:277|183:282,3,132.00000402832,4|2|2|2,0:3|0:3|0:3|0:3,0:0:0:0:
58,169,167305,2,0,L|48:266,1,88.000002685547,8|0,0:3|0:3,0:0:0:0:
177,136,167781,6,0,P|219:117|347:123,2,176.000005371094,6|8|4,0:3|0:3|0:3,0:0:0:0:
226,239,168972,2,0,P|270:225|312:233,2,88.000002685547,0|8|0,0:3|0:3|0:3,0:0:0:0:
149,323,169686,5,4,0:3:0:0:
149,323,169924,2,0,P|121:285|113:244,2,88.000002685547,0|8|0,0:3|0:3|0:3,0:0:0:0:
261,348,170639,2,0,P|304:336|348:337,1,88.000002685547,4|0,0:3|0:3,0:0:0:0:
403,237,171115,2,0,P|360:225|316:226,1,88.000002685547,8|0,0:3|0:3,0:0:0:0:
229,151,171591,6,0,P|271:134|357:123,3,132.00000402832,4|2|2|2,0:3|0:0|0:0|0:0,0:0:0:0:
431,277,173020,1,8,0:3:0:0:
203,249,173496,6,0,B|134:195|134:195|134:150,2,132.00000402832,4|2|2,0:3|0:0|0:0,0:0:0:0:
314,222,174448,2,0,L|287:307,1,88.000002685547,12|8,0:3|0:0,0:0:0:0:
267,359,174805,1,8,0:0:0:0:
267,359,174924,2,0,P|310:345|369:348,1,103.999995239258,8|0,0:0|0:1,0:0:0:0:
203,249,175401,6,0,P|178:208|175:161,1,95.9999970703126,6|0,0:3|0:0,0:0:0:0:
240,54,175877,1,8,0:0:0:0:
338,131,176115,1,0,0:0:0:0:
240,54,176353,1,4,0:3:0:0:
338,131,176591,1,0,0:0:0:0:
312,8,176829,1,8,0:0:0:0:
278,185,177067,1,0,0:0:0:0:
374,59,177305,6,0,P|410:97|418:142,1,95.9999970703126,4|0,0:3|0:0,0:0:0:0:
403,199,177662,1,0,0:0:0:0:
403,199,177781,1,8,0:0:0:0:
278,185,178020,1,0,0:0:0:0:
329,298,178258,2,0,P|373:319|420:322,1,95.9999970703126,4|0,0:3|0:0,0:0:0:0:
231,357,178734,2,0,P|187:378|140:381,1,95.9999970703126,8|0,0:0|0:0,0:0:0:0:
10,240,179210,6,0,P|54:261|101:264,1,95.9999970703126,4|0,0:3|0:0,0:0:0:0:
210,205,179686,1,8,0:0:0:0:
277,309,179924,1,0,0:0:0:0:
168,369,180162,1,4,0:3:0:0:
210,205,180401,1,0,0:0:0:0:
168,369,180639,1,8,0:0:0:0:
277,309,180877,1,0,0:0:0:0:
100,264,181115,6,0,P|72:225|69:178,1,95.9999970703126,4|0,0:3|0:0,0:0:0:0:
210,205,181591,2,0,P|238:166|241:119,1,95.9999970703126,8|0,0:0|0:0,0:0:0:0:
118,93,182067,1,4,0:3:0:0:
118,93,182305,1,0,0:0:0:0:
210,205,182543,2,0,P|258:214|307:204,1,95.9999970703126,8|0,0:0|0:0,0:0:0:0:
468,306,183020,6,0,P|420:315|371:305,1,95.9999970703126,6|0,0:3|0:0,0:0:0:0:
303,205,183496,1,8,0:0:0:0:
214,293,183734,1,0,0:0:0:0:
183,172,183972,1,4,0:3:0:0:
303,205,184210,1,0,0:0:0:0:
272,84,184448,1,8,0:0:0:0:
183,172,184686,1,0,0:0:0:0:
152,50,184924,6,0,P|105:73|76:108,1,95.9999970703126,4|0,0:3|0:0,0:0:0:0:
58,165,185281,1,0,0:0:0:0:
58,165,185401,2,0,P|105:157|152:164,1,95.9999970703126,8|0,0:0|0:0,0:0:0:0:
226,264,185877,1,4,0:3:0:0:
308,170,186115,1,0,0:0:0:0:
349,287,186353,1,8,0:0:0:0:
226,264,186591,1,0,0:0:0:0:
431,193,186829,6,0,P|420:123|377:64,2,143.999995605469,4|2|2,0:3|0:0|0:0,0:0:0:0:
349,287,187781,2,0,P|302:270|252:271,1,95.9999970703126,4|2,0:3|0:0,0:0:0:0:
107,149,188258,2,0,P|154:166|204:165,1,95.9999970703126,8|2,0:0|0:0,0:0:0:0:
47,50,188734,6,0,P|3:97|-4:180,3,143.999995605469,4|2|2|2,0:3|0:0|0:0|0:0,0:0:0:0:
175,221,190162,2,0,P|203:182|208:132,1,95.9999970703126,8|0,0:0|0:0,0:0:0:0:
160,31,190639,5,6,0:3:0:0:
