osu file format v14

[General]
AudioFilename: audio.mp3
AudioLeadIn: 0
PreviewTime: 67781
Countdown: 1
SampleSet: Soft
StackLeniency: 0.7
Mode: 0
LetterboxInBreaks: 0
WidescreenStoryboard: 1

[Editor]
Bookmarks: 7781,83972,99210,190639,205401
DistanceSpacing: 1.2
BeatDivisor: 4
GridSize: 4
TimelineZoom: 1

[Metadata]
Title:BBoom BBoom
TitleUnicode:뿜뿜
Artist:MOMOLAND
ArtistUnicode:모모랜드
Creator:Nekomata
Version:Advanced
Source:
Tags:kpop great loen dublekick hyebin 혜빈 yeonwoo 연우 jane 제인 taeha 태하 nayun 나윤 daisy 데이지 ahin 아인 nancy 낸시 jooe 낸시 ataraxia
BeatmapID:1535295
BeatmapSetID:725525

[Difficulty]
HPDrainRate:4
CircleSize:3.5
OverallDifficulty:4
ApproachRate:5
SliderMultiplier:1.4
SliderTickRate:2

[Events]
//Background and Video events
Video,-743,"bboom.mp4"
0,0,"momoland-bg.jpg",0,0
//Break Periods
2,84172,97890
2,160162,170271
//Storyboard Layer 0 (Background)
//Storyboard Layer 1 (Fail)
//Storyboard Layer 2 (Pass)
//Storyboard Layer 3 (Foreground)
//Storyboard Sound Samples

[TimingPoints]
7782,476.190476190476,4,2,1,70,1,0
65877,-100,4,2,1,80,0,0
66352,-100,4,2,1,90,0,0
66710,-100,4,2,1,5,0,0
67781,-100,4,2,1,70,0,0
68734,-100,4,2,1,70,0,1
83972,-100,4,2,1,70,0,0
99210,-100,4,2,99,60,0,0
114329,-100,4,2,1,5,0,0
114448,-100,4,2,1,70,0,0
142068,-100,4,2,1,80,0,0
142543,-100,4,2,1,90,0,0
142901,-100,4,2,1,5,0,0
143972,-100,4,2,1,70,0,0
144924,-100,4,2,1,70,0,1
160162,-100,4,2,1,70,0,0
175401,-100,4,2,1,70,0,1
190639,-100,4,2,1,70,0,0

[Colours]
Combo1 : 145,211,44
Combo2 : 202,46,0
Combo3 : 153,79,193
Combo4 : 218,48,124

[HitObjects]
65,204,7781,6,0,B|127:171|127:171|163:179|198:171,1,140,0|8,2:0|2:0,0:0:0:0:
265,219,8496,1,0,0:0:0:0:
265,219,8734,2,0,P|279:191|279:152,1,70,4|0,0:3|0:0,0:0:0:0:
255,72,9210,2,0,P|290:71|323:82,1,70,8|0,0:0|0:0,0:0:0:0:
375,147,9686,6,0,B|405:131|410:92|410:92|458:147,1,140,4|8,0:3|0:0,0:0:0:0:
503,216,10401,1,0,0:0:0:0:
503,216,10639,2,0,L|457:281,1,70,4|0,0:3|0:0,0:0:0:0:
384,242,11115,2,0,L|338:307,1,70,8|0,0:0|0:0,0:0:0:0:
266,265,11591,6,0,B|224:321|224:321|189:309|154:312,1,140,4|8,0:3|0:0,0:0:0:0:
82,269,12305,1,0,0:0:0:0:
82,269,12543,2,0,P|87:235|105:204,1,70,4|0,0:3|0:0,0:0:0:0:
186,185,13020,1,8,0:0:0:0:
224,110,13258,1,0,0:0:0:0:
294,64,13496,6,0,P|329:52|362:52,2,70,4|0|8,0:3|0:0|0:0,0:0:0:0:
342,132,14210,1,0,0:0:0:0:
342,132,14448,2,0,P|375:139|410:138,1,70,4|0,0:3|0:0,0:0:0:0:
479,90,14924,2,0,P|493:123|492:157,1,70,8|0,0:0|0:0,0:0:0:0:
465,236,15401,6,0,B|430:241|395:230|395:230|364:248|327:251,1,140,4|8,0:3|0:0,0:0:0:0:
258,295,16115,1,0,0:0:0:0:
258,295,16353,2,0,P|245:263|248:228,1,70,4|0,0:3|0:0,0:0:0:0:
272,147,16829,2,0,P|236:144|202:158,1,70,8|0,0:0|0:0,0:0:0:0:
124,179,17305,6,0,B|111:137|111:137|122:113|122:113|119:87|119:87|145:49,1,140,4|8,0:3|0:0,0:0:0:0:
228,55,18020,1,0,0:0:0:0:
228,55,18258,2,0,L|244:134,1,70,4|0,0:3|0:0,0:0:0:0:
325,122,18734,2,0,L|319:194,1,70,8|0,0:0|0:0,0:0:0:0:
251,241,19210,6,0,P|311:277|375:255,1,140,4|8,0:3|0:0,0:0:0:0:
440,205,19924,2,0,L|450:165,2,35,0|2|4,0:0|0:0|0:3,0:0:0:0:
472,282,20401,1,0,0:0:0:0:
472,282,20639,2,0,L|462:322,2,35,8|2|0,0:0|0:0|0:3,0:0:0:0:
321,356,21115,6,0,P|249:366|191:333,1,140,4|8,0:3|0:0,0:0:0:0:
177,251,21829,1,0,0:0:0:0:
177,251,22067,2,0,P|177:216|193:185,1,70,4|0,0:3|0:0,0:0:0:0:
271,155,22543,2,0,P|282:188|305:216,1,70,8|0,0:0|0:0,0:0:0:0:
382,184,23020,6,0,P|407:120|467:82,1,140,6|4,0:3|0:3,0:0:0:0:
511,152,23734,1,0,0:0:0:0:
495,234,23972,2,0,L|481:302,1,70,4|0,0:3|0:0,0:0:0:0:
407,342,24448,2,0,P|379:321|346:311,1,70,4|0,0:3|0:0,0:0:0:0:
275,356,24924,6,0,P|264:288|308:235,1,140,4|4,0:3|0:3,0:0:0:0:
384,205,25639,1,0,0:0:0:0:
384,205,25877,2,0,P|335:157|268:162,1,140,4|4,0:3|0:3,0:0:0:0:
190,194,26591,1,0,0:0:0:0:
130,253,26829,6,0,P|97:266|62:269,1,70,4|0,0:3|0:0,0:0:0:0:
11,335,27305,2,0,P|44:348|79:351,1,70,4|0,0:3|0:0,0:0:0:0:
161,340,27781,2,0,P|195:328|223:307,1,70,4|0,0:3|0:0,0:0:0:0:
225,223,28258,1,4,0:3:0:0:
158,171,28496,1,0,0:0:0:0:
186,92,28734,6,0,P|221:68|318:59,1,140,4|4,0:3|0:3,0:0:0:0:
392,93,29448,1,0,0:0:0:0:
392,93,29686,2,0,L|376:164,1,70,4|0,0:3|0:0,0:0:0:0:
292,165,30162,2,0,L|301:237,1,70,4|0,0:3|0:0,0:0:0:0:
384,246,30639,6,0,P|418:235|453:234,1,70,4|0,0:3|0:0,0:0:0:0:
431,315,31115,2,0,P|397:326|362:327,1,70,4|0,0:3|0:0,0:0:0:0:
279,318,31591,2,0,P|226:319|176:332,2,105,4|0|0,0:3|0:0|0:0,0:0:0:0:
362,327,32543,5,4,0:3:0:0:
265,189,33020,1,4,0:3:0:0:
175,332,33496,2,0,P|133:336|49:288,1,140,4|4,0:3|0:3,0:0:0:0:
26,209,34210,1,0,0:0:0:0:
39,126,34448,6,0,L|106:144,1,70,4|0,0:3|0:0,0:0:0:0:
163,205,34924,2,0,P|183:177|188:137,1,70,4|0,0:3|0:0,0:0:0:0:
188,58,35401,2,0,L|330:99,1,140,4|4,0:3|0:3,0:0:0:0:
353,174,36115,1,0,0:0:0:0:
426,133,36353,6,0,P|435:169|431:205,1,70,4|0,0:3|0:0,0:0:0:0:
369,257,36829,1,4,0:3:0:0:
421,322,37067,1,0,0:0:0:0:
349,366,37305,2,0,P|313:369|277:363,1,70,4|8,0:3|0:0,0:0:0:0:
255,283,37781,1,4,0:3:0:0:
106,361,38258,6,0,L|87:293,1,70,6|0,0:3|0:3,0:0:0:0:
4,278,38734,2,0,L|23:210,1,70,8|0,0:3|0:3,0:0:0:0:
44,129,39210,1,4,0:3:0:0:
89,58,39448,1,0,0:3:0:0:
172,45,39686,2,0,P|203:61|220:90,1,70,8|0,0:3|0:3,0:0:0:0:
207,174,40162,6,0,L|277:194,1,70,4|0,0:3|0:3,0:0:0:0:
326,259,40639,2,0,L|256:279,1,70,8|0,0:3|0:3,0:0:0:0:
232,357,41115,1,4,0:3:0:0:
315,367,41353,1,0,0:3:0:0:
392,335,41591,2,0,P|417:310|434:280,1,70,8|0,0:3|0:3,0:0:0:0:
438,196,42067,6,0,L|421:126,1,70,4|0,0:3|0:3,0:0:0:0:
353,78,42543,2,0,L|338:146,1,70,8|0,0:3|0:3,0:0:0:0:
292,217,43020,1,4,0:3:0:0:
235,154,43258,1,0,0:3:0:0:
163,197,43496,2,0,P|138:171|128:139,1,70,8|0,0:3|0:3,0:0:0:0:
137,55,43972,5,4,0:3:0:0:
12,167,44448,1,8,0:3:0:0:
114,300,44924,1,4,0:3:0:0:
240,189,45401,2,0,P|272:173|307:169,1,70,8|0,0:3|0:3,0:0:0:0:
359,233,45877,6,0,P|388:172|362:109,2,140,6|8|4,0:3|0:3|0:3,0:0:0:0:
196,276,47305,2,0,P|164:265|141:239,1,70,8|0,0:3|0:3,0:0:0:0:
120,158,47781,6,0,P|68:200|66:278,2,140,4|8|4,0:3|0:3|0:3,0:0:0:0:
204,159,48972,1,0,0:3:0:0:
204,159,49210,2,0,P|197:123|174:94,1,70,8|0,0:3|0:3,0:0:0:0:
111,44,49686,6,0,P|138:23|174:14,1,70,4|0,0:3|0:3,0:0:0:0:
247,51,50162,2,0,P|274:72|308:80,1,70,8|0,0:3|0:3,0:0:0:0:
378,32,50639,2,0,P|392:98|350:153,1,140,4|8,0:3|0:3,0:0:0:0:
288,209,51353,1,0,0:3:0:0:
288,209,51591,6,0,P|350:238|414:210,1,140,4|8,0:3|0:3,0:0:0:0:
294,331,52543,2,0,P|232:360|168:332,1,140,6|4,0:3|0:3,0:0:0:0:
55,210,53496,6,0,P|57:169|116:91,2,140,12|8|8,3:1|3:1|3:1,0:0:0:0:
88,286,54686,1,0,3:0:0:0:
153,233,54924,1,8,3:1:0:0:
234,254,55162,1,0,3:0:0:0:
234,254,55401,6,0,P|277:265|371:251,2,140,8|8|8,3:1|3:1|3:1,0:0:0:0:
238,170,56591,1,0,3:0:0:0:
300,113,56829,1,8,3:1:0:0:
367,163,57067,6,0,P|434:157|462:94,1,140,8|0,3:1|3:0,0:0:0:0:
410,30,57781,2,0,L|341:37,1,70,8|0,3:1|3:0,0:0:0:0:
273,89,58258,1,8,3:1:0:0:
209,33,58496,1,0,3:0:0:0:
141,82,58734,1,8,3:1:0:0:
77,27,58972,6,0,P|42:87|43:156,1,140,0|0,3:0|3:0,0:0:0:0:
74,233,59686,2,0,P|111:222|146:222,1,70,8|0,3:1|3:0,0:0:0:0:
202,280,60162,2,0,L|169:342,2,70,8|0|8,3:1|3:0|3:1,0:0:0:0:
267,226,60877,1,8,3:1:0:0:
267,226,61115,6,0,P|301:248|399:248,2,140,8|8|8,3:1|3:1|3:1,0:0:0:0:
248,144,62305,1,0,0:1:0:0:
192,81,62543,1,8,0:1:0:0:
112,106,62781,1,0,0:1:0:0:
112,106,63020,6,0,P|105:143|125:244,2,140,8|8|8,3:1|3:1|3:1,0:0:0:0:
192,81,64210,1,0,3:1:0:0:
248,144,64448,1,8,3:1:0:0:
267,226,64686,1,0,3:1:0:0:
327,168,64924,5,8,3:1:0:0:
256,192,65043,12,0,66710,3:0:0:0:
387,347,67781,6,0,P|417:314|441:223,1,140,0|8,0:1|0:0,0:0:0:0:
406,146,68496,1,0,0:1:0:0:
333,187,68734,6,0,P|297:193|262:191,1,70,6|0,0:3|0:0,0:0:0:0:
192,147,69210,1,8,0:0:0:0:
152,221,69448,1,0,0:0:0:0:
79,179,69686,2,0,P|68:145|69:110,1,70,4|0,0:3|0:0,0:0:0:0:
118,43,70162,2,0,P|149:57|184:63,1,70,8|0,0:0|0:0,0:0:0:0:
268,54,70639,6,0,L|241:195,1,140,4|8,0:3|0:0,0:0:0:0:
225,273,71353,1,0,0:0:0:0:
225,273,71591,2,0,L|295:281,1,70,4|0,0:3|0:0,0:0:0:0:
307,363,72067,2,0,L|237:355,1,70,8|0,0:0|0:0,0:0:0:0:
154,342,72543,6,0,P|124:310|107:216,1,140,4|8,0:3|0:0,0:0:0:0:
133,138,73258,1,0,0:0:0:0:
210,170,73496,2,0,P|245:178|279:179,1,70,4|0,0:3|0:0,0:0:0:0:
324,108,73972,2,0,P|289:100|255:99,1,70,8|0,0:0|0:0,0:0:0:0:
210,170,74448,6,0,B|217:240|217:240|249:263|258:297,1,140,4|8,0:3|0:0,0:0:0:0:
328,340,75162,1,0,0:0:0:0:
328,340,75401,2,0,L|353:270,1,70,4|0,0:3|0:0,0:0:0:0:
435,270,75877,2,0,L|429:196,1,70,8|0,0:0|0:0,0:0:0:0:
417,117,76353,6,0,P|385:128|346:127,1,70,6|0,0:3|0:0,0:0:0:0:
348,43,76829,1,8,0:0:0:0:
269,12,77067,1,0,0:0:0:0:
216,78,77305,2,0,P|201:108|198:145,1,70,4|0,0:3|0:0,0:0:0:0:
229,221,77781,2,0,P|194:227|158:216,1,70,8|0,0:0|0:0,0:0:0:0:
83,186,78258,6,0,P|83:255|134:299,2,140,4|8|4,0:3|0:2|0:3,0:0:0:0:
112,107,79448,1,0,0:0:0:0:
112,107,79686,2,0,L|179:129,1,70,8|0,0:2|0:0,0:0:0:0:
254,94,80162,6,0,P|262:133|234:190,2,105,4|2|2,0:3|0:0|0:0,0:0:0:0:
230,13,81115,2,0,L|302:13,1,70,4|2,0:3|0:0,0:0:0:0:
383,23,81591,2,0,L|452:41,1,70,8|2,0:2|0:0,0:0:0:0:
409,113,82067,6,0,P|398:161|411:214,3,105,4|2|2|2,0:3|0:0|0:0|0:0,0:0:0:0:
497,306,83496,2,0,L|430:335,1,70,8|0,0:0|0:0,0:0:0:0:
354,364,83972,5,6,0:3:0:0:
77,203,99210,6,0,P|138:172|209:171,1,140,0|0,0:0|3:0,0:0:0:0:
283,207,99924,1,0,3:0:0:0:
283,207,100162,2,0,L|303:133,1,70,0|0,1:0|0:0,0:0:0:0:
385,133,100639,2,0,L|365:207,1,70,4|0,3:0|3:0,0:0:0:0:
331,276,101115,6,0,P|303:298|271:310,1,70,0|0,3:0|3:0,0:0:0:0:
195,273,101591,2,0,P|161:261|128:260,1,70,4|0,3:0|0:0,0:0:0:0:
49,291,102067,2,0,P|42:256|51:223,1,70,0|4,1:0|3:0,0:0:0:0:
120,176,102543,2,0,L|116:139,2,35,0|0|0,3:0|3:0|3:0,0:0:0:0:
200,149,103020,6,0,P|232:133|266:128,1,70,4|4,3:0|0:3,0:0:0:0:
335,173,103496,2,0,P|348:142|347:106,1,70,0|4,3:0|3:0,0:0:0:0:
334,23,103972,2,0,L|403:35,1,70,0|0,1:0|0:0,0:0:0:0:
478,71,104448,2,0,B|488:107|488:107|485:141,1,70,4|0,3:0|0:0,0:0:0:0:
433,205,104924,6,0,L|446:284,1,70,0|0,0:0|3:0,0:0:0:0:
382,331,105401,2,0,L|351:268,1,70,4|0,0:3|3:0,0:0:0:0:
276,230,105877,2,0,L|251:298,1,70,2|4,1:0|3:3,0:0:0:0:
181,341,106353,1,0,3:0:0:0:
132,272,106591,1,0,3:0:0:0:
59,314,106829,6,0,P|31:251|35:180,2,140,4|0|0,0:1|3:0|1:2,0:0:0:0:
205,231,108258,1,4,3:0:0:0:
172,66,108734,6,0,L|235:98,4,70,0|0|4|0|0,3:0|3:0|3:3|3:0|1:0,0:0:0:0:
251,213,110162,1,0,3:0:0:0:
318,162,110401,1,0,3:0:0:0:
354,237,110639,6,0,B|384:299|384:299|421:299|421:299|440:263,1,140,4|0,0:3|3:0,0:0:0:0:
447,185,111353,1,4,3:0:0:0:
447,185,111591,2,0,P|413:124|360:78,1,140,0|4,1:0|3:0,0:0:0:0:
285,116,112305,1,0,3:0:0:0:
203,101,112543,6,0,P|178:71|151:53,1,70,8|0,0:0|0:0,0:0:0:0:
75,87,113020,2,0,P|100:117|127:135,1,70,4|8,0:3|0:0,0:0:0:0:
191,185,113496,2,0,P|164:208|130:215,1,70,8|4,0:0|0:3,0:0:0:0:
46,218,113972,1,8,0:1:0:0:
174,326,114448,6,0,L|246:338,1,70,6|0,0:3|0:3,0:0:0:0:
278,261,114924,2,0,L|352:253,1,70,8|0,0:3|0:3,0:0:0:0:
392,324,115401,1,4,0:3:0:0:
460,275,115639,1,0,0:3:0:0:
470,191,115877,2,0,B|469:156|469:156|445:131,1,70,8|0,0:3|0:3,0:0:0:0:
380,77,116353,6,0,L|309:93,1,70,4|0,0:3|0:3,0:0:0:0:
245,144,116829,2,0,L|307:178,1,70,8|0,0:3|0:3,0:0:0:0:
347,250,117305,1,4,0:3:0:0:
271,285,117543,1,0,0:3:0:0:
194,249,117781,2,0,B|161:238|161:238|126:245,1,70,8|0,0:3|0:3,0:0:0:0:
48,276,118258,6,0,L|30:203,1,70,4|0,0:3|0:3,0:0:0:0:
102,164,118734,2,0,L|111:86,1,70,8|0,0:3|0:3,0:0:0:0:
43,43,119210,1,4,0:3:0:0:
120,11,119448,1,0,0:3:0:0:
187,60,119686,2,0,B|218:75|218:75|255:77,1,70,8|0,0:3|0:3,0:0:0:0:
328,38,120162,5,4,0:3:0:0:
426,175,120639,1,8,0:3:0:0:
263,217,121115,1,4,0:3:0:0:
393,323,121591,2,0,L|323:341,1,70,8|0,0:3|0:3,0:0:0:0:
241,345,122067,6,0,P|187:301|168:234,2,140,6|8|4,0:3|0:3|0:3,0:0:0:0:
226,177,123496,2,0,P|197:157|163:153,1,70,8|0,0:3|0:3,0:0:0:0:
93,199,123972,6,0,P|82:132|127:79,2,140,4|8|4,0:3|0:3|0:3,0:0:0:0:
141,267,125162,1,0,0:3:0:0:
141,267,125401,2,0,P|175:255|210:253,1,70,8|0,0:3|0:3,0:0:0:0:
282,293,125877,6,0,L|311:220,2,70,4|0|8,0:3|0:3|0:3,0:0:0:0:
362,315,126591,2,0,L|384:384,2,70,0|4|0,0:3|0:3|0:0,0:0:0:0:
443,293,127305,2,0,L|448:223,1,70,8|0,0:3|0:3,0:0:0:0:
454,139,127781,6,0,B|429:114|429:114|392:109,1,70,4|0,0:3|0:3,0:0:0:0:
321,151,128258,2,0,B|289:160|289:160|251:161,1,70,8|8,0:3|0:2,0:0:0:0:
169,151,128734,2,0,P|187:218|248:246,1,140,6|4,0:3|0:3,0:0:0:0:
89,303,129686,6,0,P|53:242|41:175,2,140,12|8|8,3:1|3:1|3:1,0:0:0:0:
155,354,130877,1,0,0:0:0:0:
155,354,131115,2,0,P|191:334|222:328,1,70,8|0,3:1|3:0,0:0:0:0:
299,350,131591,6,0,P|323:318|327:217,2,140,8|8|8,3:1|3:1|3:1,0:0:0:0:
218,328,132781,1,0,3:0:0:0:
190,248,133020,1,8,3:1:0:0:
203,165,133258,6,0,P|247:109|310:83,1,140,8|0,3:1|3:0,0:0:0:0:
378,130,133972,2,0,L|407:63,1,70,8|0,3:1|3:0,0:0:0:0:
479,106,134448,2,0,L|450:173,1,70,8|0,3:1|3:0,0:0:0:0:
417,247,134924,1,8,3:1:0:0:
417,247,135162,6,0,P|349:230|279:236,1,140,0|0,3:0|3:0,0:0:0:0:
209,282,135877,2,0,P|196:241|201:208,1,70,8|0,3:1|3:0,0:0:0:0:
257,155,136353,2,0,P|225:136|191:132,1,70,8|0,3:1|3:0,0:0:0:0:
123,179,136829,2,0,P|110:146|113:111,1,70,8|8,3:1|3:1,0:0:0:0:
170,50,137305,6,0,P|238:36|307:41,2,140,8|8|8,3:1|3:1|3:1,0:0:0:0:
112,112,138496,1,0,0:1:0:0:
133,193,138734,1,8,0:1:0:0:
210,225,138972,1,0,0:1:0:0:
286,191,139210,6,0,P|326:179|424:189,2,140,8|8|8,3:1|3:1|3:1,0:0:0:0:
210,225,140401,1,0,3:1:0:0:
203,308,140639,1,8,3:1:0:0:
273,353,140877,1,0,3:1:0:0:
344,309,141115,5,8,3:1:0:0:
256,192,141234,12,0,142901,3:0:0:0:
69,55,143972,6,0,P|132:85|202:82,1,140,0|8,0:1|0:0,0:0:0:0:
278,51,144686,1,0,0:1:0:0:
349,94,144924,6,0,P|362:127|362:165,1,70,6|0,0:3|0:0,0:0:0:0:
293,209,145401,1,8,0:0:0:0:
348,271,145639,1,0,0:0:0:0:
284,326,145877,2,0,P|251:339|216:342,1,70,4|0,0:3|0:0,0:0:0:0:
140,306,146353,2,0,P|120:275|115:243,1,70,8|0,0:0|0:0,0:0:0:0:
163,174,146829,6,0,P|96:162|42:204,1,140,4|8,0:3|0:0,0:0:0:0:
41,287,147543,1,0,0:0:0:0:
41,287,147781,2,0,L|70:356,1,70,4|0,0:3|0:0,0:0:0:0:
143,314,148258,2,0,L|218:322,1,70,8|0,0:0|0:0,0:0:0:0:
223,238,148734,6,0,P|268:186|282:114,1,140,4|8,0:3|0:0,0:0:0:0:
238,46,149448,1,0,0:0:0:0:
174,100,149686,2,0,P|139:112|107:113,1,70,4|0,0:3|0:0,0:0:0:0:
59,182,150162,2,0,P|94:194|126:195,1,70,8|0,0:0|0:0,0:0:0:0:
192,247,150639,6,0,B|168:275|131:278|131:278|176:333,1,140,4|8,0:3|0:0,0:0:0:0:
253,362,151353,1,0,0:0:0:0:
327,324,151591,2,0,L|349:258,1,70,4|0,0:3|0:0,0:0:0:0:
432,267,152067,2,0,L|430:197,1,70,8|0,0:0|0:0,0:0:0:0:
400,118,152543,6,0,P|368:130|333:132,1,70,6|0,0:3|0:0,0:0:0:0:
255,98,153020,1,8,0:0:0:0:
211,169,153258,1,0,0:0:0:0:
134,133,153496,2,0,P|99:127|65:128,1,70,4|0,0:3|0:0,0:0:0:0:
25,202,153972,2,0,P|60:208|94:207,1,70,8|0,0:0|0:0,0:0:0:0:
134,133,154448,6,0,P|176:189|165:255,2,140,4|8|4,0:3|0:2|0:3,0:0:0:0:
62,87,155639,1,0,0:0:0:0:
62,87,155877,2,0,L|111:35,1,70,8|0,0:2|0:0,0:0:0:0:
188,65,156353,6,0,P|246:78|293:72,2,105,4|2|2,0:3|0:0|0:0,0:0:0:0:
110,36,157305,2,0,L|95:108,1,70,4|2,0:3|0:0,0:0:0:0:
168,147,157781,2,0,L|174:217,1,70,8|2,0:2|0:0,0:0:0:0:
113,275,158258,6,0,P|150:299|210:294,3,105,4|2|2|2,0:3|0:0|0:0|0:0,0:0:0:0:
299,207,159686,2,0,L|321:275,1,70,8|0,0:0|0:0,0:0:0:0:
256,192,171591,12,4,173496,0:3:0:0:
381,60,174448,5,12,0:3:0:0:
374,143,174686,1,8,0:0:0:0:
322,209,174924,2,0,P|287:211|253:203,1,70,8|0,0:0|0:0,0:0:0:0:
180,160,175401,6,0,P|168:195|171:227,1,70,6|0,0:3|0:0,0:0:0:0:
232,284,175877,1,8,0:0:0:0:
169,340,176115,1,0,0:0:0:0:
91,308,176353,2,0,L|68:237,1,70,4|0,0:3|0:0,0:0:0:0:
11,180,176829,2,0,L|21:105,1,70,8|0,0:0|0:0,0:0:0:0:
80,52,177305,6,0,L|215:88,1,140,4|8,0:3|0:0,0:0:0:0:
289,47,178020,1,0,0:0:0:0:
289,47,178258,2,0,P|308:76|339:97,1,70,4|0,0:3|0:0,0:0:0:0:
414,126,178734,2,0,P|395:155|364:176,1,70,8|0,0:0|0:0,0:0:0:0:
284,195,179210,6,0,P|328:249|397:252,1,140,4|8,0:3|0:0,0:0:0:0:
467,212,179924,1,0,0:0:0:0:
488,293,180162,2,0,L|435:352,1,70,4|0,0:3|0:0,0:0:0:0:
356,345,180639,2,0,L|287:336,1,70,8|0,0:0|0:0,0:0:0:0:
209,369,181115,6,0,P|209:303|261:256,1,140,4|8,0:3|0:0,0:0:0:0:
344,246,181829,1,0,0:0:0:0:
294,178,182067,2,0,P|258:172|225:178,1,70,4|0,0:3|0:0,0:0:0:0:
158,228,182543,2,0,P|123:233|89:227,1,70,8|0,0:0|0:0,0:0:0:0:
37,161,183020,6,0,L|58:88,1,70,6|0,0:3|0:0,0:0:0:0:
124,44,183496,1,8,0:0:0:0:
193,91,183734,1,0,0:0:0:0:
268,53,183972,2,0,B|302:40|302:40|336:46,1,70,4|0,0:3|0:0,0:0:0:0:
377,118,184448,2,0,B|343:131|343:131|309:125,1,70,8|0,0:0|0:0,0:0:0:0:
235,165,184924,6,0,P|289:210|355:230,2,140,4|8|4,0:3|0:0|0:3,0:0:0:0:
193,91,186115,1,0,0:0:0:0:
193,91,186353,2,0,P|163:113|150:145,1,70,8|0,0:0|0:0,0:0:0:0:
133,224,186829,6,0,P|97:207|69:146,2,105,4|2|2,0:3|0:0|0:0,0:0:0:0:
213,246,187781,2,0,L|179:325,1,70,4|2,0:3|0:0,0:0:0:0:
268,324,188258,2,0,P|300:306|334:300,1,70,8|2,0:0|0:0,0:0:0:0:
408,335,188734,6,0,P|416:289|389:239,3,105,4|2|2|2,0:3|0:0|0:0|0:0,0:0:0:0:
302,148,190162,2,0,P|273:165|236:172,1,70,8|0,0:0|0:0,0:0:0:0:
158,142,190639,5,6,0:3:0:0:
