osu file format v14

[General]
AudioFilename: audio.mp3
AudioLeadIn: 0
PreviewTime: 67781
Countdown: 0
SampleSet: Soft
StackLeniency: 0.7
Mode: 0
LetterboxInBreaks: 0
WidescreenStoryboard: 0

[Editor]
Bookmarks: 172662
DistanceSpacing: 1
BeatDivisor: 4
GridSize: 32
TimelineZoom: 1

[Metadata]
Title:BBoom BBoom
TitleUnicode:뿜뿜
Artist:MOMOLAND
ArtistUnicode:모모랜드
Creator:Lilyanna
Version:HARD!
Source:
Tags:MLD Entertainment kpop great dublekick hyebin 혜빈 yeonwoo 연우 jane 제인 taeha 태하 nayun 나윤 daisy 데이지 ahin 아인 nancy 낸시 jooe 낸시 HabiHolic
BeatmapID:1669073
BeatmapSetID:784632

[Difficulty]
HPDrainRate:6
CircleSize:4
OverallDifficulty:7
ApproachRate:8
SliderMultiplier:1.6
SliderTickRate:1

[Events]
//Background and Video events
0,0,"jooe.png",0,0
Video,-832,"hi.mp4"
//Break Periods
2,84172,90841
//Storyboard Layer 0 (Background)
//Storyboard Layer 1 (Fail)
//Storyboard Layer 2 (Pass)
//Storyboard Layer 3 (Foreground)
//Storyboard Sound Samples

[TimingPoints]
7782,476.190476190476,4,2,1,70,1,0
14805,-100,4,2,0,5,0,0
14924,-100,4,2,1,70,0,0
15281,-100,4,2,0,5,0,0
15400,-100,4,2,1,70,0,0
22424,-100,4,2,0,5,0,0
22543,-100,4,2,1,70,0,0
22901,-100,4,2,0,5,0,0
23020,-100,4,2,1,70,0,0
66829,-100,4,2,0,5,0,0
67781,-100,4,2,1,85,0,0
68734,-100,4,2,2,85,0,1
83972,-100,4,2,1,85,0,0
95758,-100,4,2,0,5,0,0
95877,-100,4,2,1,70,0,0
96234,-100,4,2,0,5,0,0
96353,-100,4,2,1,70,0,0
114329,-100,4,2,0,5,0,0
114448,-100,4,2,1,70,0,0
143020,-100,4,2,0,5,0,0
143972,-100,4,2,1,85,0,0
144924,-100,4,2,2,85,0,1
160162,-100,4,2,1,70,0,0
175401,-100,4,2,2,70,0,1
188734,-100,4,2,2,85,0,1
190639,-100,4,2,1,70,0,0
197662,-100,4,2,0,5,0,0
197781,-100,4,2,1,70,0,0
198139,-100,4,2,0,5,0,0
198258,-100,4,2,1,70,0,0
205877,-100,4,2,0,5,0,0

[Colours]
Combo1 : 121,255,121
Combo2 : 255,128,192
Combo3 : 0,168,84
Combo4 : 255,163,70
Combo5 : 255,28,255
Combo6 : 255,255,168

[HitObjects]
368,55,7781,6,0,L|379:160,2,80,12|0|8,0:0|0:0|0:0,0:0:0:0:
291,29,8496,1,0,0:0:0:0:
227,77,8734,2,0,L|145:91,1,80,8|0,0:0|0:0,0:0:0:0:
163,169,9210,2,0,L|81:183,1,80,8|0,0:0|0:0,0:0:0:0:
30,123,9686,6,0,P|68:191|42:290,1,160,8|8,0:0|0:0,0:0:0:0:
36,347,10401,1,0,0:0:0:0:
115,337,10639,2,0,L|198:331,1,80,8|0,0:0|0:0,0:0:0:0:
234,261,11115,2,0,L|317:255,1,80,8|0,0:0|0:0,0:0:0:0:
357,187,11591,6,0,L|337:101,2,80,8|0|8,0:0|0:0|0:0,0:0:0:0:
413,243,12305,1,0,0:0:0:0:
354,297,12543,2,0,L|271:291,1,80,8|0,0:0|0:0,0:0:0:0:
235,221,13019,2,0,L|152:215,1,80,8|0,0:0|0:0,0:0:0:0:
109,281,13496,6,0,P|135:212|98:123,1,160,8|8,0:0|0:0,0:0:0:0:
70,62,14210,1,0,0:0:0:0:
149,57,14448,2,0,P|227:78|285:53,1,120,8|0,0:0|0:0,0:0:0:0:
295,45,14924,2,0,L|306:168,1,120,8|0,0:0|0:0,0:0:0:0:
337,189,15401,6,0,L|428:171,2,80,12|0|8,0:0|0:0|0:0,0:0:0:0:
269,232,16115,1,0,0:0:0:0:
200,273,16353,2,0,P|211:317|201:358,1,80,8|0,0:0|0:0,0:0:0:0:
131,316,16829,2,0,P|120:272|130:231,1,80,8|0,0:0|0:0,0:0:0:0:
177,177,17305,6,0,P|88:200|32:131,1,160,8|8,0:0|0:0,0:0:0:0:
115,122,18020,1,0,0:0:0:0:
174,68,18258,2,0,L|286:58,1,80,8|0,0:0|0:0,0:0:0:0:
289,132,18734,2,0,L|401:122,1,80,8|0,0:0|0:0,0:0:0:0:
424,67,19210,6,0,P|412:130|446:204,1,120,8|0,0:0|0:0,0:0:0:0:
436,221,19686,2,0,L|290:237,1,120,8|0,0:0|0:0,0:0:0:0:
277,239,20162,1,8,0:0:0:0:
226,301,20401,1,0,0:0:0:0:
163,251,20639,2,0,L|119:254,2,40,8|0|0,0:0|0:0|0:0,0:0:0:0:
200,180,21115,6,0,P|208:112|165:53,1,120,8|0,0:0|0:0,0:0:0:0:
146,56,21591,2,0,L|248:40,1,80,8|0,0:0|0:0,0:0:0:0:
338,90,22067,2,0,P|330:158|373:217,1,120,8|0,0:0|0:0,0:0:0:0:
392,214,22543,2,0,L|252:238,1,120,8|0,0:0|0:0,0:0:0:0:
243,261,23020,6,0,P|245:208|212:163,1,80,12|0,0:0|0:0,0:0:0:0:
159,155,23496,2,0,P|157:208|190:253,1,80,8|0,0:0|0:0,0:0:0:0:
165,311,23972,2,0,L|71:320,1,80,8|0,0:0|0:0,0:0:0:0:
8,245,24448,2,0,L|87:237,1,80,8|0,0:0|0:0,0:0:0:0:
137,174,24924,6,0,P|124:123|148:55,1,120,8|0,0:0|0:0,0:0:0:0:
178,39,25401,2,0,P|216:47|281:31,1,80,8|0,0:0|0:0,0:0:0:0:
337,61,25877,2,0,L|332:146,1,80,8|0,0:0|0:0,0:0:0:0:
318,220,26353,1,8,0:0:0:0:
239,202,26591,1,0,0:0:0:0:
239,202,26829,6,0,L|159:206,1,80,8|0,0:0|0:0,0:0:0:0:
91,249,27305,2,0,L|86:334,1,80,8|0,0:0|0:0,0:0:0:0:
162,353,27781,2,0,L|241:357,1,80,8|0,0:0|0:0,0:0:0:0:
317,330,28258,2,0,L|312:250,1,80,8|0,0:0|0:0,0:0:0:0:
356,183,28734,6,0,P|411:194|486:178,1,120,8|0,0:0|0:0,0:0:0:0:
487,145,29210,2,0,P|474:98|488:52,1,80,8|0,0:0|0:0,0:0:0:0:
416,16,29686,2,0,L|324:19,1,80,8|0,0:0|0:0,0:0:0:0:
302,91,30162,2,0,L|210:94,1,80,8|0,0:0|0:0,0:0:0:0:
156,50,30639,5,8,0:0:0:0:
156,50,30877,1,0,0:0:0:0:
90,95,31115,1,8,0:0:0:0:
90,95,31353,1,0,0:0:0:0:
133,161,31591,2,0,P|154:212|138:286,1,120,8|0,0:0|0:0,0:0:0:0:
112,299,32067,1,8,0:0:0:0:
174,348,32305,1,0,0:0:0:0:
233,294,32543,6,0,L|297:288,1,40,8|0,0:0|0:0,0:0:0:0:
374,225,33020,2,0,P|364:174|367:163,1,40,8|0,0:0|0:0,0:0:0:0:
437,93,33496,2,0,P|447:144|436:182,1,80,8|0,0:0|0:0,0:0:0:0:
369,135,33972,2,0,L|289:137,1,80,8|0,0:0|0:0,0:0:0:0:
266,213,34448,6,0,L|350:210,1,80,8|0,0:0|0:0,0:0:0:0:
336,289,34924,2,0,L|339:373,1,80,8|0,0:0|0:0,0:0:0:0:
260,350,35401,2,0,P|189:323|97:358,1,160,8|8,0:0|0:0,0:0:0:0:
33,329,36115,1,0,0:0:0:0:
17,250,36353,6,0,L|26:143,1,80,8|0,0:0|0:0,0:0:0:0:
96,135,36829,2,0,L|105:28,1,80,8|0,0:0|0:0,0:0:0:0:
182,50,37305,2,0,P|235:60|312:42,1,120,8|0,0:0|0:0,0:0:0:0:
335,31,37781,2,0,P|319:88|343:166,1,120,8|0,0:0|0:0,0:0:0:0:
323,185,38258,6,0,P|281:176|236:191,1,80,12|0,0:0|0:0,0:0:0:0:
285,254,38734,2,0,P|327:263|372:248,1,80,8|0,0:0|0:0,0:0:0:0:
432,215,39210,1,8,0:0:0:0:
478,150,39448,1,0,0:0:0:0:
512,226,39686,1,8,0:0:0:0:
462,289,39924,1,0,0:0:0:0:
382,286,40162,6,0,P|340:277|295:292,1,80,8|0,0:0|0:0,0:0:0:0:
292,207,40638,2,0,P|250:216|205:201,1,80,8|0,0:0|0:0,0:0:0:0:
150,159,41114,1,8,0:0:0:0:
83,114,41352,1,0,0:0:0:0:
73,193,41590,1,8,0:0:0:0:
140,235,41828,1,0,0:0:0:0:
88,296,42067,6,0,P|46:287|1:302,1,80,8|0,0:0|0:0,0:0:0:0:
50,365,42543,2,0,P|92:374|137:359,1,80,8|0,0:0|0:0,0:0:0:0:
168,296,43019,1,8,0:0:0:0:
199,222,43257,1,0,0:0:0:0:
248,284,43495,1,8,0:0:0:0:
220,359,43733,1,0,0:0:0:0:
298,344,43972,6,0,L|369:331,1,40,8|0,0:0|0:0,0:0:0:0:
414,244,44448,2,0,L|402:182,1,40,8|0,0:0|0:0,0:0:0:0:
353,97,44924,2,0,L|286:108,1,40,8|0,0:0|0:0,0:0:0:0:
137,66,45401,2,0,L|215:53,1,80,8|0,0:0|0:0,0:0:0:0:
298,79,45877,6,0,P|282:161|294:202,1,120,4|0,0:0|0:0,0:0:0:0:
290,194,46353,2,0,P|234:191|163:217,1,120,8|0,0:0|0:0,0:0:0:0:
173,210,46829,2,0,P|193:276|182:330,1,120,8|0,0:0|0:0,0:0:0:0:
164,359,47305,1,8,0:0:0:0:
98,314,47543,1,0,0:0:0:0:
33,267,47781,6,0,L|35:180,1,80,8|0,0:0|0:0,0:0:0:0:
107,152,48258,2,0,L|109:65,2,80,8|0|8,0:0|0:0|0:0,0:0:0:0:
160,211,48972,1,0,0:0:0:0:
223,258,49210,2,0,L|317:260,1,80,8|0,0:0|0:0,0:0:0:0:
357,201,49686,6,0,P|349:153|361:113,1,80,8|0,0:0|0:0,0:0:0:0:
425,83,50162,2,0,P|433:131|421:171,1,80,8|0,0:0|0:0,0:0:0:0:
356,123,50639,2,0,B|277:96|277:148|185:116,1,160,8|8,0:0|0:0,0:0:0:0:
237,50,51353,1,0,0:0:0:0:
198,120,51591,6,0,P|214:183|192:252,1,120,8|0,0:0|0:0,0:0:0:0:
178,267,52067,2,0,L|270:288,1,80,8|0,0:0|0:0,0:0:0:0:
295,276,52424,1,0,0:0:0:0:
295,276,52543,2,0,L|320:174,1,80,8|0,0:0|0:0,0:0:0:0:
348,125,53020,2,0,B|403:151|403:151|466:124,1,120,8|0,0:0|0:0,0:0:0:0:
487,154,53496,6,0,L|499:244,1,80,6|2,0:0|0:0,0:0:0:0:
417,229,53972,2,0,L|429:319,2,80,2|2|2,0:0|0:0|0:0,0:0:0:0:
363,169,54686,1,2,0:0:0:0:
285,187,54924,1,2,0:0:0:0:
206,201,55162,1,2,0:0:0:0:
127,218,55401,6,0,L|115:128,1,80,2|2,0:0|0:0,0:0:0:0:
36,133,55877,2,0,L|24:43,2,80,2|2|2,0:0|0:0|0:0,0:0:0:0:
116,138,56591,1,2,0:0:0:0:
182,93,56829,1,2,0:0:0:0:
269,93,57067,1,2,0:0:0:0:
269,93,57186,1,2,0:0:0:0:
269,93,57305,6,0,P|282:153|296:180,1,80,2|2,0:0|0:0,0:0:0:0:
369,164,57781,2,0,P|383:201|389:240,1,80,2|2,0:0|0:0,0:0:0:0:
332,297,58258,2,0,P|272:310|245:324,2,80,2|2|2,0:0|0:0|0:0,0:0:0:0:
389,240,58972,1,2,0:0:0:0:
430,171,59210,6,0,L|423:89,1,80,2|2,0:0|0:0,0:0:0:0:
348,62,59686,2,0,L|266:69,2,80,2|2|2,0:0|0:0|0:0,0:0:0:0:
423,91,60401,1,2,0:0:0:0:
430,170,60639,1,2,0:0:0:0:
436,258,60877,1,2,0:0:0:0:
436,258,60996,1,2,0:0:0:0:
436,258,61115,6,0,L|397:275,3,40,2|2|2|0,0:0|0:0|0:0|0:0,0:0:0:0:
369,247,61591,2,0,L|330:230,3,40,2|2|2|0,0:0|0:0|0:0|0:0,0:0:0:0:
307,262,62067,2,0,L|268:279,3,40,2|0|2|0,0:0|0:0|0:0|0:0,0:0:0:0:
238,253,62543,2,0,L|199:236,3,40,2|2|2|0,0:0|0:0|0:0|0:0,0:0:0:0:
185,200,63020,6,0,L|202:161,3,40,2|2|2|0,0:0|0:0|0:0|0:0,0:0:0:0:
176,131,63496,2,0,L|159:92,3,40,2|2|2|0,0:0|0:0|0:0|0:0,0:0:0:0:
192,71,63972,2,0,L|209:32,3,40,2|0|2|0,0:0|0:0|0:0|0:0,0:0:0:0:
246,23,64448,2,0,L|285:40,3,40,2|2|2|0,0:0|0:0|0:0|0:0,0:0:0:0:
256,192,64924,12,0,66829,0:2:0:0:
320,38,67781,6,0,P|285:75|286:135,1,80,2|0,0:0|0:0,0:0:0:0:
236,38,68258,2,0,P|271:75|278:131,1,80,8|0,0:0|0:0,0:0:0:0:
233,210,68734,6,0,P|171:205|128:220,1,80,12|0,0:0|0:0,0:0:0:0:
82,260,69210,1,10,0:0:0:0:
95,147,69448,1,0,0:0:0:0:
22,195,69686,1,10,0:0:0:0:
154,208,69924,1,2,0:0:0:0:
97,136,70162,1,8,0:0:0:0:
80,272,70400,1,0,0:0:0:0:
164,85,70639,6,0,P|222:99|286:82,1,120,8|0,0:0|0:0,0:0:0:0:
322,74,71115,2,0,L|323:162,1,80,8|0,0:0|0:0,0:0:0:0:
406,180,71591,2,0,L|407:268,1,80,8|0,0:0|0:0,0:0:0:0:
326,296,72067,2,0,P|284:291|234:301,1,80,8|0,0:0|0:0,0:0:0:0:
179,353,72543,6,0,P|139:358|99:353,1,80,8|0,0:0|0:0,0:0:0:0:
38,289,73020,1,10,0:0:0:0:
115,227,73258,1,0,0:0:0:0:
50,151,73496,1,10,0:0:0:0:
126,228,73734,1,2,0:0:0:0:
38,289,73972,1,8,0:0:0:0:
137,228,74210,1,0,0:0:0:0:
144,108,74448,6,0,B|222:82|222:133|329:102,1,160,8|8,0:0|0:0,0:0:0:0:
437,188,75401,2,0,P|402:151|396:91,1,80,8|0,0:0|0:0,0:0:0:0:
353,189,75878,2,0,P|388:152|390:95,1,80,8|0,0:0|0:0,0:0:0:0:
321,54,76353,6,0,L|232:62,1,80,8|0,0:0|0:0,0:0:0:0:
143,70,76829,1,10,0:0:0:0:
71,144,77067,1,0,0:0:0:0:
48,46,77305,1,10,0:0:0:0:
56,151,77543,1,2,0:0:0:0:
153,58,77781,1,8,0:0:0:0:
42,162,78020,1,0,0:0:0:0:
227,27,78258,6,0,P|229:86|192:131,1,120,8|0,0:0|0:0,0:0:0:0:
154,154,78734,1,8,0:0:0:0:
208,222,78972,1,0,0:0:0:0:
134,270,79210,2,0,P|96:262|47:272,1,80,8|0,0:0|0:0,0:0:0:0:
209,317,79686,2,0,P|247:325|296:315,1,80,8|0,0:0|0:0,0:0:0:0:
341,249,80162,6,0,P|327:175|354:115,1,120,8|0,0:0|0:0,0:0:0:0:
370,101,80639,1,8,0:0:0:0:
293,58,80877,1,0,0:0:0:0:
247,135,81115,2,0,P|207:142|169:134,1,80,10|2,0:0|0:0,0:0:0:0:
87,77,81591,2,0,P|49:69|0:79,1,80,8|0,0:0|0:0,0:0:0:0:
44,147,82067,6,0,P|53:212|39:250,1,80,8|0,0:0|0:0,0:0:0:0:
34,266,82424,2,0,L|138:261,1,80,0|0,0:0|0:0,0:0:0:0:
157,261,82781,2,0,L|169:347,1,80,0|8,0:0|0:0,0:0:0:0:
211,348,83139,2,0,L|311:336,1,80,0|0,0:0|0:0,0:0:0:0:
333,329,83496,1,8,0:0:0:0:
342,241,83734,1,0,0:0:0:0:
285,149,83972,5,12,0:0:0:0:
363,73,91591,6,0,L|454:55,2,80,12|0|8,0:0|0:0|0:0,0:0:0:0:
278,98,92305,1,0,0:0:0:0:
338,161,92543,2,0,P|349:205|339:246,1,80,8|0,0:0|0:0,0:0:0:0:
274,293,93019,2,0,P|263:249|273:208,1,80,8|0,0:0|0:0,0:0:0:0:
182,203,93495,6,0,P|125:249|29:206,1,160,8|8,0:0|0:0,0:0:0:0:
105,167,94210,1,0,0:0:0:0:
152,100,94448,2,0,L|264:90,1,80,8|0,0:0|0:0,0:0:0:0:
290,38,94924,2,0,L|402:28,1,80,8|0,0:0|0:0,0:0:0:0:
386,108,95400,6,0,P|372:169|408:245,1,120,8|0,0:0|0:0,0:0:0:0:
427,233,95876,2,0,L|281:249,1,120,8|0,0:0|0:0,0:0:0:0:
267,249,96352,1,8,0:0:0:0:
219,184,96591,1,0,0:0:0:0:
165,243,96829,2,0,L|121:246,2,40,8|0|0,0:0|0:0|0:0,0:0:0:0:
219,184,97305,6,0,P|227:116|200:80,1,80,8|0,0:0|0:0,0:0:0:0:
194,80,97662,2,0,L|296:64,1,80,0|0,0:0|0:0,0:0:0:0:
312,61,98020,2,0,L|345:158,1,80,0|8,0:0|0:0,0:0:0:0:
377,144,98377,2,0,L|479:128,1,80
487,203,98734,2,0,L|347:227,1,120,8|0,0:0|0:0,0:0:0:0:
331,237,99210,6,0,P|349:294|332:343,1,80,8|0,0:0|0:0,0:0:0:0:
270,288,99686,2,0,P|221:323|170:323,1,80,0|0,0:0|0:0,0:0:0:0:
194,247,100162,2,0,P|139:223|113:178,1,80,2|0,0:0|0:0,0:0:0:0:
74,147,100639,1,8,0:0:0:0:
44,221,100877,1,0,0:0:0:0:
36,77,101115,6,0,P|79:67|118:82,1,80,0|0,0:0|0:0,0:0:0:0:
184,111,101591,2,0,P|221:122|260:111,1,80,8|0,0:0|0:0,0:0:0:0:
334,82,102067,2,0,P|372:71|410:82,2,80,2|8|8,0:0|0:0|0:0,0:0:0:0:
372,151,102781,1,0,0:0:0:0:
372,151,103020,6,0,L|374:246,1,80,8|0,0:0|0:0,0:0:0:0:
293,227,103496,2,0,L|295:322,1,80,0|0,0:0|0:0,0:0:0:0:
215,316,103972,2,0,L|213:236,1,80,2|0,0:0|0:0,0:0:0:0:
212,156,104448,1,8,0:0:0:0:
142,195,104686,1,0,0:0:0:0:
285,113,104924,6,0,L|275:26,1,80,0|0,0:0|0:0,0:0:0:0:
356,35,105401,2,0,L|365:114,1,80,8|0,0:0|0:0,0:0:0:0:
445,111,105877,2,0,L|435:31,2,80,2|8|8,0:0|0:0|0:0,0:0:0:0:
406,181,106591,1,0,0:0:0:0:
349,237,106829,6,0,P|303:233|354:277,1,160,12|0,0:0|0:0,0:0:0:0:
245,155,107781,2,0,P|291:159|240:115,1,160,2|8,0:0|0:0,0:0:0:0:
406,76,108734,6,0,P|419:133|414:171,2,80,0|0|8,0:0|0:0|0:0,0:0:0:0:
347,21,109448,1,0,0:0:0:0:
275,57,109686,2,0,P|217:62|174:57,1,80,2|8,0:0|0:0,0:0:0:0:
133,111,110162,2,0,P|144:166|129:237,1,120,8|0,0:0|0:0,0:0:0:0:
120,266,110639,6,0,L|219:267,1,80,8|0,0:0|0:0,0:0:0:0:
275,239,111115,2,0,P|269:190|282:138,1,80,0|0,0:0|0:0,0:0:0:0:
345,124,111591,2,0,P|351:173|338:225,1,80,2|0,0:0|0:0,0:0:0:0:
384,273,112067,2,0,L|483:274,1,80,8|0,0:0|0:0,0:0:0:0:
459,353,112543,6,0,L|379:352,1,80,0|0,0:0|0:0,0:0:0:0:
308,314,113020,1,8,0:0:0:0:
234,345,113258,1,2,0:0:0:0:
234,345,113377,1,2,0:0:0:0:
234,345,113496,2,0,P|232:281|266:248,1,80,2|8,0:0|0:0,0:0:0:0:
171,227,113972,2,0,B|117:249|117:249|53:224,1,120,8|0,0:0|0:0,0:0:0:0:
41,195,114448,6,0,P|50:153|35:108,1,80,12|0,0:0|0:0,0:0:0:0:
85,51,114924,2,0,P|127:60|172:45,1,80,8|0,0:0|0:0,0:0:0:0:
238,26,115400,1,8,0:0:0:0:
315,45,115638,1,0,0:0:0:0:
357,112,115876,1,8,0:0:0:0:
342,190,116114,1,0,0:0:0:0:
272,228,116352,6,0,P|263:186|278:141,1,80,8|0,0:0|0:0,0:0:0:0:
209,101,116828,2,0,P|167:110|122:95,1,80,8|0,0:0|0:0,0:0:0:0:
123,20,117305,1,8,0:0:0:0:
46,39,117543,1,0,0:0:0:0:
4,106,117781,1,8,0:0:0:0:
19,184,118019,1,0,0:0:0:0:
92,215,118257,6,0,P|134:206|179:221,1,80,8|0,0:0|0:0,0:0:0:0:
218,278,118733,2,0,P|260:287|305:272,1,80,8|0,0:0|0:0,0:0:0:0:
350,219,119210,1,8,0:0:0:0:
427,238,119448,1,0,0:0:0:0:
469,305,119686,1,8,0:0:0:0:
454,383,119924,1,0,0:0:0:0:
304,330,120162,6,0,L|373:320,1,40,8|0,0:0|0:0,0:0:0:0:
427,238,120638,2,0,L|412:168,1,40,8|0,0:0|0:0,0:0:0:0:
374,75,121114,2,0,L|306:86,1,40,8|0,0:0|0:0,0:0:0:0:
134,53,121591,2,0,L|212:40,1,80,8|0,0:0|0:0,0:0:0:0:
64,23,122067,6,0,P|53:103|79:147,1,120,4|0,0:0|0:0,0:0:0:0:
69,135,122543,2,0,P|125:132|196:158,1,120,8|0,0:0|0:0,0:0:0:0:
185,151,123019,2,0,P|165:217|176:271,1,120,8|0,0:0|0:0,0:0:0:0:
192,301,123495,1,8,0:0:0:0:
261,262,123733,1,0,0:0:0:0:
303,329,123971,6,0,L|390:331,1,80,8|0,0:0|0:0,0:0:0:0:
463,329,124448,2,0,L|465:242,2,80,8|0|8,0:0|0:0|0:0,0:0:0:0:
383,330,125162,1,0,0:0:0:0:
232,273,125400,2,0,L|326:275,1,80,8|0,0:0|0:0,0:0:0:0:
352,205,125876,6,0,P|344:157|356:117,1,80,8|0,0:0|0:0,0:0:0:0:
308,59,126353,2,0,P|260:67|220:55,1,80,8|0,0:0|0:0,0:0:0:0:
151,43,126829,2,0,P|103:35|63:47,1,80,8|0,0:0|0:0,0:0:0:0:
110,113,127305,1,8,0:0:0:0:
82,188,127543,1,0,0:0:0:0:
105,264,127781,6,0,L|202:256,1,80,8|0,0:0|0:0,0:0:0:0:
241,200,128257,2,0,L|384:235,1,120,8|0,0:0|0:0,0:0:0:0:
397,229,128733,2,0,L|433:89,1,120,0|0,0:0|0:0,0:0:0:0:
417,73,129210,2,0,L|300:44,1,120,8|0,0:0|0:0,0:0:0:0:
260,48,129686,6,0,L|272:138,1,80,6|2,0:0|0:0,0:0:0:0:
191,116,130162,2,0,L|203:206,2,80,2|2|0,0:0|0:0|0:0,0:0:0:0:
172,38,130876,1,2,0:0:0:0:
111,90,131114,1,2,0:0:0:0:
39,54,131352,1,2,0:0:0:0:
36,133,131591,6,0,L|46:212,1,80,2|2,0:0|0:0,0:0:0:0:
126,213,132067,2,0,L|136:292,2,80,2|2|2,0:0|0:0|0:0,0:0:0:0:
203,193,132781,1,2,0:0:0:0:
271,233,133019,1,2,0:0:0:0:
307,161,133257,1,2,0:0:0:0:
307,161,133376,1,2,0:0:0:0:
307,161,133495,6,0,P|294:101|280:74,1,80,2|2,0:0|0:0,0:0:0:0:
364,70,133971,2,0,P|378:107|384:146,1,80,2|2,0:0|0:0,0:0:0:0:
460,121,134448,2,0,P|454:81|439:44,2,80,2|2|2,0:0|0:0|0:0,0:0:0:0:
440,198,135162,1,2,0:0:0:0:
380,251,135400,6,0,L|300:257,1,80,2|2,0:0|0:0,0:0:0:0:
268,331,135876,2,0,L|186:338,2,80,2|2|2,0:0|0:0|0:0,0:0:0:0:
300,257,136591,1,2,0:0:0:0:
257,189,136829,1,2,0:0:0:0:
322,143,137067,1,2,0:0:0:0:
322,143,137186,1,2,0:0:0:0:
322,143,137305,6,0,L|361:160,3,40,2|2|2|0,0:0|0:0|0:0|0:0,0:0:0:0:
380,192,137781,2,0,L|416:207,3,40,2|2|2|0,0:0|0:0|0:0|0:0,0:0:0:0:
424,247,138258,2,0,L|463:264,3,40,2|0|0|0,0:0|0:0|0:0|0:0,0:0:0:0:
470,301,138734,2,0,L|454:337,3,40,2|0|0|0,0:0|0:0|0:0|0:0,0:0:0:0:
414,343,139210,6,0,L|375:326,3,40,2|2|2|0,0:0|0:0|0:0|0:0,0:0:0:0:
338,315,139686,2,0,L|321:354,3,40,2|2|2|0,0:0|0:0|0:0|0:0,0:0:0:0:
282,350,140162,2,0,L|246:334,3,40,2|0|2|0,0:0|0:0|0:0|0:0,0:0:0:0:
226,298,140638,2,0,L|245:257,3,40,2|2|2|0,0:0|0:0|0:0|0:0,0:0:0:0:
256,192,141115,12,0,143020,0:0:0:0:
192,38,143972,6,0,P|227:75|226:136,1,80,2|0,0:0|0:0,0:0:0:0:
192,244,144448,2,0,P|196:185|230:149,1,80,8|0,0:0|0:0,0:0:0:0:
275,221,144924,6,0,P|337:216|380:231,1,80,12|0,0:0|0:0,0:0:0:0:
448,228,145400,1,10,0:0:0:0:
357,313,145638,1,0,0:0:0:0:
454,320,145876,1,10,0:0:0:0:
353,219,146114,1,2,0:0:0:0:
459,328,146352,1,8,0:0:0:0:
346,212,146590,1,0,0:0:0:0:
479,125,146829,6,0,P|421:138|363:124,1,120,8|0,0:0|0:0,0:0:0:0:
337,93,147305,2,0,P|292:84|234:100,1,80,8|0,0:0|0:0,0:0:0:0:
196,139,147781,2,0,L|197:227,1,80,8|0,0:0|0:0,0:0:0:0:
123,249,148257,2,0,P|81:244|31:254,1,80,8|0,0:0|0:0,0:0:0:0:
44,329,148733,6,0,P|83:333|123:328,1,80,8|0,0:0|0:0,0:0:0:0:
195,294,149210,1,10,0:0:0:0:
280,333,149448,1,0,0:0:0:0:
366,293,149686,1,10,0:0:0:0:
281,346,149924,1,2,0:0:0:0:
279,221,150162,1,8,0:0:0:0:
281,357,150400,1,0,0:0:0:0:
355,165,150639,6,0,P|271:135|194:179,1,160,8|8,0:0|0:0,0:0:0:0:
99,29,151590,2,0,P|134:66|133:123,1,80,8|0,0:0|0:0,0:0:0:0:
96,242,152067,2,0,P|100:183|128:150,1,80,8|0,0:0|0:0,0:0:0:0:
180,215,152543,6,0,L|259:207,1,80,8|0,0:0|0:0,0:0:0:0:
343,193,153019,1,10,0:0:0:0:
316,293,153257,1,0,0:0:0:0:
419,206,153495,1,10,0:0:0:0:
302,295,153733,1,2,0:0:0:0:
459,271,153971,1,8,0:0:0:0:
289,296,154210,1,0,0:0:0:0:
250,136,154448,6,0,P|252:195|215:240,1,120,8|0,0:0|0:0,0:0:0:0:
183,264,154924,1,8,0:0:0:0:
135,199,155162,1,0,0:0:0:0:
87,263,155400,2,0,P|49:255|0:265,1,80,8|0,0:0|0:0,0:0:0:0:
143,332,155876,2,0,P|181:340|230:330,1,80,8|0,0:0|0:0,0:0:0:0:
286,286,156352,6,0,P|272:212|299:152,1,120,8|0,0:0|0:0,0:0:0:0:
315,143,156829,1,8,0:0:0:0:
316,63,157067,1,0,0:0:0:0:
162,99,157305,2,0,P|200:107|249:97,1,80,8|0,0:0|0:0,0:0:0:0:
100,44,157781,2,0,P|62:36|13:46,1,80,8|0,0:0|0:0,0:0:0:0:
58,113,158257,6,0,P|67:178|53:216,1,80,8|0,0:0|0:0,0:0:0:0:
58,230,158614,2,0,L|162:225,1,80,0|0,0:0|0:0,0:0:0:0:
173,244,158971,2,0,L|185:330,1,80,0|8,0:0|0:0,0:0:0:0:
219,342,159329,2,0,L|319:330,1,80,0|0,0:0|0:0,0:0:0:0:
338,333,159686,1,8,0:0:0:0:
357,255,159924,1,0,0:0:0:0:
385,118,160162,6,0,L|305:127,1,80,12|0,0:0|0:0,0:0:0:0:
249,69,160639,2,0,L|169:78,1,80,8|0,0:0|0:0,0:0:0:0:
141,153,161115,2,0,P|164:212|123:302,1,160,8|8,0:0|0:0,0:0:0:0:
65,346,161829,1,0,0:0:0:0:
128,297,162067,6,0,B|209:280|209:328|294:299,1,160,8|8,0:0|0:0,0:0:0:0:
361,279,162781,1,0,0:0:0:0:
334,203,163020,2,0,P|327:154|347:96,1,80,8|0,0:0|0:0,0:0:0:0:
404,88,163496,2,0,P|411:137|391:195,1,80,8|0,0:0|0:0,0:0:0:0:
332,124,163972,6,0,L|244:118,1,80,8|0,0:0|0:0,0:0:0:0:
213,107,164329,2,0,L|219:19,1,80,0|0,0:0|0:0,0:0:0:0:
178,23,164686,2,0,L|90:17,1,80,0|8,0:0|0:0,0:0:0:0:
59,25,165043,2,0,L|53:104,1,80,0|0,0:0|0:0,0:0:0:0:
48,144,165401,1,8,0:0:0:0:
174,242,165877,6,0,L|262:248,1,80,8|0,0:0|0:0,0:0:0:0:
293,259,166234,2,0,L|287:347,1,80,0|0,0:0|0:0,0:0:0:0:
328,343,166591,2,0,L|416:349,1,80,0|8,0:0|0:0,0:0:0:0:
447,341,166948,2,0,L|452:261,1,80,0|0,0:0|0:0,0:0:0:0:
458,222,167306,1,8,0:0:0:0:
395,172,167543,1,8,0:0:0:0:
395,172,167662,1,8,0:0:0:0:
395,172,167781,6,0,L|400:92,1,80,8|0,0:0|0:0,0:0:0:0:
328,55,168258,2,0,L|248:60,1,80,8|0,0:0|0:0,0:0:0:0:
177,23,168734,2,0,P|218:77|170:173,1,160,8|8,0:0|0:0,0:0:0:0:
139,98,169448,1,0,0:0:0:0:
191,158,169686,6,0,P|270:138|344:172,1,160,8|8,0:0|0:0,0:0:0:0:
399,221,170401,1,0,0:0:0:0:
430,147,170639,2,0,L|431:63,1,80,8|0,0:0|0:0,0:0:0:0:
399,221,171115,2,0,L|398:300,1,80,8|0,0:0|0:0,0:0:0:0:
318,308,171591,6,0,P|270:297|229:315,1,80,10|2,0:0|0:0,0:0:0:0:
203,296,171948,2,0,P|205:246|180:209,1,80,2|2,0:0|0:0,0:0:0:0:
201,181,172305,2,0,P|249:192|290:174,1,80,2|10,0:0|0:0,0:0:0:0:
296,147,172662,2,0,P|280:110|284:71,1,80,2|2,0:0|0:0,0:0:0:0:
300,34,173020,1,8,0:0:0:0:
100,32,173496,6,0,P|148:43|189:25,1,80,10|2,0:0|0:0,0:0:0:0:
215,44,173853,2,0,P|212:93|237:130,1,80,2|2,0:0|0:0,0:0:0:0:
217,159,174210,2,0,P|169:148|128:166,1,80,2|2,0:0|0:0,0:0:0:0:
122,193,174567,2,0,P|137:229|133:268,1,80,2|2,0:0|0:0,0:0:0:0:
118,306,174925,1,8,0:0:0:0:
194,327,175162,1,0,0:0:0:0:
244,264,175401,6,0,P|306:259|349:274,1,80,12|0,0:0|0:0,0:0:0:0:
397,291,175877,1,10,0:0:0:0:
375,193,176115,1,0,0:0:0:0:
466,227,176353,1,10,0:0:0:0:
369,182,176591,1,2,0:0:0:0:
477,225,176829,1,8,0:0:0:0:
397,305,177067,1,0,0:0:0:0:
305,127,177306,6,0,P|285:182|311:246,1,120,8|0,0:0|0:0,0:0:0:0:
310,278,177782,2,0,L|222:279,1,80,8|0,0:0|0:0,0:0:0:0:
163,233,178258,2,0,L|162:153,1,80,10|2,0:0|0:0,0:0:0:0:
101,100,178734,2,0,P|59:105|9:95,1,80,8|0,0:0|0:0,0:0:0:0:
183,69,179210,6,0,P|223:64|263:69,1,80,8|0,0:0|0:0,0:0:0:0:
338,93,179686,1,10,0:0:0:0:
407,165,179924,1,0,0:0:0:0:
334,235,180162,1,10,0:0:0:0:
418,164,180400,1,2,0:0:0:0:
338,93,180638,1,8,0:0:0:0:
429,164,180876,1,0,0:0:0:0:
298,164,181115,6,0,B|218:188|218:137|140:163,1,160,8|8,0:0|0:0,0:0:0:0:
141,162,182068,2,0,P|101:126|105:67,1,80,10|0,0:0|0:0,0:0:0:0:
53,166,182543,2,0,P|88:129|92:70,1,80,8|0,0:0|0:0,0:0:0:0:
173,90,183020,6,0,L|262:98,1,80,8|0,0:0|0:0,0:0:0:0:
327,126,183496,1,10,0:0:0:0:
399,52,183734,1,0,0:0:0:0:
422,150,183972,1,10,0:0:0:0:
414,45,184210,1,2,0:0:0:0:
317,138,184448,1,8,0:0:0:0:
428,34,184687,1,0,0:0:0:0:
247,178,184925,6,0,P|292:215|351:213,1,120,8|0,0:0|0:0,0:0:0:0:
379,184,185401,1,8,0:0:0:0:
317,138,185639,1,0,0:0:0:0:
254,88,185877,2,0,P|216:80|167:90,1,80,10|2,0:0|0:0,0:0:0:0:
76,157,186353,2,0,P|114:165|163:155,1,80,8|0,0:0|0:0,0:0:0:0:
233,172,186829,6,0,P|218:229|233:286,1,120,8|0,0:0|0:0,0:0:0:0:
259,317,187306,1,8,0:0:0:0:
324,270,187544,1,0,0:0:0:0:
394,307,187782,2,0,P|432:299|481:309,1,80,10|2,0:0|0:0,0:0:0:0:
324,270,188258,2,0,P|286:278|237:268,1,80,8|0,0:0|0:0,0:0:0:0:
277,102,188734,6,0,P|286:167|272:205,1,80,8|0,0:0|0:0,0:0:0:0:
243,186,189091,2,0,L|137:189,1,80,0|0,0:0|0:0,0:0:0:0:
124,199,189448,2,0,L|136:285,1,80,0|8,0:0|0:0,0:0:0:0:
143,317,189806,2,0,L|243:305,1,80,0|0,0:0|0:0,0:0:0:0:
262,304,190163,1,8,0:0:0:0:
335,336,190401,1,0,0:0:0:0:
401,196,190639,6,0,L|412:301,2,80,12|0|8,0:0|0:0|0:0,0:0:0:0:
390,116,191354,1,0,0:0:0:0:
317,81,191592,2,0,L|235:95,1,80,8|0,0:0|0:0,0:0:0:0:
175,45,192068,2,0,L|93:59,1,80,8|0,0:0|0:0,0:0:0:0:
68,133,192544,6,0,P|106:201|80:300,1,160,8|8,0:0|0:0,0:0:0:0:
45,343,193259,1,0,0:0:0:0:
123,357,193497,2,0,L|206:351,1,80,8|0,0:0|0:0,0:0:0:0:
230,276,193973,2,0,L|313:270,1,80,8|0,0:0|0:0,0:0:0:0:
347,199,194449,6,0,L|327:113,2,80,8|0|8,0:0|0:0|0:0,0:0:0:0:
409,248,195163,1,0,0:0:0:0:
447,177,195401,2,0,L|427:91,1,80,8|0,0:0|0:0,0:0:0:0:
373,41,195877,2,0,L|290:35,1,80,8|0,0:0|0:0,0:0:0:0:
218,63,196354,6,0,P|245:136|219:210,1,160,8|8,0:0|0:0,0:0:0:0:
190,285,197068,1,0,0:0:0:0:
269,280,197306,2,0,P|327:269|382:290,1,120,8|0,0:0|0:0,0:0:0:0:
418,308,197782,2,0,L|407:188,1,120,8|0,0:0|0:0,0:0:0:0:
420,150,198259,6,0,L|511:132,2,80,12|0|8,0:0|0:0|0:0,0:0:0:0:
381,79,198973,1,0,0:0:0:0:
320,131,199211,2,0,P|276:142|235:132,1,80,8|0,0:0|0:0,0:0:0:0:
168,105,199687,2,0,P|161:144|172:182,1,80,8|0,0:0|0:0,0:0:0:0:
234,233,200163,6,0,P|145:256|89:187,1,160,8|8,0:0|0:0,0:0:0:0:
53,149,200878,1,0,0:0:0:0:
26,224,201116,2,0,L|36:336,1,80,8|0,0:0|0:0,0:0:0:0:
106,336,201592,2,0,L|218:326,1,80,8|0,0:0|0:0,0:0:0:0:
237,268,202068,6,0,P|225:205|259:131,1,120,8|0,0:0|0:0,0:0:0:0:
258,116,202544,2,0,L|112:132,1,120,8|0,0:0|0:0,0:0:0:0:
98,131,203020,1,8,0:0:0:0:
57,200,203259,1,0,0:0:0:0:
100,267,203497,2,0,L|139:260,2,40,8|0|0,0:0|0:0|0:0,0:0:0:0:
208,307,203972,6,0,P|216:239|195:202,1,80,8|0,0:0|0:0,0:0:0:0:
211,190,204329,2,0,L|313:174,1,80,0|0,0:0|0:0,0:0:0:0:
298,138,204686,2,0,P|291:98|302:60,1,80,0|8,0:0|0:0,0:0:0:0:
270,36,205043,2,0,L|190:48,1,80,0|0,0:0|0:0,0:0:0:0:
64,112,205401,6,0,L|226:84,1,160,8|0,0:0|0:2,0:0:0:0:
