osu file format v14

[General]
AudioFilename: audio.mp3
AudioLeadIn: 0
PreviewTime: 67781
Countdown: 0
SampleSet: Soft
StackLeniency: 0.4
Mode: 0
LetterboxInBreaks: 0
WidescreenStoryboard: 0

[Editor]
DistanceSpacing: 1.5
BeatDivisor: 4
GridSize: 32
TimelineZoom: 1

[Metadata]
Title:BBoom BBoom
TitleUnicode:뿜뿜
Artist:MOMOLAND
ArtistUnicode:모모랜드
Creator:Lilyanna
Version:GREAT!
Source:
Tags:MLD Entertainment kpop great dublekick hyebin 혜빈 yeonwoo 연우 jane 제인 taeha 태하 nayun 나윤 daisy 데이지 ahin 아인 nancy 낸시 jooe 낸시 HabiHolic
BeatmapID:1647301
BeatmapSetID:784632

[Difficulty]
HPDrainRate:6
CircleSize:4.4
OverallDifficulty:8
ApproachRate:9
SliderMultiplier:2.5
SliderTickRate:1

[Events]
//Background and Video events
0,0,"jooe.png",0,0
Video,-832,"hi.mp4"
//Break Periods
//Storyboard Layer 0 (Background)
//Storyboard Layer 1 (Fail)
//Storyboard Layer 2 (Pass)
//Storyboard Layer 3 (Foreground)
//Storyboard Sound Samples

[TimingPoints]
7782,476.190476190476,4,2,1,70,1,0
9686,-250,4,2,1,70,0,0
10043,-250,4,2,0,5,0,0
10162,-100,4,2,1,70,0,0
13496,-250,4,2,1,70,0,0
13853,-250,4,2,0,5,0,0
13972,-100,4,2,1,70,0,0
14448,-83.3333333333333,4,2,1,70,0,0
14924,-100,4,2,1,70,0,0
15281,-250,4,2,0,5,0,0
15401,-100,4,2,1,70,0,0
17305,-250,4,2,1,70,0,0
17662,-250,4,2,0,5,0,0
17781,-100,4,2,1,70,0,0
22067,-83.3333333333333,4,2,1,70,0,0
22543,-100,4,2,1,70,0,0
22901,-100,4,2,0,5,0,0
23020,-100,4,2,1,70,0,0
45401,-83.3333333333333,4,2,1,70,0,0
45758,-250,4,2,0,5,0,0
45877,-142.857142857143,4,2,1,70,0,0
46234,-142.857142857143,4,2,0,5,0,0
46353,-111.111111111111,4,2,1,70,0,0
46710,-111.111111111111,4,2,0,5,0,0
46829,-90.9090909090909,4,2,1,70,0,0
47186,-90.9090909090909,4,2,0,5,0,0
47305,-100,4,2,1,70,0,0
52067,-142.857142857143,4,2,1,70,0,0
52543,-111.111111111111,4,2,1,70,0,0
53019,-90.9090909090909,4,2,1,70,0,0
53495,-100,4,2,1,70,0,0
64924,-100,4,2,1,60,0,0
65401,-100,4,2,1,70,0,0
65877,-100,4,2,1,80,0,0
66353,-100,4,2,1,90,0,0
67781,-62.5,4,2,1,90,0,0
68734,-76.9230769230769,4,2,2,85,0,1
82424,-66.6666666666667,4,2,2,85,0,1
82781,-55.5555555555556,4,2,2,85,0,1
83139,-50,4,2,2,85,0,1
83972,-100,4,2,1,85,0,0
85877,-250,4,2,1,70,0,0
86234,-250,4,2,0,5,0,0
86353,-100,4,2,1,70,0,0
89686,-250,4,2,1,70,0,0
90043,-250,4,2,0,5,0,0
90162,-100,4,2,1,70,0,0
90639,-83.3333333333333,4,2,1,70,0,0
91115,-100,4,2,1,70,0,0
91472,-100,4,2,0,5,0,0
91591,-100,4,2,1,70,0,0
93496,-250,4,2,1,70,0,0
93853,-250,4,2,0,5,0,0
93972,-100,4,2,1,70,0,0
99091,-100,4,2,0,5,0,0
99210,-100,4,2,1,70,0,0
106353,-200,4,2,1,70,0,0
106829,-100,4,2,1,70,0,0
107901,-100,4,2,1,5,0,0
108258,-333.333333333333,4,2,1,70,0,0
108734,-100,4,2,1,70,0,0
108853,-100,4,2,0,5,0,0
108972,-100,4,2,1,70,0,0
109091,-100,4,2,0,5,0,0
109210,-100,4,2,1,70,0,0
109329,-100,4,2,0,5,0,0
109448,-100,4,2,1,70,0,0
109567,-100,4,2,0,5,0,0
109686,-100,4,2,1,70,0,0
109805,-100,4,2,0,5,0,0
109924,-100,4,2,1,70,0,0
112543,-100,4,2,1,70,0,0
114329,-100,4,2,0,5,0,0
114448,-100,4,2,1,70,0,0
121591,-83.3333333333333,4,2,1,70,0,0
121948,-83.3333333333333,4,2,0,5,0,0
122067,-142.857142857143,4,2,1,70,0,0
122424,-142.857142857143,4,2,0,5,0,0
122543,-111.111111111111,4,2,1,70,0,0
122901,-111.111111111111,4,2,0,5,0,0
123019,-90.9090909090909,4,2,1,70,0,0
123377,-90.9090909090909,4,2,0,5,0,0
123495,-100,4,2,1,70,0,0
128258,-142.857142857143,4,2,1,70,0,0
128734,-111.111111111111,4,2,1,70,0,0
129210,-90.9090909090909,4,2,1,70,0,0
129686,-100,4,2,1,70,0,0
141115,-100,4,2,1,60,0,0
141592,-100,4,2,1,70,0,0
142068,-100,4,2,1,80,0,0
142544,-100,4,2,1,90,0,0
143972,-62.5,4,2,1,70,0,0
144448,-62.5,4,2,1,70,0,0
144924,-76.9230769230769,4,2,2,70,0,1
158258,-66.6666666666667,4,2,2,85,0,1
158615,-55.5555555555556,4,2,2,85,0,1
158973,-50,4,2,2,85,0,1
160162,-125,4,2,1,70,0,0
167781,-125,4,2,1,70,0,0
174924,-100,4,2,1,70,0,0
175401,-76.9230769230769,4,2,2,70,0,1
188734,-66.6666666666667,4,2,2,85,0,1
189091,-55.5555555555556,4,2,2,85,0,1
189449,-50,4,2,2,85,0,1
190639,-100,4,2,1,70,0,0
192543,-250,4,2,1,70,0,0
192901,-250,4,2,0,5,0,0
193019,-100,4,2,1,70,0,0
196353,-250,4,2,1,70,0,0
196710,-250,4,2,0,5,0,0
196829,-100,4,2,1,70,0,0
197305,-83.3333333333333,4,2,1,70,0,0
197781,-100,4,2,1,70,0,0
198139,-100,4,2,0,5,0,0
198258,-100,4,2,1,70,0,0
200162,-250,4,2,1,70,0,0
200520,-250,4,2,0,5,0,0
200638,-100,4,2,1,70,0,0
203972,-71.4285714285714,4,2,1,70,0,0
205877,-71.4285714285714,4,2,0,5,0,0
369686,-100,4,2,1,70,0,0
373496,-100,4,2,1,70,0,0
377305,-100,4,2,1,70,0,0

[Colours]
Combo1 : 121,255,121
Combo2 : 255,128,192
Combo3 : 0,168,84
Combo4 : 255,163,70
Combo5 : 255,28,255
Combo6 : 255,255,168

[HitObjects]
400,68,7781,6,0,P|388:96|384:152,1,62.5,12|0,0:0|0:0,0:0:0:0:
380,208,8020,1,0,0:0:0:0:
308,64,8258,1,8,0:0:0:0:
276,224,8496,2,0,P|288:196|292:140,1,62.5
308,64,8734,1,8,0:0:0:0:
380,208,8972,1,0,0:0:0:0:
215,166,9210,1,8,0:0:0:0:
461,117,9448,1,0,0:0:0:0:
194,180,9686,6,0,L|190:257,1,75,8|0,0:0|0:0,0:0:0:0:
182,335,10162,5,8,0:0:0:0:
44,247,10401,1,0,0:0:0:0:
292,249,10639,2,0,P|285:277|256:314,1,62.5,8|0,0:0|0:0,0:0:0:0:
182,335,10877,1,0,0:0:0:0:
275,155,11115,2,0,P|282:124|300:99,1,62.5,8|0,0:0|0:0,0:0:0:0:
385,69,11353,1,0,0:0:0:0:
191,208,11591,6,0,P|160:200|135:182,1,62.5,8|0,0:0|0:0,0:0:0:0:
93,104,11829,1,0,0:0:0:0:
96,260,12067,1,8,0:0:0:0:
193,123,12305,1,0,0:0:0:0:
38,184,12543,1,8,0:0:0:0:
192,235,12781,1,0,0:0:0:0:
280,101,13020,2,0,P|263:60|239:42,1,62.5,8|0,0:0|0:0,0:0:0:0:
171,26,13258,1,0,0:0:0:0:
211,237,13496,6,0,L|214:313,1,75,8|0,0:0|0:0,0:0:0:0:
284,352,13972,1,8,0:0:0:0:
121,353,14210,1,0,0:0:0:0:
359,203,14448,6,0,P|314:141|377:196,1,224.999993133545,8|0,0:0|0:0,0:0:0:0:
393,175,14924,6,0,P|319:163|387:188,1,187.5,8|0,0:0|0:0,0:0:0:0:
263,279,15401,6,0,P|233:273|177:282,1,62.5,12|0,0:0|0:0,0:0:0:0:
122,291,15640,1,0,0:0:0:0:
246,189,15878,1,8,0:0:0:0:
83,193,16116,2,0,P|112:198|168:189,1,62.5
246,189,16354,1,8,0:0:0:0:
122,291,16592,1,0,0:0:0:0:
125,121,16830,1,8,0:0:0:0:
229,350,17068,1,0,0:0:0:0:
263,167,17305,6,0,L|254:86,1,75,8|0,0:0|0:0,0:0:0:0:
243,11,17781,5,8,0:0:0:0:
106,100,18020,2,0,P|79:108|46:104,1,62.5
14,189,18258,2,0,P|26:212|28:264,1,62.5,8|0,0:0|0:0,0:0:0:0:
19,328,18496,1,0,0:0:0:0:
141,181,18734,2,0,P|129:204|127:256,1,62.5,8|0,0:0|0:0,0:0:0:0:
136,320,18972,1,0,0:0:0:0:
272,232,19210,6,0,P|332:225|401:233,1,125,8|0,0:0|0:0,0:0:0:0:
456,178,19567,1,0,0:0:0:0:
456,178,19686,2,0,P|450:115|463:45,1,125,8|0,0:0|0:0,0:0:0:0:
384,23,20043,1,0,0:0:0:0:
384,23,20162,1,8,0:0:0:0:
258,127,20401,1,0,0:0:0:0:
112,40,20639,1,8,0:0:0:0:
98,39,20758,1,0,0:0:0:0:
89,51,20877,1,0,0:0:0:0:
307,199,21115,6,0,P|237:211|188:176,1,125,8|0,0:0|0:0,0:0:0:0:
142,120,21472,1,0,0:0:0:0:
142,120,21591,2,0,P|154:190|119:239,1,125,8|0,0:0|0:0,0:0:0:0:
222,63,22067,6,0,B|336:16|336:117|451:60,1,224.999993133545,8|0,0:0|0:0,0:0:0:0:
438,65,22543,6,0,P|410:79|457:71,1,187.5,8|0,0:0|0:0,0:0:0:0:
458,205,23020,6,0,P|382:192|343:145,1,125,8|0,0:0|0:0,0:0:0:0:
323,327,23496,1,8,0:0:0:0:
245,154,23734,1,0,0:0:0:0:
423,275,23972,1,8,0:0:0:0:
201,285,24210,1,0,0:0:0:0:
304,91,24448,2,0,P|323:117|330:147,1,62.5,8|0,0:0|0:0,0:0:0:0:
245,154,24686,1,0,0:0:0:0:
404,166,24924,6,0,P|365:218|304:220,1,125,8|0,0:0|0:0,0:0:0:0:
158,163,25401,2,0,P|138:192|134:232,1,62.5,8|0,0:0|0:0,0:0:0:0:
218,225,25639,1,0,0:0:0:0:
52,240,25877,2,0,P|91:293|159:298,1,125,8|0,0:0|0:0,0:0:0:0:
71,39,26353,1,8,0:0:0:0:
80,49,26472,1,0,0:0:0:0:
87,61,26591,2,0,P|84:91|91:130,1,62.5
274,78,26829,6,0,P|207:66|132:124,1,125,8|0,0:0|0:0,0:0:0:0:
298,170,27305,1,8,0:0:0:0:
394,60,27543,1,0,0:0:0:0:
203,162,27781,1,8,0:0:0:0:
379,268,28020,1,0,0:0:0:0:
478,56,28258,2,0,P|471:96|440:130,1,62.5,8|0,0:0|0:0,0:0:0:0:
394,60,28496,1,0,0:0:0:0:
464,248,28734,6,0,P|454:161|495:122,1,125,8|0,0:0|0:0,0:0:0:0:
326,204,29210,2,0,P|319:164|288:130,1,62.5,8|0,0:0|0:0,0:0:0:0:
242,200,29448,1,0,0:0:0:0:
312,13,29686,2,0,P|302:100|343:139,1,125,8|0,0:0|0:0,0:0:0:0:
174,58,30162,2,0,L|106:51,1,62.5,8|0,0:0|0:0,0:0:0:0:
190,74,30401,2,0,L|122:67,1,62.5
65,119,30639,5,8,0:0:0:0:
65,119,30877,1,0,0:0:0:0:
223,155,31115,1,8,0:0:0:0:
223,155,31353,1,0,0:0:0:0:
69,208,31591,2,0,P|139:158|143:96,1,125,8|0,0:0|0:0,0:0:0:0:
210,73,31948,1,0,0:0:0:0:
210,73,32067,2,0,L|272:74,1,62.5,8|0,0:0|0:0,0:0:0:0:
353,71,32305,1,0,0:0:0:0:
421,218,32543,6,0,L|415:298,1,62.5,8|0,0:0|0:0,0:0:0:0:
229,123,33020,2,0,L|223:43,1,62.5,8|0,0:0|0:0,0:0:0:0:
436,217,33496,2,0,L|430:297,1,62.5,8|0,0:0|0:0,0:0:0:0:
394,350,33734,1,0,0:0:0:0:
358,197,33972,5,8,0:0:0:0:
256,322,34210,1,0,0:0:0:0:
340,118,34448,5,8,0:0:0:0:
209,255,34686,1,0,0:0:0:0:
382,47,34924,5,8,0:0:0:0:
159,180,35162,1,0,0:0:0:0:
227,22,35401,2,0,P|254:102|243:151,1,125,8|0,0:0|0:0,0:0:0:0:
126,27,35877,1,8,0:0:0:0:
248,141,36115,2,0,P|312:131|326:136,1,62.5
383,148,36353,5,8,0:0:0:0:
274,268,36591,2,0,P|210:278|196:273,1,62.5
135,261,36829,1,8,0:0:0:0:
174,103,37067,2,0,P|180:142|170:184,1,62.5
135,261,37305,2,0,P|106:198|108:131,1,125,8|0,0:0|0:0,0:0:0:0:
222,29,37662,1,0,0:0:0:0:
222,29,37781,2,0,P|250:85|252:147,1,125,8|0,0:0|0:0,0:0:0:0:
416,161,38258,6,0,P|357:161|308:218,1,125,12|0,0:0|0:0,0:0:0:0:
390,237,38615,1,0,0:0:0:0:
390,237,38734,2,0,P|341:175|350:117,1,125,8|0,0:0|0:0,0:0:0:0:
318,287,39210,1,8,0:0:0:0:
412,85,39448,1,0,0:0:0:0:
400,319,39686,1,8,0:0:0:0:
272,124,39924,1,0,0:0:0:0:
125,162,40162,6,0,P|170:159|233:222,1,125,8|0,0:0|0:0,0:0:0:0:
154,237,40519,1,0,0:0:0:0:
154,237,40638,2,0,P|195:185|188:115,1,125,8|0,0:0|0:0,0:0:0:0:
226,287,41114,1,8,0:0:0:0:
132,85,41352,1,0,0:0:0:0:
144,319,41590,1,8,0:0:0:0:
272,124,41828,1,0,0:0:0:0:
81,152,42067,6,0,P|53:84|87:15,1,125,8|0,0:0|0:0,0:0:0:0:
195,138,42424,1,0,0:0:0:0:
195,138,42543,2,0,P|127:166|58:132,1,125,8|0,0:0|0:0,0:0:0:0:
255,68,43020,1,8,0:0:0:0:
158,252,43258,1,0,0:0:0:0:
132,85,43496,1,8,0:0:0:0:
238,311,43734,1,0,0:0:0:0:
357,45,43972,6,0,P|351:71|353:111,1,62.5,8|0,0:0|0:0,0:0:0:0:
462,324,44448,2,0,P|468:298|466:258,1,62.5,8|0,0:0|0:0,0:0:0:0:
332,40,44924,2,0,P|326:66|328:106,1,62.5,8|0,0:0|0:0,0:0:0:0:
371,321,45401,2,0,P|392:305|352:322,1,224.999993133545,8|0,0:0|0:0,0:0:0:0:
251,321,45877,6,0,P|245:255|294:189,1,131.249995994568,4|0,0:0|0:0,0:0:0:0:
162,302,46353,6,0,P|187:240|279:201,1,168.749994850159,8|0,0:0|0:0,0:0:0:0:
97,220,46829,6,0,P|147:177|278:202,1,206.250006294251,8|0,0:0|0:0,0:0:0:0:
344,255,47305,5,8,0:0:0:0:
314,113,47543,1,0,0:0:0:0:
276,200,47781,1,8,0:0:0:0:
410,121,48020,1,0,0:0:0:0:
422,222,48258,1,8,0:0:0:0:
261,42,48496,1,0,0:0:0:0:
243,42,48615,1,0,0:0:0:0:
228,42,48734,1,8,0:0:0:0:
167,191,48972,1,0,0:0:0:0:
84,52,49210,1,8,0:0:0:0:
5,177,49448,1,0,0:0:0:0:
72,58,49686,5,8,0:0:0:0:
173,200,49924,1,0,0:0:0:0:
19,169,50162,1,8,0:0:0:0:
61,56,50401,1,0,0:0:0:0:
181,205,50639,2,0,P|240:199|304:231,1,125,8|0,0:0|0:0,0:0:0:0:
147,286,51115,1,8,0:0:0:0:
298,226,51353,2,0,P|297:182|300:151,1,62.5
370,126,51591,6,0,P|311:132|247:100,1,125,8|0,0:0|0:0,0:0:0:0:
197,45,51948,1,0,0:0:0:0:
94,151,52067,6,0,B|172:142|172:142|127:199,1,131.249995994568,8|0,0:0|0:0,0:0:0:0:
292,224,52543,6,0,B|191:241|191:241|247:175,1,168.749994850159,8|0,0:0|0:0,0:0:0:0:
295,350,53020,6,0,B|342:295|342:295|210:316,1,206.250006294251,8|0,0:0|0:0,0:0:0:0:
435,207,53496,6,0,L|359:217,1,62.5,6|0,0:0|0:0,0:0:0:0:
292,224,53734,1,2,0:0:0:0:
435,125,53972,2,0,L|359:135,1,62.5,2|0,0:0|0:0,0:0:0:0:
292,142,54210,1,2,0:0:0:0:
435,45,54448,2,0,L|359:55,1,62.5,2|0,0:0|0:0,0:0:0:0:
292,62,54686,5,2,0:0:0:0:
292,142,54924,1,2,0:0:0:0:
292,224,55162,1,2,0:0:0:0:
160,59,55401,6,0,P|137:65|108:93,1,62.5,2|0,0:0|0:0,0:0:0:0:
55,151,55639,1,2,0:0:0:0:
213,185,55877,2,0,P|194:169|155:161,1,62.5,2|0,0:0|0:0,0:0:0:0:
55,151,56115,1,2,0:0:0:0:
121,299,56353,2,0,P|125:275|112:237,1,62.5,2|0,0:0|0:0,0:0:0:0:
55,151,56591,5,2,0:0:0:0:
27,311,56829,1,2,0:0:0:0:
239,290,57067,1,2,0:0:0:0:
252,295,57186,1,2,0:0:0:0:
265,300,57305,6,0,P|301:299|337:280,1,62.5,2|0,0:0|0:0,0:0:0:0:
346,210,57543,2,0,P|310:211|274:230,1,62.5,2|0,0:0|0:0,0:0:0:0:
343,88,57781,2,0,B|314:146|370:146|338:235,1,125,2|2,0:0|0:0,0:0:0:0:
422,65,58258,5,2,0:0:0:0:
343,88,58496,1,2,0:0:0:0:
273,50,58734,1,2,0:0:0:0:
115,87,58972,2,0,P|124:113|115:160,1,62.5,2|0,0:0|0:0,0:0:0:0:
56,197,59210,6,0,P|126:180|196:225,1,125,2|2,0:0|0:0,0:0:0:0:
284,317,59686,1,2,0:0:0:0:
201,283,59924,1,2,0:0:0:0:
272,222,60162,1,2,0:0:0:0:
182,290,60401,1,2,0:0:0:0:
282,205,60639,1,2,0:0:0:0:
288,337,60877,5,2,0:0:0:0:
332,360,60996,1,2,0:0:0:0:
381,364,61115,1,2,0:0:0:0:
430,354,61234,1,2,0:0:0:0:
466,319,61353,1,2,0:0:0:0:
474,269,61472,1,2,0:0:0:0:
457,222,61591,1,2,0:0:0:0:
423,185,61710,1,2,0:0:0:0:
387,149,61829,1,2,0:0:0:0:
368,102,61948,1,2,0:0:0:0:
389,56,62067,1,2,0:0:0:0:
436,40,62186,1,0,0:0:0:0:
477,67,62305,5,2,0:0:0:0:
472,84,62424,1,2,0:0:0:0:
461,98,62543,1,2,0:0:0:0:
447,108,62662,1,2,0:0:0:0:
400,125,62781,5,2,0:0:0:0:
353,105,62901,1,2,0:0:0:0:
305,120,63020,1,2,0:0:0:0:
291,168,63139,1,2,0:0:0:0:
317,210,63258,1,2,0:0:0:0:
319,259,63377,1,2,0:0:0:0:
288,298,63496,1,2,0:0:0:0:
239,308,63615,1,2,0:0:0:0:
191,291,63734,1,2,0:0:0:0:
165,248,63853,1,2,0:0:0:0:
170,196,63973,1,2,0:0:0:0:
198,155,64091,1,0,0:0:0:0:
172,112,64210,5,2,0:0:0:0:
154,111,64329,1,2,0:0:0:0:
137,116,64448,1,2,0:0:0:0:
122,125,64567,1,2,0:0:0:0:
90,163,64686,5,2,0:0:0:0:
120,202,64805,1,2,0:0:0:0:
167,218,64924,1,2,0:0:0:0:
215,207,65043,1,2,0:0:0:0:
260,226,65162,1,2,0:0:0:0:
283,270,65281,1,2,0:0:0:0:
298,343,65401,5,2,0:0:0:0:
371,357,65520,1,2,0:0:0:0:
408,292,65639,1,2,0:0:0:0:
354,239,65758,1,2,0:0:0:0:
283,270,65877,5,2,0:0:0:0:
209,276,65996,1,2,0:0:0:0:
135,282,66115,1,2,0:0:0:0:
60,287,66234,1,2,0:0:0:0:
118,354,66353,5,0,0:0:0:0:
135,282,66472,1,2,0:0:0:0:
152,210,66591,1,2,0:0:0:0:
171,138,66710,1,2,0:0:0:0:
212,226,67781,6,0,B|207:196|141:212|137:136|137:136|198:81|220:153,1,200,2|0,0:0|0:0,0:0:0:0:
300,226,68139,1,0,0:0:0:0:
300,226,68258,2,0,B|305:196|371:212|375:136|375:136|314:81|292:153,1,200,8|0,0:0|0:0,0:0:0:0:
334,303,68734,6,0,B|292:319|255:303|255:303|215:320|161:298,1,162.499992561341,12|0,0:0|0:0,0:0:0:0:
87,259,69091,1,2,0:0:0:0:
39,192,69210,1,10,0:0:0:0:
156,75,69448,1,0,0:0:0:0:
87,259,69686,5,10,0:0:0:0:
39,192,69805,1,2,0:0:0:0:
120,187,69924,1,2,0:0:0:0:
77,30,70162,5,8,0:0:0:0:
120,187,70401,1,0,0:0:0:0:
331,148,70639,6,0,B|339:103|339:103|304:91|304:91|283:120|283:120|315:161,1,162.499992561341,8|0,0:0|0:0,0:0:0:0:
327,228,70996,1,0,0:0:0:0:
327,228,71115,2,0,B|354:263|354:263|333:292|333:292|297:279|297:279|306:235,1,162.499992561341,8|0,0:0|0:0,0:0:0:0:
120,187,71591,2,0,P|80:188|28:205,2,81.2499962806703,8|0|0,0:0|0:0|0:0,0:0:0:0:
124,38,72067,2,0,P|93:111|119:186,1,162.499992561341,8|0,0:0|0:0,0:0:0:0:
224,90,72543,6,0,P|214:141|214:84,1,162.499992561341,8|0,0:0|0:0,0:0:0:0:
234,9,72901,1,2,0:0:0:0:
304,49,73020,1,10,0:0:0:0:
119,186,73258,1,0,0:0:0:0:
350,122,73496,5,10,0:0:0:0:
291,178,73615,1,2,0:0:0:0:
363,201,73734,1,2,0:0:0:0:
121,191,73972,5,8,0:0:0:0:
121,191,74210,1,0,0:0:0:0:
465,253,74448,6,0,B|394:262|360:199|360:199|377:286|298:324,1,243.749988842011,8|0,0:0|0:0,0:0:0:0:
284,231,74924,1,8,0:0:0:0:
437,172,75162,1,0,0:0:0:0:
307,73,75401,1,8,0:0:0:0:
303,90,75520,1,0,0:0:0:0:
288,98,75639,1,0,0:0:0:0:
437,172,75877,1,8,0:0:0:0:
284,231,76115,1,0,0:0:0:0:
217,60,76353,6,0,B|191:98|219:147|219:147|185:123|145:138,1,162.499992561341,8|0,0:0|0:0,0:0:0:0:
172,214,76710,1,2,0:0:0:0:
95,187,76829,1,10,0:0:0:0:
123,53,77067,1,0,0:0:0:0:
108,270,77305,5,10,0:0:0:0:
30,237,77424,1,2,0:0:0:0:
95,187,77543,1,2,0:0:0:0:
123,53,77781,5,8,0:0:0:0:
118,283,78020,1,0,0:0:0:0:
310,156,78258,6,0,P|340:140|306:155,1,162.499992561341,8|0,0:0|0:0,0:0:0:0:
262,220,78615,1,0,0:0:0:0:
262,220,78734,2,0,P|237:270|252:217,1,162.499992561341,8|0,0:0|0:0,0:0:0:0:
423,239,79210,2,0,P|463:240|515:257,2,81.2499962806703,8|0|0,0:0|0:0|0:0,0:0:0:0:
163,167,79686,2,0,P|132:240|158:315,1,162.499992561341,8|0,0:0|0:0,0:0:0:0:
183,75,80162,6,0,P|115:69|39:135,1,162.499992561341,8|0,0:0|0:0,0:0:0:0:
42,115,80520,2,0,P|101:62|181:65,1,162.499992561341
251,106,80877,1,0,0:0:0:0:
133,152,81115,5,8,0:0:0:0:
207,184,81234,1,0,0:0:0:0:
151,243,81353,1,0,0:0:0:0:
251,106,81591,5,8,0:0:0:0:
75,213,81829,1,0,0:0:0:0:
370,264,82067,6,0,B|356:196|356:196|299:191|299:191|271:240,1,162.499992561341,8|0,0:0|0:0,0:0:0:0:
370,263,82424,6,0,B|356:196|356:196|299:191|299:191|270:240|270:240|319:291,1,187.500007152558,8|0,0:0|0:0,0:0:0:0:
370,263,82781,6,0,B|356:196|356:196|299:191|299:191|270:240|270:240|319:291,1,224.999993133545,8|0,0:0|0:0,0:0:0:0:
370,263,83139,6,0,B|356:196|356:196|299:191|299:191|270:240|270:240|319:291,1,250,8|0,0:0|0:0,0:0:0:0:
254,129,83496,6,0,B|204:211|204:211|211:150|159:95|60:130|43:210|109:303|214:261|225:185,1,375,8|0,0:0|0:0,0:0:0:0:
40,129,83972,6,0,P|28:157|24:213,1,62.5,12|0,0:0|0:0,0:0:0:0:
37,269,84211,1,0,0:0:0:0:
118,62,84449,1,8,0:0:0:0:
150,305,84687,2,0,P|162:277|166:221,1,62.5
213,161,84924,1,8,0:0:0:0:
412,212,85163,1,0,0:0:0:0:
247,170,85401,1,8,0:0:0:0:
493,121,85639,1,0,0:0:0:0:
270,183,85877,6,0,L|267:262,1,75,8|0,0:0|0:0,0:0:0:0:
199,317,86353,5,8,0:0:0:0:
84,222,86592,1,0,0:0:0:0:
346,262,86830,2,0,P|339:290|310:327,1,62.5,8|0,0:0|0:0,0:0:0:0:
268,380,87068,1,0,0:0:0:0:
270,196,87306,2,0,P|275:227|268:257,1,62.5,8|0,0:0|0:0,0:0:0:0:
199,317,87544,1,0,0:0:0:0:
199,154,87782,6,0,P|168:146|143:128,1,62.5,8|0,0:0|0:0,0:0:0:0:
83,74,88020,1,0,0:0:0:0:
96,260,88258,1,8,0:0:0:0:
171,53,88496,1,0,0:0:0:0:
22,160,88734,1,8,0:0:0:0:
192,235,88972,1,0,0:0:0:0:
312,344,89211,2,0,P|295:303|271:285,1,62.5,8|0,0:0|0:0,0:0:0:0:
192,235,89449,1,0,0:0:0:0:
265,89,89687,6,0,L|270:164,1,75,8|0,0:0|0:0,0:0:0:0:
192,235,90163,1,8,0:0:0:0:
353,217,90401,1,0,0:0:0:0:
151,146,90639,6,0,B|108:117|87:40|87:40|93:103|67:138,1,224.999993133545,8|0,0:0|0:0,0:0:0:0:
69,134,91115,6,0,B|87:117|89:55|89:55|112:117|157:152,1,187.5,8|0,0:0|0:0,0:0:0:0:
163,30,91592,6,0,P|175:57|215:97,1,62.5,12|0,0:0|0:0,0:0:0:0:
272,111,91829,1,0,0:0:0:0:
219,264,92067,1,8,0:0:0:0:
368,201,92305,2,0,P|339:206|283:197,1,62.5
228,180,92543,1,8,0:0:0:0:
129,309,92781,1,0,0:0:0:0:
301,279,93021,1,8,0:0:0:0:
130,130,93259,1,0,0:0:0:0:
379,188,93496,6,0,L|369:103,1,75,8|0,0:0|0:0,0:0:0:0:
307,61,93972,5,8,0:0:0:0:
164,156,94211,2,0,P|137:164|104:160,1,62.5
115,26,94449,2,0,P|127:49|129:101,1,62.5,8|0,0:0|0:0,0:0:0:0:
52,103,94687,1,0,0:0:0:0:
48,241,94925,2,0,P|36:218|34:166,1,62.5,8|0,0:0|0:0,0:0:0:0:
52,103,95163,1,0,0:0:0:0:
117,273,95401,6,0,P|177:266|246:274,1,125,8|0,0:0|0:0,0:0:0:0:
240,272,95758,2,0,P|190:237|125:212,1,125
250,179,96115,1,0,0:0:0:0:
262,188,96234,1,0,0:0:0:0:
274,197,96353,1,8,0:0:0:0:
99,137,96592,1,0,0:0:0:0:
259,61,96830,1,8,0:0:0:0:
250,74,96949,1,0,0:0:0:0:
241,86,97068,1,0,0:0:0:0:
338,266,97306,6,0,P|268:278|219:243,1,125,8|0,0:0|0:0,0:0:0:0:
159,298,97662,2,0,P|147:228|182:179,1,125
178,109,98020,2,0,P|215:112|249:151,1,62.5
303,76,98258,2,0,P|315:146|280:195,1,125,8|0,0:0|0:0,0:0:0:0:
473,166,98734,2,0,L|260:192,1,187.5,8|0,0:0|0:0,0:0:0:0:
234,328,99210,6,0,B|205:251|205:251|222:189,1,125,8|0,0:0|0:0,0:0:0:0:
117,86,99686,2,0,B|149:154|149:154|129:225,1,125
42,253,100162,2,0,B|93:191|93:191|155:207,1,125,2|0,0:0|0:0,0:0:0:0:
311,159,100639,2,0,B|260:221|260:221|198:205,1,125,8|0,0:0|0:0,0:0:0:0:
314,80,101115,5,0,0:0:0:0:
217,210,101353,1,0,0:0:0:0:
214,47,101591,1,8,0:0:0:0:
394,161,101829,1,0,0:0:0:0:
148,149,102067,1,2,0:0:0:0:
398,82,102305,1,8,0:0:0:0:
266,275,102543,2,0,L|250:335,2,62.5,8|0|0,0:0|0:0|0:0,0:0:0:0:
394,161,103020,6,0,L|358:293,1,125,8|0,0:0|0:0,0:0:0:0:
329,81,103496,2,0,L|293:213,1,125
256,19,103972,2,0,L|220:151,1,125,2|0,0:0|0:0,0:0:0:0:
71,196,104448,1,8,0:0:0:0:
223,140,104686,1,0,0:0:0:0:
26,101,104924,5,0,0:0:0:0:
14,263,105162,1,0,0:0:0:0:
133,46,105401,5,8,0:0:0:0:
71,196,105639,1,0,0:0:0:0:
265,50,105877,5,2,0:0:0:0:
144,159,106115,1,8,0:0:0:0:
261,271,106353,2,0,P|285:276|309:283,2,31.25,8|0|0,0:0|0:0|0:0,0:0:0:0:
261,271,106829,6,0,P|283:218|229:152,2,125,12|0|0,0:0|0:0|0:0,0:0:0:0:
252,162,107781,2,0,P|246:108|248:97,1,62.5,2|0,0:0|0:0,0:0:0:0:
337,40,108258,6,0,P|343:91|341:105,1,56.2499982833863,8|0,0:0|0:0,0:0:0:0:
260,271,108734,6,0,P|255:295|228:335,1,62.5
358,208,108972,2,0,P|363:184|390:144,1,62.5
240,253,109210,2,0,P|210:245|184:229,1,62.5,8|0,0:0|0:0,0:0:0:0:
372,230,109448,2,0,P|396:235|436:262,1,62.5
204,96,109686,2,0,P|214:132|301:171,1,125,2|8,0:0|0:0,0:0:0:0:
125,160,110162,2,0,P|156:204|146:276,1,125,8|0,0:0|0:0,0:0:0:0:
78,229,110520,1,0,0:0:0:0:
125,160,110639,6,0,B|185:143|185:180|270:157,1,125,8|0,0:0|0:0,0:0:0:0:
296,317,111115,2,0,P|327:273|317:201,1,125
251,249,111472,1,0,0:0:0:0:
296,317,111592,2,0,B|356:334|356:297|441:320,1,125,2|0,0:0|0:0,0:0:0:0:
431,151,112067,2,0,P|396:153|362:144,1,62.5,8|0,0:0|0:0,0:0:0:0:
302,101,112305,1,0,0:0:0:0:
199,227,112543,5,0,0:0:0:0:
361,224,112781,1,0,0:0:0:0:
216,72,113020,1,8,0:0:0:0:
240,305,113258,1,2,0:0:0:0:
238,319,113377,1,2,0:0:0:0:
228,330,113496,1,2,0:0:0:0:
102,185,113734,2,0,B|91:174|24:135|-5:140,1,62.5,8|0,0:0|0:0,0:0:0:0:
102,185,113972,2,0,P|104:108|167:151,1,187.5,8|0,0:0|0:0,0:0:0:0:
349,113,114448,6,0,P|308:113|237:168,1,125,12|0,0:0|0:0,0:0:0:0:
200,48,114805,1,0,0:0:0:0:
200,48,114924,2,0,P|226:80|241:167,1,125,8|0,0:0|0:0,0:0:0:0:
167,304,115400,1,8,0:0:0:0:
311,230,115638,1,0,0:0:0:0:
153,190,115876,1,8,0:0:0:0:
306,318,116114,1,0,0:0:0:0:
125,108,116352,6,0,P|166:108|237:163,1,125,8|0,0:0|0:0,0:0:0:0:
276,45,116709,1,0,0:0:0:0:
276,45,116828,2,0,P|247:74|235:164,1,125,8|0,0:0|0:0,0:0:0:0:
317,292,117304,1,8,0:0:0:0:
172,217,117542,1,0,0:0:0:0:
329,175,117780,1,8,0:0:0:0:
215,317,118020,1,0,0:0:0:0:
101,166,118257,6,0,P|87:225|114:280,1,125,8|0,0:0|0:0,0:0:0:0:
215,152,118614,1,0,0:0:0:0:
215,152,118733,2,0,P|147:180|78:146,1,125,8|0,0:0|0:0,0:0:0:0:
238,79,119210,1,8,0:0:0:0:
188,268,119448,1,0,0:0:0:0:
25,114,119686,1,8,0:0:0:0:
266,266,119924,1,0,0:0:0:0:
231,107,120162,5,8,0:0:0:0:
286,47,120281,1,0,0:0:0:0:
266,266,120639,5,8,0:0:0:0:
211,326,120758,1,0,0:0:0:0:
140,92,121115,5,8,0:0:0:0:
195,32,121234,1,0,0:0:0:0:
471,298,121591,6,0,P|398:297|470:295,1,224.999993133545,8|0,0:0|0:0,0:0:0:0:
332,348,122067,6,0,P|325:284|358:229,1,131.249995994568,4|0,0:0|0:0,0:0:0:0:
244,128,122543,6,0,P|269:190|362:229,1,168.749994850159,8|0,0:0|0:0,0:0:0:0:
64,106,123019,6,0,P|114:149|251:120,1,206.250006294251,8|0,0:0|0:0,0:0:0:0:
338,134,123495,5,8,0:0:0:0:
215,240,123733,1,0,0:0:0:0:
403,81,123971,1,8,0:0:0:0:
280,188,124210,1,0,0:0:0:0:
321,31,124448,1,8,0:0:0:0:
443,251,124686,1,0,0:0:0:0:
430,244,124805,1,0,0:0:0:0:
416,238,124924,1,8,0:0:0:0:
285,198,125162,1,0,0:0:0:0:
208,336,125400,1,8,0:0:0:0:
197,140,125638,1,0,0:0:0:0:
79,252,125876,5,8,0:0:0:0:
290,115,126114,1,0,0:0:0:0:
47,94,126352,1,8,0:0:0:0:
170,263,126591,1,0,0:0:0:0:
253,40,126829,2,0,P|312:34|369:71,1,125,8|0,0:0|0:0,0:0:0:0:
209,111,127305,1,8,0:0:0:0:
305,242,127543,2,0,P|304:198|307:167,1,62.5
355,308,127781,6,0,P|288:323|232:282,1,125,8|0,0:0|0:0,0:0:0:0:
305,242,128138,1,0,0:0:0:0:
177,258,128258,6,0,B|185:235|217:222|217:222|154:251|108:214,1,131.249995994568,8|0,0:0|0:0,0:0:0:0:
168,97,128734,6,0,P|194:118|142:104,1,168.749994850159
49,79,129210,6,0,B|2:134|2:134|134:113,1,206.250006294251,8|0,0:0|0:0,0:0:0:0:
200,176,129686,6,0,L|276:166,1,62.5,6|0,0:0|0:0,0:0:0:0:
343,156,129924,1,2,0:0:0:0:
504,179,130162,2,0,L|428:169,1,62.5,2|0,0:0|0:0,0:0:0:0:
361,166,130400,1,2,0:0:0:0:
203,201,130638,2,0,L|279:191,1,62.5
346,187,130876,5,2,0:0:0:0:
330,169,131114,1,2,0:0:0:0:
343,148,131352,1,2,0:0:0:0:
113,224,131591,6,0,P|90:230|61:258,1,62.5,2|0,0:0|0:0,0:0:0:0:
40,334,131829,1,2,0:0:0:0:
189,176,132067,2,0,P|170:160|131:152,1,62.5,2|0,0:0|0:0,0:0:0:0:
52,146,132305,1,2,0:0:0:0:
265,195,132543,2,0,P|269:171|256:133,1,62.5,2|0,0:0|0:0,0:0:0:0:
193,84,132781,5,2,0:0:0:0:
159,314,133019,1,2,0:0:0:0:
320,284,133257,1,2,0:0:0:0:
331,279,133376,1,2,0:0:0:0:
343,276,133495,6,0,L|415:256,1,62.5,2|0,0:0|0:0,0:0:0:0:
433,157,133733,2,0,L|361:177,1,62.5,2|0,0:0|0:0,0:0:0:0:
348,51,133972,2,0,L|375:189,1,125,2|2,0:0|0:0,0:0:0:0:
266,50,134448,5,2,0:0:0:0:
428,43,134686,1,2,0:0:0:0:
297,140,134924,1,2,0:0:0:0:
140,97,135162,2,0,P|143:127|134:157,1,62.5,2|0,0:0|0:0,0:0:0:0:
82,36,135400,6,0,P|150:14|218:64,1,125,2|2,0:0|0:0,0:0:0:0:
265,189,135876,1,2,0:0:0:0:
132,283,136114,1,2,0:0:0:0:
54,201,136352,1,2,0:0:0:0:
282,205,136591,1,2,0:0:0:0:
146,299,136829,1,2,0:0:0:0:
323,99,137067,5,2,0:0:0:0:
352,58,137186,1,2,0:0:0:0:
401,50,137305,1,2,0:0:0:0:
447,68,137424,1,2,0:0:0:0:
472,111,137543,1,2,0:0:0:0:
464,160,137662,1,2,0:0:0:0:
431,197,137781,1,2,0:0:0:0:
391,226,137900,1,2,0:0:0:0:
379,274,138019,1,2,0:0:0:0:
388,323,138138,1,2,0:0:0:0:
428,353,138257,1,2,0:0:0:0:
480,347,138377,1,0,0:0:0:0:
494,299,138495,5,2,0:0:0:0:
477,293,138614,1,2,0:0:0:0:
459,295,138733,1,2,0:0:0:0:
444,304,138852,1,2,0:0:0:0:
397,322,138971,5,2,0:0:0:0:
346,318,139091,1,2,0:0:0:0:
312,281,139210,1,2,0:0:0:0:
310,231,139329,1,2,0:0:0:0:
281,189,139448,1,2,0:0:0:0:
233,174,139567,1,2,0:0:0:0:
184,187,139686,1,2,0:0:0:0:
150,224,139805,1,2,0:0:0:0:
145,273,139924,1,2,0:0:0:0:
167,317,140043,1,2,0:0:0:0:
212,339,140163,1,2,0:0:0:0:
251,308,140281,1,0,0:0:0:0:
222,266,140401,5,2,0:0:0:0:
205,260,140520,1,2,0:0:0:0:
187,262,140639,1,2,0:0:0:0:
172,271,140758,1,2,0:0:0:0:
127,291,140876,5,2,0:0:0:0:
83,266,140995,1,2,0:0:0:0:
58,222,141114,1,2,0:0:0:0:
59,172,141233,1,2,0:0:0:0:
88,131,141352,1,2,0:0:0:0:
135,114,141471,1,2,0:0:0:0:
204,143,141591,5,2,0:0:0:0:
257,195,141710,1,2,0:0:0:0:
313,145,141829,1,2,0:0:0:0:
262,90,141948,1,2,0:0:0:0:
212,146,142067,5,2,0:0:0:0:
261,202,142186,1,2,0:0:0:0:
319,154,142305,1,2,0:0:0:0:
267,99,142424,1,2,0:0:0:0:
248,26,142543,5,2,0:0:0:0:
320,48,142662,1,2,0:0:0:0:
391,69,142781,1,2,0:0:0:0:
460,89,142900,1,0,0:0:0:0:
201,129,143972,6,0,B|210:78|243:35|243:35|176:75|150:63,1,200,2|0,0:0|0:0,0:0:0:0:
133,183,144329,1,0,0:0:0:0:
133,183,144448,2,0,B|110:172|43:212|43:212|76:169|85:118,1,200,8|0,0:0|0:0,0:0:0:0:
362,225,144924,6,0,B|189:220,1,162.499992561341,12|0,0:0|0:0,0:0:0:0:
145,280,145281,1,2,0:0:0:0:
182,352,145400,1,10,0:0:0:0:
169,149,145638,1,0,0:0:0:0:
15,197,145876,5,10,0:0:0:0:
97,197,145995,1,2,0:0:0:0:
60,270,146114,1,2,0:0:0:0:
56,50,146352,5,8,0:0:0:0:
215,76,146591,1,0,0:0:0:0:
336,184,146829,6,0,P|325:82|379:43,1,162.499992561341,8|0,0:0|0:0,0:0:0:0:
394,123,147186,1,0,0:0:0:0:
394,123,147305,2,0,P|405:225|351:264,1,162.499992561341,8|0,0:0|0:0,0:0:0:0:
203,265,147781,2,0,L|111:283,2,81.2499962806703,8|0|0,0:0|0:0|0:0,0:0:0:0:
51,206,148257,2,0,P|20:279|46:354,1,162.499992561341,8|0,0:0|0:0,0:0:0:0:
136,194,148734,6,0,P|167:121|141:46,1,162.499992561341,8|0,0:0|0:0,0:0:0:0:
65,15,149091,1,2,0:0:0:0:
70,96,149210,1,10,0:0:0:0:
223,44,149448,1,0,0:0:0:0:
384,26,149686,5,10,0:0:0:0:
325,82,149805,1,2,0:0:0:0:
397,105,149924,1,2,0:0:0:0:
234,128,150162,5,8,0:0:0:0:
234,128,150400,1,0,0:0:0:0:
90,287,150639,6,0,B|141:287|187:237|161:167|161:167|185:206|227:209,1,243.749988842011,8|0,0:0|0:0,0:0:0:0:
92,208,151114,1,8,0:0:0:0:
268,274,151352,1,0,0:0:0:0:
331,123,151591,1,8,0:0:0:0:
327,140,151710,1,0,0:0:0:0:
312,148,151829,1,0,0:0:0:0:
454,69,152067,1,8,0:0:0:0:
270,80,152305,1,0,0:0:0:0:
411,159,152543,6,0,P|396:224|461:284,1,162.499992561341,8|0,0:0|0:0,0:0:0:0:
476,204,152900,1,2,0:0:0:0:
491,124,153019,1,10,0:0:0:0:
332,160,153257,1,0,0:0:0:0:
449,48,153495,5,10,0:0:0:0:
367,45,153614,1,2,0:0:0:0:
399,119,153733,1,2,0:0:0:0:
233,118,153971,5,8,0:0:0:0:
367,45,154210,1,0,0:0:0:0:
87,99,154448,6,0,P|57:83|91:98,1,162.499992561341,8|0,0:0|0:0,0:0:0:0:
106,175,154805,1,0,0:0:0:0:
106,175,154924,2,0,P|131:225|117:172,1,162.499992561341,8|0,0:0|0:0,0:0:0:0:
197,323,155400,2,0,P|237:324|289:341,2,81.2499962806703,8|0|0,0:0|0:0|0:0,0:0:0:0:
340,233,155876,2,0,P|309:306|335:381,1,162.499992561341,8|0,0:0|0:0,0:0:0:0:
340,233,156352,6,0,P|281:197|184:223,1,162.499992561341,8|0,0:0|0:0,0:0:0:0:
486,248,156710,2,0,P|409:269|339:232,1,162.499992561341
352,151,157067,1,0,0:0:0:0:
252,42,157305,5,8,0:0:0:0:
326,74,157424,1,0,0:0:0:0:
270,133,157543,1,0,0:0:0:0:
390,24,157781,5,8,0:0:0:0:
188,99,158019,1,0,0:0:0:0:
206,222,158258,6,0,B|123:246|104:221|87:193|5:213,1,187.500007152558,8|0,0:0|0:0,0:0:0:0:
35,280,158615,2,0,P|81:344|17:296,1,224.999993133545,8|0,0:0|0:0,0:0:0:0:
188,99,158972,6,0,P|115:132|195:126,1,224.999993133545,8|0,0:0|0:0,0:0:0:0:
284,140,159329,2,0,P|363:136|278:116,1,250,8|0,0:0|0:0,0:0:0:0:
74,204,159686,6,0,B|131:246|193:241|237:196|237:196|296:247|363:250|433:172,1,375,8|0,0:0|0:0,0:0:0:0:
412,281,160162,6,0,B|328:323|248:287|248:287|308:348|445:363,1,350,12|0,0:0|0:0,0:0:0:0:
480,318,161115,2,0,P|485:261|458:222,1,100,8|0,0:0|0:0,0:0:0:0:
430,79,161591,2,0,P|408:123|415:172,1,100,8|0,0:0|0:0,0:0:0:0:
267,196,162067,6,0,P|232:204|171:179,1,100,8|0,0:0|0:0,0:0:0:0:
48,99,162543,2,0,P|83:91|144:116,1,100,8|0,0:0|0:0,0:0:0:0:
257,17,163020,2,0,L|266:116,1,100,8|0,0:0|0:0,0:0:0:0:
231,289,163496,2,0,L|222:190,1,100,8|0,0:0|0:0,0:0:0:0:
437,125,163972,6,0,P|409:160|411:226,1,100,8|0,0:0|0:0,0:0:0:0:
388,140,164329,2,0,P|372:181|394:244,1,100
350,167,164686,2,0,P|344:211|379:266,1,100,0|8,0:0|0:0,0:0:0:0:
314,207,165043,2,0,P|318:251|365:297,1,100
427,308,165401,1,8,0:0:0:0:
145,279,165877,6,0,P|173:244|171:178,1,100,8|0,0:0|0:0,0:0:0:0:
194,264,166234,2,0,P|209:222|187:159,1,100
232,237,166591,2,0,P|237:192|202:137,1,100,0|8,0:0|0:0,0:0:0:0:
268,197,166948,2,0,P|263:152|216:106,1,100
155,96,167306,1,8,0:0:0:0:
155,96,167543,1,8,0:0:0:0:
155,96,167662,1,8,0:0:0:0:
155,96,167781,6,0,B|145:135|170:168|170:168|136:162|95:174|95:174|62:223|62:223|103:263|103:263|141:272|200:246,1,350,12|0,0:0|0:0,0:0:0:0:
247,213,168734,2,0,P|255:248|230:309,1,100,8|0,0:0|0:0,0:0:0:0:
299,149,169210,2,0,P|291:114|316:53,1,100,8|0,0:0|0:0,0:0:0:0:
208,142,169686,6,0,P|173:150|112:125,1,100,8|0,0:0|0:0,0:0:0:0:
340,221,170162,2,0,P|375:213|436:238,1,100,8|0,0:0|0:0,0:0:0:0:
275,25,170639,2,0,L|284:124,1,100,8|0,0:0|0:0,0:0:0:0:
240,323,171115,2,0,L|231:224,1,100,8|0,0:0|0:0,0:0:0:0:
185,116,171591,5,10,0:0:0:0:
155,222,171711,1,2,0:0:0:0:
50,191,171830,1,2,0:0:0:0:
81,89,171949,1,2,0:0:0:0:
170,129,172068,5,10,0:0:0:0:
142,211,172187,1,2,0:0:0:0:
61,180,172306,1,2,0:0:0:0:
92,100,172425,1,2,0:0:0:0:
153,142,172544,5,10,0:0:0:0:
128,198,172662,1,2,0:0:0:0:
74,170,172782,1,2,0:0:0:0:
98,117,172901,1,2,0:0:0:0:
216,238,173020,6,0,P|208:252|179:278,1,50,10|2,0:0|0:0,0:0:0:0:
355,160,173258,2,0,P|362:145|391:119,1,50,2|2,0:0|0:0,0:0:0:0:
456,309,173496,5,10,0:0:0:0:
426,203,173616,1,2,0:0:0:0:
321,234,173735,1,2,0:0:0:0:
352,336,173854,1,2,0:0:0:0:
441,296,173973,5,10,0:0:0:0:
413,214,174092,1,2,0:0:0:0:
332,245,174211,1,2,0:0:0:0:
363,325,174330,1,2,0:0:0:0:
424,283,174449,5,10,0:0:0:0:
399,227,174568,1,2,0:0:0:0:
345,255,174687,1,2,0:0:0:0:
369,308,174806,1,2,0:0:0:0:
334,167,174924,5,8,0:0:0:0:
430,359,175162,1,0,0:0:0:0:
257,267,175401,6,0,B|183:225|84:262,1,162.499992561341,12|0,0:0|0:0,0:0:0:0:
25,273,175758,1,2,0:0:0:0:
71,190,175877,1,10,0:0:0:0:
141,349,176115,1,0,0:0:0:0:
23,123,176353,5,10,0:0:0:0:
104,118,176472,1,2,0:0:0:0:
71,190,176591,1,2,0:0:0:0:
54,38,176829,5,8,0:0:0:0:
160,190,177068,1,0,0:0:0:0:
357,103,177305,6,0,P|311:94|247:187,1,162.499992561341,8|0,0:0|0:0,0:0:0:0:
326,177,177663,1,0,0:0:0:0:
326,177,177781,2,0,P|286:129|320:34,1,162.499992561341,8|0,0:0|0:0,0:0:0:0:
291,296,178258,5,10,0:0:0:0:
210,308,178377,1,2,0:0:0:0:
129,316,178496,1,2,0:0:0:0:
53,175,178734,6,0,P|22:248|48:323,1,162.499992561341,8|0,0:0|0:0,0:0:0:0:
27,103,179210,6,0,B|107:77|107:150|211:101,1,162.499992561341,8|0,0:0|0:0,0:0:0:0:
150,37,179568,1,2,0:0:0:0:
230,48,179687,1,10,0:0:0:0:
150,189,179925,1,0,0:0:0:0:
290,107,180163,5,10,0:0:0:0:
319,182,180282,1,2,0:0:0:0:
365,115,180401,1,2,0:0:0:0:
150,189,180639,5,8,0:0:0:0:
296,258,180877,1,0,0:0:0:0:
150,189,181115,6,0,B|154:120|112:83|112:83|162:121|201:114|234:91,1,243.749988842011,8|0,0:0|0:0,0:0:0:0:
179,30,181591,1,8,0:0:0:0:
69,160,181829,1,0,0:0:0:0:
240,248,182068,1,10,0:0:0:0:
236,265,182187,1,2,0:0:0:0:
221,273,182306,1,2,0:0:0:0:
281,82,182544,1,8,0:0:0:0:
320,271,182782,1,0,0:0:0:0:
366,120,183020,6,0,B|340:158|368:207|368:207|334:183|294:198,1,162.499992561341,8|0,0:0|0:0,0:0:0:0:
433,162,183377,1,2,0:0:0:0:
433,80,183496,1,10,0:0:0:0:
275,117,183734,1,0,0:0:0:0:
173,298,183972,5,10,0:0:0:0:
159,215,184091,1,2,0:0:0:0:
95,265,184210,1,2,0:0:0:0:
156,131,184448,5,8,0:0:0:0:
18,237,184687,1,0,0:0:0:0:
350,125,184925,6,0,P|380:109|346:124,1,162.499992561341,8|0,0:0|0:0,0:0:0:0:
302,189,185282,1,0,0:0:0:0:
302,189,185401,2,0,P|277:239|292:186,1,162.499992561341,8|0,0:0|0:0,0:0:0:0:
405,315,185877,5,10,0:0:0:0:
324,327,185996,1,2,0:0:0:0:
243,335,186115,1,2,0:0:0:0:
168,190,186353,6,0,P|137:263|163:338,1,162.499992561341,8|0,0:0|0:0,0:0:0:0:
388,230,186829,6,0,L|217:257,1,162.499992561341,8|0,0:0|0:0,0:0:0:0:
242,241,187186,2,0,L|423:213,1,162.499992561341
480,193,187544,1,0,0:0:0:0:
408,47,187781,5,8,0:0:0:0:
481,81,187901,1,0,0:0:0:0:
417,131,188020,1,0,0:0:0:0:
266,108,188258,5,8,0:0:0:0:
480,193,188496,1,0,0:0:0:0:
259,335,188734,6,0,P|199:303|273:297,1,187.500007152558,8|0,0:0|0:0,0:0:0:0:
259,335,189091,2,0,P|186:300|271:291,1,224.999993133545,8|0,0:0|0:0,0:0:0:0:
365,238,189448,6,0,P|325:169|342:239,1,224.999993133545,8|0,0:0|0:0,0:0:0:0:
365,238,189805,2,0,P|368:155|336:238,1,250,8|0,0:0|0:0,0:0:0:0:
463,209,190162,6,0,P|354:83|237:201,1,375,8|0,0:0|0:0,0:0:0:0:
184,121,190639,6,0,P|172:149|168:205,1,62.5,12|0,0:0|0:0,0:0:0:0:
178,261,190878,1,0,0:0:0:0:
108,102,191116,1,8,0:0:0:0:
80,262,191354,2,0,P|92:234|96:178,1,62.5
41,144,191591,1,8,0:0:0:0:
197,231,191830,1,0,0:0:0:0:
108,102,192068,1,8,0:0:0:0:
8,215,192306,1,0,0:0:0:0:
207,77,192544,6,0,L|205:159,1,75,8|0,0:0|0:0,0:0:0:0:
197,231,193020,5,8,0:0:0:0:
55,148,193259,1,0,0:0:0:0:
352,78,193497,2,0,P|345:106|316:143,1,62.5,8|0,0:0|0:0,0:0:0:0:
267,189,193735,1,0,0:0:0:0:
285,330,193973,2,0,P|290:299|283:269,1,62.5,8|0,0:0|0:0,0:0:0:0:
267,189,194211,1,0,0:0:0:0:
147,101,194449,6,0,P|178:109|203:127,1,62.5,8|0,0:0|0:0,0:0:0:0:
267,189,194687,1,0,0:0:0:0:
104,177,194925,1,8,0:0:0:0:
194,35,195163,1,0,0:0:0:0:
12,233,195401,1,8,0:0:0:0:
192,235,195639,1,0,0:0:0:0:
319,337,195878,2,0,P|302:296|278:278,1,62.5,8|0,0:0|0:0,0:0:0:0:
192,235,196116,1,0,0:0:0:0:
96,102,196354,6,0,L|104:182,1,75,8|0,0:0|0:0,0:0:0:0:
192,235,196830,1,8,0:0:0:0:
41,295,197068,1,0,0:0:0:0:
348,290,197305,6,0,B|243:241|243:355|136:292,1,224.999993133545,8|0,0:0|0:0,0:0:0:0:
348,290,197781,6,0,P|390:323|352:272,1,187.5,8|0,0:0|0:0,0:0:0:0:
324,45,198259,6,0,P|336:72|376:112,1,62.5,12|0,0:0|0:0,0:0:0:0:
424,140,198496,1,0,0:0:0:0:
219,264,198734,1,8,0:0:0:0:
355,176,198972,2,0,P|326:181|270:172,1,62.5
214,158,199210,1,8,0:0:0:0:
124,319,199448,1,0,0:0:0:0:
301,279,199686,1,8,0:0:0:0:
130,130,199924,1,0,0:0:0:0:
355,176,200163,6,0,L|344:82,1,75,8|0,0:0|0:0,0:0:0:0:
295,38,200639,5,8,0:0:0:0:
172,191,200878,2,0,P|145:199|112:195,1,62.5
235,140,201116,2,0,P|247:163|249:215,1,62.5,8|0,0:0|0:0,0:0:0:0:
210,268,201354,1,0,0:0:0:0:
48,246,201592,2,0,P|36:223|34:171,1,62.5,8|0,0:0|0:0,0:0:0:0:
48,107,201830,1,0,0:0:0:0:
195,39,202068,6,0,P|255:32|324:40,1,125,8|0,0:0|0:0,0:0:0:0:
318,38,202424,2,0,P|258:45|189:37,1,125,8|0,0:0|0:0,0:0:0:0:
290,121,202781,1,0,0:0:0:0:
305,121,202901,1,0,0:0:0:0:
320,121,203020,1,8,0:0:0:0:
199,228,203259,1,0,0:0:0:0:
361,227,203497,1,8,0:0:0:0:
352,240,203616,1,0,0:0:0:0:
343,252,203735,1,0,0:0:0:0:
23,131,203972,6,0,B|30:110|38:148|12:161|-6:144|-6:144|-13:43,1,174.999994659424,8|0,0:0|0:0,0:0:0:0:
23,131,204329,2,0,B|46:126|54:164|28:177|7:160|7:160|0:59,1,174.999994659424,8|0,0:0|0:0,0:0:0:0:
170,123,204686,6,0,P|173:169|173:126,1,174.999994659424,8|0,0:0|0:0,0:0:0:0:
267,164,205043,2,0,P|264:210|264:167,1,174.999994659424,8|0,0:0|0:0,0:0:0:0:
399,206,205401,6,0,B|406:138|350:95|350:95|419:110|419:110|436:54|436:54|460:130|509:138,1,349.999989318848,8|0,0:0|0:2,0:0:0:0:
