osu file format v14

[General]
AudioFilename: audio.mp3
AudioLeadIn: 0
PreviewTime: 67310
Countdown: 0
SampleSet: Drum
StackLeniency: 0.7
Mode: 3
LetterboxInBreaks: 0
SpecialStyle: 0
WidescreenStoryboard: 1

[Editor]
DistanceSpacing: 1.3
BeatDivisor: 4
GridSize: 4
TimelineZoom: 1.3

[Metadata]
Title:BBoom BBoom
TitleUnicode:뿜뿜
Artist:MOMOLAND
ArtistUnicode:모모랜드
Creator:Arzenvald
Version:Hyper
Source:
Tags:ExUsagi ajeemaniz Ppumppum LOEN Entertainment Dublekick Company 1theK Hyebin 혜빈 Yeonwoo 연우 Jane 제인 Taeha 태하 Nayun 나윤 Daisy 데이지 JooE 주이 Ahin 아인 Nancy 낸시 KPOP Korean
BeatmapID:1868826
BeatmapSetID:886692

[Difficulty]
HPDrainRate:8
CircleSize:4
OverallDifficulty:8
ApproachRate:5
SliderMultiplier:1.4
SliderTickRate:1

[Events]
//Background and Video events
0,0,"momoland-bg.jpg",0,0
//Break Periods
//Storyboard Layer 0 (Background)
//Storyboard Layer 1 (Fail)
//Storyboard Layer 2 (Pass)
//Storyboard Layer 3 (Foreground)
//Storyboard Layer 4 (Overlay)
//Storyboard Sound Samples
Sample,106120,0,"drum-hitnormal.wav",20
Sample,109215,0,"drum-hitnormal.wav",20

[TimingPoints]
168,476.190476190476,4,3,1,70,1,0
68739,-100,4,3,1,70,0,1
83977,-100,4,3,1,70,0,0
99215,-100,4,3,2,20,0,0
113977,-45.4545,4,3,2,20,0,0
114037,-166.667,4,3,2,20,0,0
114453,-100,4,3,1,70,0,0
143144,-100,4,3,2,60,0,0
144215,-100,4,3,1,70,0,0
144929,-100,4,3,1,70,0,1
160167,-100,4,3,1,70,0,0
175406,-100,4,3,1,70,0,1
175882,-149.254,4,3,1,70,0,1
175971,-50.2513,4,3,1,70,0,1
176001,-100,4,3,1,70,0,1
176120,-149.254,4,3,1,70,0,1
176209,-50.2513,4,3,1,70,0,1
176239,-100,4,3,1,70,0,1
176358,-149.254,4,3,1,70,0,1
176447,-50.2513,4,3,1,70,0,1
176477,-100,4,3,1,70,0,1
176596,-149.254,4,3,1,70,0,1
176685,-50.2513,4,3,1,70,0,1
176715,-100,4,3,1,70,0,1
176834,-149.254,4,3,1,70,0,1
176923,-50.2513,4,3,1,70,0,1
176953,-100,4,3,1,70,0,1
177073,-149.254,4,3,1,70,0,1
177162,-50.2513,4,3,1,70,0,1
177192,-100,4,3,1,70,0,1
177311,-149.254,4,3,1,70,0,1
177490,-50.2513,4,3,1,70,0,1
177549,-100,4,3,1,70,0,1
179692,-149.254,4,3,1,70,0,1
179781,-50.2513,4,3,1,70,0,1
179811,-100,4,3,1,70,0,1
179930,-149.254,4,3,1,70,0,1
180019,-50.2513,4,3,1,70,0,1
180049,-100,4,3,1,70,0,1
180168,-149.254,4,3,1,70,0,1
180257,-50.2513,4,3,1,70,0,1
180287,-100,4,3,1,70,0,1
180406,-149.254,4,3,1,70,0,1
180495,-50.2513,4,3,1,70,0,1
180525,-100,4,3,1,70,0,1
180644,-149.254,4,3,1,70,0,1
180733,-50.2513,4,3,1,70,0,1
180763,-100,4,3,1,70,0,1
180883,-149.254,4,3,1,70,0,1
180972,-50.2513,4,3,1,70,0,1
181002,-100,4,3,1,70,0,1
183501,-149.254,4,3,1,70,0,1
183590,-50.2513,4,3,1,70,0,1
183620,-100,4,3,1,70,0,1
183739,-149.254,4,3,1,70,0,1
183828,-50.2513,4,3,1,70,0,1
183858,-100,4,3,1,70,0,1
183977,-149.254,4,3,1,70,0,1
184066,-50.2513,4,3,1,70,0,1
184096,-100,4,3,1,70,0,1
184215,-149.254,4,3,1,70,0,1
184304,-50.2513,4,3,1,70,0,1
184334,-100,4,3,1,70,0,1
184453,-149.254,4,3,1,70,0,1
184542,-50.2513,4,3,1,70,0,1
184572,-100,4,3,1,70,0,1
184692,-149.254,4,3,1,70,0,1
184781,-50.2513,4,3,1,70,0,1
184811,-100,4,3,1,70,0,1
184930,-149.254,4,3,1,70,0,1
185109,-50.2513,4,3,1,70,0,1
185168,-100,4,3,1,70,0,1
190644,-100,4,3,1,70,0,0

[HitObjects]
448,192,168,5,0,0:0:0:0:
64,192,406,1,0,0:0:0:0:
448,192,644,1,0,0:0:0:0:
64,192,882,1,0,0:0:0:0:
320,192,882,1,0,0:0:0:0:
192,192,1120,1,0,0:0:0:0:
64,192,1358,1,0,0:0:0:0:
448,192,1358,1,0,0:0:0:0:
320,192,1596,1,0,0:0:0:0:
64,192,1834,1,0,0:0:0:0:
448,192,1834,1,0,0:0:0:0:
192,192,2072,1,0,0:0:0:0:
448,192,2310,1,0,0:0:0:0:
192,192,2548,1,0,0:0:0:0:
320,192,2548,1,0,0:0:0:0:
64,192,2787,1,0,0:0:0:0:
320,192,2787,1,0,0:0:0:0:
192,192,3025,1,0,0:0:0:0:
448,192,3025,1,0,0:0:0:0:
64,192,3501,1,0,0:0:0:0:
448,192,3660,1,0,0:0:0:0:
192,192,3739,1,0,0:0:0:0:
64,192,3977,1,0,0:0:0:0:
192,192,4215,1,0,0:0:0:0:
320,192,4453,1,0,0:0:0:0:
64,192,4691,1,0,0:0:0:0:
448,192,4691,1,0,0:0:0:0:
192,192,4929,1,0,0:0:0:0:
64,192,5167,1,0,0:0:0:0:
448,192,5167,1,0,0:0:0:0:
320,192,5406,1,0,0:0:0:0:
64,192,5644,1,0,0:0:0:0:
448,192,5644,1,0,0:0:0:0:
192,192,5882,1,0,0:0:0:0:
64,192,6120,1,0,0:0:0:0:
192,192,6358,1,0,0:0:0:0:
448,192,6358,1,0,0:0:0:0:
64,192,6596,1,0,0:0:0:0:
320,192,6596,1,0,0:0:0:0:
320,192,6834,1,2,0:0:0:0:
448,192,6834,1,0,0:0:0:0:
64,192,7072,1,8,0:0:0:0:
192,192,7191,1,8,0:0:0:0:
448,192,7191,1,0,0:0:0:0:
64,192,7310,1,8,0:0:0:0:
320,192,7310,1,0,0:0:0:0:
192,192,7548,1,2,0:0:0:0:
64,192,7787,1,4,0:0:0:0:
320,192,7787,1,2,0:0:0:0:
448,192,7787,1,0,0:0:0:0:
192,192,8025,1,0,0:0:0:0:
64,192,8025,1,0,0:0:0:0:
64,192,8263,1,8,0:0:0:0:
192,192,8263,1,2,0:0:0:0:
192,192,8501,1,0,0:0:0:0:
64,192,8501,1,0,0:0:0:0:
320,192,8739,1,2,0:0:0:0:
448,192,8739,1,0,0:0:0:0:
320,192,8977,1,0,0:0:0:0:
448,192,8977,1,0,0:0:0:0:
64,192,9215,1,8,0:0:0:0:
448,192,9215,1,2,0:0:0:0:
64,192,9453,1,0,0:0:0:0:
192,192,9453,1,0,0:0:0:0:
320,192,9691,128,2,10167:0:0:0:0:
448,192,9691,1,0,0:0:0:0:
64,192,10167,1,8,0:0:0:0:
448,192,10167,1,2,0:0:0:0:
320,192,10406,1,0,0:0:0:0:
448,192,10406,1,0,0:0:0:0:
64,192,10644,1,2,0:0:0:0:
448,192,10644,1,0,0:0:0:0:
192,192,10882,1,0,0:0:0:0:
64,192,11120,1,8,0:0:0:0:
448,192,11120,1,2,0:0:0:0:
192,192,11358,1,0,0:0:0:0:
320,192,11596,1,2,0:0:0:0:
448,192,11596,1,0,0:0:0:0:
192,192,11834,1,0,0:0:0:0:
64,192,11834,1,0,0:0:0:0:
64,192,12072,1,8,0:0:0:0:
192,192,12072,1,2,0:0:0:0:
192,192,12310,1,0,0:0:0:0:
64,192,12310,1,0,0:0:0:0:
320,192,12548,1,2,0:0:0:0:
448,192,12548,1,0,0:0:0:0:
320,192,12787,1,0,0:0:0:0:
448,192,12787,1,0,0:0:0:0:
64,192,13025,1,8,0:0:0:0:
448,192,13025,1,2,0:0:0:0:
64,192,13263,1,0,0:0:0:0:
320,192,13263,1,0,0:0:0:0:
192,192,13501,1,2,0:0:0:0:
448,192,13501,128,0,13977:0:0:0:0:
64,192,13977,128,8,14215:0:0:0:0:
192,192,13977,1,2,0:0:0:0:
320,192,13977,1,0,0:0:0:0:
192,192,14453,1,2,0:0:0:0:
320,192,14453,1,0,0:0:0:0:
448,192,14453,128,0,14691:0:0:0:0:
192,192,14929,1,8,0:0:0:0:
320,192,14929,1,2,0:0:0:0:
448,192,14929,1,0,0:0:0:0:
320,192,15167,1,0,0:0:0:0:
448,192,15227,1,0,0:0:0:0:
64,192,15287,1,0,0:0:0:0:
192,192,15346,1,0,0:0:0:0:
320,192,15406,1,4,0:0:0:0:
448,192,15406,1,2,0:0:0:0:
64,192,15644,1,0,0:0:0:0:
192,192,15644,1,0,0:0:0:0:
64,192,15882,1,8,0:0:0:0:
192,192,15882,1,2,0:0:0:0:
64,192,16120,1,0,0:0:0:0:
192,192,16120,1,0,0:0:0:0:
448,192,16358,1,2,0:0:0:0:
320,192,16358,1,0,0:0:0:0:
192,192,16596,1,0,0:0:0:0:
320,192,16596,1,0,0:0:0:0:
64,192,16834,1,8,0:0:0:0:
448,192,16834,1,2,0:0:0:0:
64,192,17072,1,0,0:0:0:0:
320,192,17072,1,0,0:0:0:0:
192,192,17310,1,2,0:0:0:0:
448,192,17310,128,0,17787:0:0:0:0:
192,192,17787,1,8,0:0:0:0:
320,192,18025,1,0,0:0:0:0:
448,192,18025,1,0,0:0:0:0:
320,192,18263,1,2,0:0:0:0:
448,192,18263,1,0,0:0:0:0:
192,192,18501,1,0,0:0:0:0:
320,192,18501,1,0,0:0:0:0:
64,192,18739,1,8,0:0:0:0:
192,192,18739,1,2,0:0:0:0:
320,192,18977,1,0,0:0:0:0:
448,192,18977,1,0,0:0:0:0:
64,192,19215,1,2,0:0:0:0:
192,192,19215,1,0,0:0:0:0:
64,192,19572,1,0,0:0:0:0:
192,192,19572,1,0,0:0:0:0:
320,192,19691,1,8,0:0:0:0:
448,192,19691,1,2,0:0:0:0:
64,192,20048,1,0,0:0:0:0:
192,192,20048,1,0,0:0:0:0:
448,192,20167,1,2,0:0:0:0:
64,192,20406,1,0,0:0:0:0:
192,192,20406,1,0,0:0:0:0:
320,192,20644,1,8,0:0:0:0:
448,192,20644,1,2,0:0:0:0:
64,192,20763,1,0,0:0:0:0:
192,192,20763,1,0,0:0:0:0:
64,192,21120,1,2,0:0:0:0:
192,192,21120,1,0,0:0:0:0:
64,192,21477,1,0,0:0:0:0:
192,192,21477,1,0,0:0:0:0:
320,192,21596,1,8,0:0:0:0:
448,192,21596,1,2,0:0:0:0:
192,192,21834,1,0,0:0:0:0:
64,192,22072,1,2,0:0:0:0:
448,192,22072,1,0,0:0:0:0:
64,192,22429,1,8,0:0:0:0:
192,192,22429,1,0,0:0:0:0:
320,192,22548,1,8,0:0:0:0:
448,192,22548,1,2,0:0:0:0:
192,192,22787,1,0,0:0:0:0:
448,192,23025,1,6,0:0:0:0:
320,192,23084,1,0,0:0:0:0:
192,192,23144,1,0,0:0:0:0:
64,192,23203,1,0,0:0:0:0:
448,192,23263,1,0,0:0:0:0:
320,192,23322,1,0,0:0:0:0:
192,192,23382,1,0,0:0:0:0:
64,192,23441,1,0,0:0:0:0:
320,192,23501,1,2,0:0:0:0:
448,192,23501,1,0,0:0:0:0:
448,192,23739,1,0,0:0:0:0:
64,192,23977,1,2,0:0:0:0:
192,192,23977,1,0,0:0:0:0:
64,192,24215,1,0,0:0:0:0:
320,192,24453,1,2,0:0:0:0:
448,192,24453,1,0,0:0:0:0:
192,192,24691,1,0,0:0:0:0:
448,192,24691,1,0,0:0:0:0:
64,192,24929,1,2,0:0:0:0:
448,192,24929,1,0,0:0:0:0:
64,192,25406,1,2,0:0:0:0:
448,192,25406,128,0,25644:0:0:0:0:
64,192,25644,1,0,0:0:0:0:
320,192,25644,128,0,25882:0:0:0:0:
64,192,25882,1,2,0:0:0:0:
192,192,25882,128,0,26358:0:0:0:0:
64,192,26596,1,0,0:0:0:0:
192,192,26596,1,0,0:0:0:0:
320,192,26834,1,2,0:0:0:0:
448,192,26834,1,0,0:0:0:0:
192,192,27072,1,0,0:0:0:0:
64,192,27310,1,2,0:0:0:0:
448,192,27310,1,0,0:0:0:0:
64,192,27548,1,0,0:0:0:0:
64,192,27787,1,2,0:0:0:0:
448,192,27787,1,0,0:0:0:0:
448,192,28025,1,0,0:0:0:0:
64,192,28263,1,2,0:0:0:0:
192,192,28263,1,0,0:0:0:0:
320,192,28501,1,0,0:0:0:0:
448,192,28501,1,0,0:0:0:0:
64,192,28739,1,2,0:0:0:0:
192,192,28739,1,0,0:0:0:0:
64,192,28977,1,0,0:0:0:0:
192,192,29037,1,0,0:0:0:0:
320,192,29096,1,0,0:0:0:0:
448,192,29156,1,0,0:0:0:0:
64,192,29215,1,2,0:0:0:0:
192,192,29215,1,0,0:0:0:0:
320,192,29453,1,0,0:0:0:0:
448,192,29453,1,0,0:0:0:0:
192,192,29691,1,2,0:0:0:0:
320,192,29810,1,0,0:0:0:0:
448,192,29870,1,0,0:0:0:0:
64,192,29929,1,0,0:0:0:0:
192,192,29929,1,0,0:0:0:0:
320,192,30167,1,2,0:0:0:0:
448,192,30167,1,0,0:0:0:0:
64,192,30406,1,0,0:0:0:0:
192,192,30406,1,0,0:0:0:0:
448,192,30644,1,2,0:0:0:0:
320,192,30703,1,0,0:0:0:0:
192,192,30763,1,0,0:0:0:0:
64,192,30822,1,0,0:0:0:0:
448,192,30882,1,0,0:0:0:0:
320,192,30941,1,0,0:0:0:0:
192,192,31001,1,0,0:0:0:0:
64,192,31060,1,0,0:0:0:0:
320,192,31120,1,2,0:0:0:0:
448,192,31120,1,0,0:0:0:0:
448,192,31358,1,0,0:0:0:0:
320,192,31596,1,2,0:0:0:0:
448,192,31596,1,0,0:0:0:0:
320,192,31953,1,0,0:0:0:0:
448,192,31953,1,0,0:0:0:0:
64,192,32072,1,2,0:0:0:0:
192,192,32310,1,0,0:0:0:0:
320,192,32548,1,2,0:0:0:0:
448,192,32548,1,0,0:0:0:0:
64,192,32667,1,0,0:0:0:0:
192,192,32667,1,0,0:0:0:0:
64,192,33025,1,2,0:0:0:0:
320,192,33025,1,0,0:0:0:0:
192,192,33144,1,0,0:0:0:0:
448,192,33144,1,0,0:0:0:0:
64,192,33501,1,2,0:0:0:0:
192,192,33501,1,0,0:0:0:0:
448,192,33501,1,0,0:0:0:0:
64,192,33739,1,0,0:0:0:0:
64,192,33977,1,2,0:0:0:0:
192,192,33977,1,0,0:0:0:0:
448,192,33977,1,0,0:0:0:0:
448,192,34215,1,0,0:0:0:0:
64,192,34453,1,2,0:0:0:0:
320,192,34453,1,0,0:0:0:0:
320,192,34691,1,0,0:0:0:0:
64,192,34929,1,2,0:0:0:0:
448,192,34929,1,0,0:0:0:0:
64,192,35167,1,0,0:0:0:0:
448,192,35167,1,0,0:0:0:0:
64,192,35406,1,2,0:0:0:0:
448,192,35406,128,0,35882:0:0:0:0:
64,192,35882,1,2,0:0:0:0:
192,192,35882,1,0,0:0:0:0:
448,192,36120,1,0,0:0:0:0:
192,192,36358,1,2,0:0:0:0:
448,192,36358,1,0,0:0:0:0:
320,192,36596,1,0,0:0:0:0:
192,192,36834,1,2,0:0:0:0:
64,192,37072,1,0,0:0:0:0:
192,192,37132,1,0,0:0:0:0:
448,192,37191,1,0,0:0:0:0:
320,192,37251,1,0,0:0:0:0:
64,192,37310,1,2,0:0:0:0:
192,192,37310,1,0,0:0:0:0:
320,192,37667,1,8,0:0:0:0:
448,192,37667,1,0,0:0:0:0:
320,192,37787,1,8,0:0:0:0:
448,192,37787,1,0,0:0:0:0:
192,192,38025,1,0,0:0:0:0:
64,192,38263,1,4,0:0:0:0:
320,192,38263,1,2,0:0:0:0:
448,192,38263,1,0,0:0:0:0:
320,192,38501,1,0,0:0:0:0:
448,192,38739,1,0,0:0:0:0:
64,192,38739,1,2,0:0:0:0:
320,192,38739,1,0,0:0:0:0:
320,192,38977,1,0,0:0:0:0:
64,192,39215,1,2,0:0:0:0:
192,192,39215,1,0,0:0:0:0:
192,192,39453,1,0,0:0:0:0:
320,192,39453,1,0,0:0:0:0:
320,192,39691,1,2,0:0:0:0:
448,192,39691,1,0,0:0:0:0:
192,192,39929,1,0,0:0:0:0:
320,192,39929,1,0,0:0:0:0:
64,192,40167,1,2,0:0:0:0:
192,192,40167,1,0,0:0:0:0:
448,192,40167,1,0,0:0:0:0:
192,192,40406,1,0,0:0:0:0:
192,192,40644,1,2,0:0:0:0:
448,192,40644,1,0,0:0:0:0:
64,192,40644,1,0,0:0:0:0:
192,192,40882,1,0,0:0:0:0:
64,192,41120,1,2,0:0:0:0:
320,192,41120,1,0,0:0:0:0:
64,192,41358,1,0,0:0:0:0:
192,192,41358,1,0,0:0:0:0:
320,192,41596,1,2,0:0:0:0:
448,192,41596,1,0,0:0:0:0:
192,192,41834,1,0,0:0:0:0:
448,192,41834,1,0,0:0:0:0:
64,192,42072,1,2,0:0:0:0:
448,192,42072,1,0,0:0:0:0:
320,192,42072,1,0,0:0:0:0:
64,192,42310,1,0,0:0:0:0:
64,192,42548,1,2,0:0:0:0:
448,192,42548,1,0,0:0:0:0:
320,192,42548,1,0,0:0:0:0:
64,192,42787,1,0,0:0:0:0:
320,192,43025,1,2,0:0:0:0:
448,192,43025,1,0,0:0:0:0:
320,192,43263,1,0,0:0:0:0:
448,192,43263,1,0,0:0:0:0:
192,192,43501,1,2,0:0:0:0:
448,192,43501,1,0,0:0:0:0:
64,192,43739,1,0,0:0:0:0:
320,192,43739,1,0,0:0:0:0:
320,192,43977,1,2,0:0:0:0:
448,192,43977,1,0,0:0:0:0:
64,192,44096,1,0,0:0:0:0:
192,192,44096,1,0,0:0:0:0:
320,192,44453,1,2,0:0:0:0:
448,192,44453,1,0,0:0:0:0:
64,192,44572,1,0,0:0:0:0:
192,192,44572,1,0,0:0:0:0:
320,192,44929,1,2,0:0:0:0:
448,192,44929,1,0,0:0:0:0:
64,192,45048,1,0,0:0:0:0:
192,192,45048,1,0,0:0:0:0:
64,192,45287,1,8,0:0:0:0:
192,192,45287,1,0,0:0:0:0:
320,192,45406,1,8,0:0:0:0:
448,192,45406,1,2,0:0:0:0:
64,192,45882,1,4,0:0:0:0:
192,192,45882,1,2,0:0:0:0:
448,192,45882,128,0,46358:0:0:0:0:
64,192,46358,1,2,0:0:0:0:
320,192,46358,128,0,46834:0:0:0:0:
64,192,46834,1,2,0:0:0:0:
448,192,46834,128,0,47310:0:0:0:0:
64,192,47310,1,2,0:0:0:0:
192,192,47310,1,0,0:0:0:0:
320,192,47548,1,0,0:0:0:0:
64,192,47787,1,2,0:0:0:0:
448,192,47787,1,0,0:0:0:0:
192,192,48025,1,0,0:0:0:0:
320,192,48025,1,0,0:0:0:0:
64,192,48263,1,2,0:0:0:0:
448,192,48263,1,0,0:0:0:0:
192,192,48501,1,0,0:0:0:0:
320,192,48620,1,0,0:0:0:0:
448,192,48620,1,0,0:0:0:0:
64,192,48739,1,2,0:0:0:0:
320,192,48977,1,0,0:0:0:0:
448,192,48977,1,0,0:0:0:0:
192,192,49215,1,2,0:0:0:0:
448,192,49215,1,0,0:0:0:0:
64,192,49453,1,0,0:0:0:0:
320,192,49453,1,0,0:0:0:0:
64,192,49691,1,2,0:0:0:0:
192,192,49691,1,0,0:0:0:0:
192,192,49929,1,0,0:0:0:0:
448,192,49929,1,0,0:0:0:0:
64,192,50167,1,2,0:0:0:0:
320,192,50167,1,0,0:0:0:0:
192,192,50406,1,0,0:0:0:0:
448,192,50406,1,0,0:0:0:0:
320,192,50644,1,2,0:0:0:0:
448,192,50644,128,0,51120:0:0:0:0:
64,192,51120,1,2,0:0:0:0:
192,192,51120,1,0,0:0:0:0:
320,192,51358,1,0,0:0:0:0:
448,192,51358,1,0,0:0:0:0:
64,192,51596,1,2,0:0:0:0:
448,192,51596,1,0,0:0:0:0:
320,192,52072,128,8,52310:0:0:0:0:
448,192,52072,128,2,52310:0:0:0:0:
192,192,52310,1,8,0:0:0:0:
64,192,52429,1,8,0:0:0:0:
192,192,52548,128,8,52906:0:0:0:0:
320,192,52548,128,2,52906:0:0:0:0:
448,192,52787,1,8,0:0:0:0:
64,192,53025,1,8,0:0:0:0:
192,192,53025,1,2,0:0:0:0:
64,192,53501,1,4,0:0:0:0:
320,192,53501,1,8,2:0:0:0:
448,192,53501,1,0,0:0:0:0:
192,192,53739,1,8,2:0:0:0:
448,192,53739,1,0,0:0:0:0:
448,192,53977,1,8,2:0:0:0:
192,192,54215,1,8,2:0:0:0:
448,192,54215,1,0,0:0:0:0:
448,192,54453,1,8,2:0:0:0:
192,192,54691,1,8,2:0:0:0:
448,192,54691,1,0,0:0:0:0:
64,192,54929,1,8,2:0:0:0:
320,192,54929,1,0,0:0:0:0:
192,192,55167,1,8,2:0:0:0:
448,192,55167,1,0,0:0:0:0:
64,192,55406,1,8,2:0:0:0:
64,192,55644,1,8,2:0:0:0:
320,192,55644,1,0,0:0:0:0:
64,192,55882,1,8,2:0:0:0:
64,192,56120,1,8,2:0:0:0:
320,192,56120,1,0,0:0:0:0:
64,192,56358,1,8,2:0:0:0:
192,192,56596,1,8,2:0:0:0:
320,192,56596,1,0,0:0:0:0:
320,192,56834,1,8,2:0:0:0:
448,192,56834,1,0,0:0:0:0:
64,192,57072,1,8,2:0:0:0:
448,192,57072,1,0,0:0:0:0:
192,192,57191,1,8,2:0:0:0:
64,192,57310,1,8,2:0:0:0:
448,192,57310,1,0,0:0:0:0:
192,192,57548,1,8,2:0:0:0:
320,192,57548,1,0,0:0:0:0:
64,192,57787,1,8,2:0:0:0:
320,192,57787,1,0,0:0:0:0:
64,192,58025,1,8,2:0:0:0:
448,192,58025,1,0,0:0:0:0:
192,192,58263,1,8,2:0:0:0:
448,192,58263,1,0,0:0:0:0:
192,192,58501,1,8,2:0:0:0:
320,192,58501,1,0,0:0:0:0:
64,192,58739,1,8,2:0:0:0:
320,192,58739,1,0,0:0:0:0:
64,192,58977,1,8,2:0:0:0:
448,192,58977,1,0,0:0:0:0:
320,192,59215,1,8,2:0:0:0:
192,192,59453,1,8,2:0:0:0:
320,192,59453,1,0,0:0:0:0:
64,192,59691,1,8,2:0:0:0:
320,192,59691,1,0,0:0:0:0:
192,192,59929,1,8,2:0:0:0:
448,192,59929,1,0,0:0:0:0:
64,192,60167,1,8,2:0:0:0:
192,192,60167,1,0,0:0:0:0:
64,192,60406,1,8,2:0:0:0:
320,192,60406,1,0,0:0:0:0:
320,192,60644,1,8,2:0:0:0:
448,192,60644,1,0,0:0:0:0:
64,192,60882,1,8,2:0:0:0:
192,192,60882,1,0,0:0:0:0:
320,192,61001,1,8,2:0:0:0:
448,192,61001,1,0,0:0:0:0:
64,192,61120,1,8,2:0:0:0:
192,192,61120,1,0,0:0:0:0:
320,192,61239,1,8,2:0:0:0:
64,192,61358,1,8,2:0:0:0:
448,192,61358,1,0,0:0:0:0:
192,192,61477,1,8,2:0:0:0:
320,192,61596,1,8,2:0:0:0:
192,192,61715,1,8,2:0:0:0:
64,192,61834,1,8,2:0:0:0:
448,192,61834,1,0,0:0:0:0:
320,192,61953,1,8,2:0:0:0:
64,192,62072,1,8,2:0:0:0:
192,192,62191,1,8,2:0:0:0:
320,192,62310,1,8,2:0:0:0:
448,192,62310,1,0,0:0:0:0:
192,192,62429,1,8,2:0:0:0:
64,192,62548,1,8,2:0:0:0:
448,192,62548,1,0,0:0:0:0:
320,192,62667,1,8,2:0:0:0:
64,192,62787,1,8,2:0:0:0:
192,192,62787,1,0,0:0:0:0:
320,192,62906,1,8,2:0:0:0:
448,192,63025,1,8,2:0:0:0:
64,192,63144,1,8,2:0:0:0:
192,192,63263,1,8,2:0:0:0:
320,192,63263,1,0,0:0:0:0:
448,192,63382,1,8,2:0:0:0:
320,192,63501,1,8,2:0:0:0:
192,192,63620,1,8,2:0:0:0:
64,192,63739,1,8,2:0:0:0:
448,192,63739,1,0,0:0:0:0:
320,192,63858,1,8,2:0:0:0:
192,192,63977,1,8,2:0:0:0:
448,192,64096,1,8,2:0:0:0:
192,192,64215,1,8,2:0:0:0:
320,192,64215,1,0,0:0:0:0:
64,192,64334,1,8,2:0:0:0:
192,192,64453,1,8,2:0:0:0:
448,192,64453,1,0,0:0:0:0:
320,192,64572,1,8,2:0:0:0:
64,192,64691,1,8,2:0:0:0:
192,192,64691,1,0,0:0:0:0:
448,192,64810,1,8,2:0:0:0:
320,192,64929,1,8,2:0:0:0:
192,192,65048,1,8,2:0:0:0:
64,192,65167,1,8,2:0:0:0:
448,192,65167,1,0,0:0:0:0:
64,192,65287,1,8,2:0:0:0:
192,192,65406,1,8,2:0:0:0:
320,192,65525,1,8,2:0:0:0:
64,192,65644,1,8,2:0:0:0:
448,192,65644,1,0,0:0:0:0:
448,192,65763,1,8,2:0:0:0:
320,192,65882,1,8,2:0:0:0:
192,192,66001,1,8,2:0:0:0:
64,192,66120,1,8,2:0:0:0:
448,192,66120,1,0,0:0:0:0:
64,192,66239,1,8,2:0:0:0:
192,192,66358,1,8,2:0:0:0:
320,192,66477,1,8,2:0:0:0:
64,192,66596,1,8,2:0:0:0:
448,192,66596,1,0,0:0:0:0:
448,192,66715,1,8,2:0:0:0:
64,192,67787,1,2,0:0:0:0:
192,192,67787,1,0,0:0:0:0:
448,192,68025,1,8,0:0:0:0:
64,192,68263,1,8,0:0:0:0:
192,192,68322,1,0,0:0:0:0:
320,192,68382,1,0,0:0:0:0:
448,192,68441,1,0,0:0:0:0:
64,192,68501,1,2,0:0:0:0:
192,192,68560,1,0,0:0:0:0:
320,192,68620,1,0,0:0:0:0:
448,192,68679,1,0,0:0:0:0:
64,192,68739,1,4,0:0:0:0:
192,192,68739,1,2,0:0:0:0:
448,192,69096,1,0,0:0:0:0:
64,192,69215,1,8,0:0:0:0:
448,192,69215,1,2,0:0:0:0:
64,192,69453,1,0,0:0:0:0:
448,192,69453,1,0,0:0:0:0:
64,192,69691,1,2,0:0:0:0:
320,192,69691,1,0,0:0:0:0:
192,192,69810,1,0,0:0:0:0:
64,192,69929,1,0,0:0:0:0:
320,192,69929,1,0,0:0:0:0:
64,192,70167,1,8,0:0:0:0:
192,192,70167,1,2,0:0:0:0:
448,192,70167,1,0,0:0:0:0:
192,192,70406,1,0,0:0:0:0:
320,192,70406,1,0,0:0:0:0:
64,192,70644,1,2,0:0:0:0:
320,192,70644,1,0,0:0:0:0:
448,192,70644,1,0,0:0:0:0:
64,192,71001,1,0,0:0:0:0:
448,192,71001,1,0,0:0:0:0:
320,192,71120,1,8,0:0:0:0:
448,192,71120,1,2,0:0:0:0:
192,192,71358,1,0,0:0:0:0:
320,192,71596,1,2,0:0:0:0:
448,192,71596,1,0,0:0:0:0:
192,192,71715,1,0,0:0:0:0:
64,192,71834,1,0,0:0:0:0:
320,192,71834,1,0,0:0:0:0:
192,192,72072,1,8,0:0:0:0:
448,192,72072,1,2,0:0:0:0:
64,192,72310,1,0,0:0:0:0:
320,192,72310,1,0,0:0:0:0:
320,192,72548,1,2,0:0:0:0:
448,192,72548,1,0,0:0:0:0:
64,192,72787,1,0,0:0:0:0:
448,192,72906,1,0,0:0:0:0:
64,192,73025,1,8,0:0:0:0:
448,192,73025,1,2,0:0:0:0:
64,192,73263,1,0,0:0:0:0:
448,192,73263,1,0,0:0:0:0:
192,192,73501,1,2,0:0:0:0:
448,192,73501,1,0,0:0:0:0:
320,192,73620,1,0,0:0:0:0:
192,192,73739,1,0,0:0:0:0:
448,192,73739,1,0,0:0:0:0:
64,192,73977,1,8,0:0:0:0:
320,192,73977,1,2,0:0:0:0:
448,192,73977,1,0,0:0:0:0:
64,192,74215,1,0,0:0:0:0:
320,192,74215,1,0,0:0:0:0:
448,192,74215,1,0,0:0:0:0:
192,192,74453,1,2,0:0:0:0:
320,192,74453,1,0,0:0:0:0:
448,192,74691,1,0,0:0:0:0:
64,192,74810,1,0,0:0:0:0:
192,192,74870,1,0,0:0:0:0:
320,192,74929,1,8,0:0:0:0:
448,192,74929,1,2,0:0:0:0:
320,192,75167,1,0,0:0:0:0:
64,192,75406,1,2,0:0:0:0:
448,192,75406,1,0,0:0:0:0:
320,192,75525,1,0,0:0:0:0:
64,192,75644,1,0,0:0:0:0:
192,192,75644,1,0,0:0:0:0:
448,192,75882,1,8,0:0:0:0:
320,192,75882,1,2,0:0:0:0:
320,192,76120,1,0,0:0:0:0:
64,192,76120,1,0,0:0:0:0:
192,192,76358,1,2,0:0:0:0:
448,192,76358,1,0,0:0:0:0:
448,192,76596,1,0,0:0:0:0:
192,192,76715,1,0,0:0:0:0:
64,192,76834,1,8,0:0:0:0:
192,192,76834,1,2,0:0:0:0:
64,192,77072,1,0,0:0:0:0:
192,192,77072,1,0,0:0:0:0:
64,192,77310,1,2,0:0:0:0:
320,192,77310,1,0,0:0:0:0:
192,192,77429,1,0,0:0:0:0:
64,192,77548,1,0,0:0:0:0:
320,192,77548,1,0,0:0:0:0:
64,192,77787,1,8,0:0:0:0:
192,192,77787,1,2,0:0:0:0:
448,192,77787,1,0,0:0:0:0:
192,192,78025,1,0,0:0:0:0:
320,192,78025,1,0,0:0:0:0:
64,192,78263,1,2,0:0:0:0:
320,192,78263,1,0,0:0:0:0:
448,192,78263,1,0,0:0:0:0:
64,192,78620,1,0,0:0:0:0:
448,192,78620,1,0,0:0:0:0:
64,192,78739,1,8,0:0:0:0:
320,192,78739,1,2,0:0:0:0:
192,192,78977,1,0,0:0:0:0:
448,192,78977,1,0,0:0:0:0:
64,192,79215,1,2,0:0:0:0:
448,192,79215,1,0,0:0:0:0:
320,192,79334,1,0,0:0:0:0:
64,192,79453,1,0,0:0:0:0:
192,192,79453,1,0,0:0:0:0:
64,192,79691,1,8,0:0:0:0:
320,192,79691,1,2,0:0:0:0:
192,192,79929,1,0,0:0:0:0:
448,192,79929,1,2,0:0:0:0:
64,192,80167,1,2,0:0:0:0:
448,192,80167,1,0,0:0:0:0:
320,192,80167,1,0,0:0:0:0:
320,192,80406,1,0,0:0:0:0:
192,192,80525,1,0,0:0:0:0:
448,192,80525,1,0,0:0:0:0:
64,192,80525,1,8,0:0:0:0:
64,192,80882,1,0,0:0:0:0:
320,192,80882,1,0,0:0:0:0:
448,192,80882,1,0,0:0:0:0:
192,192,81120,1,2,0:0:0:0:
192,192,81358,1,0,0:0:0:0:
448,192,81596,1,8,0:0:0:0:
320,192,81596,1,2,0:0:0:0:
448,192,81834,1,0,0:0:0:0:
64,192,82072,1,2,0:0:0:0:
192,192,82072,1,0,0:0:0:0:
320,192,82072,1,0,0:0:0:0:
64,192,82429,1,0,0:0:0:0:
192,192,82429,1,0,0:0:0:0:
320,192,82429,1,0,0:0:0:0:
448,192,82548,1,10,0:0:0:0:
64,192,82787,1,0,0:0:0:0:
192,192,82787,1,0,0:0:0:0:
448,192,82787,1,0,0:0:0:0:
320,192,83144,1,0,0:0:0:0:
448,192,83144,1,0,0:0:0:0:
192,192,83144,1,0,0:0:0:0:
64,192,83501,1,8,0:0:0:0:
320,192,83501,1,2,0:0:0:0:
448,192,83501,1,0,0:0:0:0:
320,192,83977,1,4,0:0:0:0:
448,192,83977,1,2,0:0:0:0:
192,192,84037,1,0,0:0:0:0:
64,192,84096,1,0,0:0:0:0:
448,192,84156,1,0,0:0:0:0:
320,192,84215,1,0,0:0:0:0:
64,192,84453,1,8,0:0:0:0:
320,192,84453,1,2,0:0:0:0:
64,192,84691,1,0,0:0:0:0:
320,192,84691,1,0,0:0:0:0:
64,192,84929,1,2,0:0:0:0:
192,192,84929,1,0,0:0:0:0:
192,192,85167,1,0,0:0:0:0:
64,192,85167,1,0,0:0:0:0:
448,192,85406,1,8,0:0:0:0:
320,192,85406,1,2,0:0:0:0:
192,192,85644,1,0,0:0:0:0:
64,192,85644,1,0,0:0:0:0:
64,192,85882,1,2,0:0:0:0:
448,192,85882,128,0,86358:0:0:0:0:
320,192,85882,1,0,0:0:0:0:
192,192,86120,1,0,0:0:0:0:
320,192,86239,1,0,0:0:0:0:
64,192,86358,1,10,0:0:0:0:
320,192,86596,1,0,0:0:0:0:
448,192,86596,1,0,0:0:0:0:
320,192,86834,1,2,0:0:0:0:
448,192,86834,1,0,0:0:0:0:
192,192,87072,1,0,0:0:0:0:
64,192,87310,1,8,0:0:0:0:
320,192,87310,1,2,0:0:0:0:
192,192,87548,1,0,0:0:0:0:
320,192,87787,1,2,0:0:0:0:
448,192,87787,1,0,0:0:0:0:
64,192,88025,1,0,0:0:0:0:
192,192,88025,1,0,0:0:0:0:
448,192,88144,1,0,0:0:0:0:
64,192,88263,1,8,0:0:0:0:
192,192,88263,1,2,0:0:0:0:
64,192,88501,1,0,0:0:0:0:
192,192,88501,1,0,0:0:0:0:
320,192,88739,1,2,0:0:0:0:
448,192,88739,1,0,0:0:0:0:
320,192,88977,1,0,0:0:0:0:
448,192,88977,1,0,0:0:0:0:
64,192,89215,1,8,0:0:0:0:
448,192,89215,1,2,0:0:0:0:
192,192,89453,1,0,0:0:0:0:
320,192,89453,1,0,0:0:0:0:
64,192,89691,1,2,0:0:0:0:
448,192,89691,128,0,89929:0:0:0:0:
64,192,89929,1,0,0:0:0:0:
192,192,89929,1,0,0:0:0:0:
320,192,89929,1,0,0:0:0:0:
192,192,90167,1,8,0:0:0:0:
64,192,90167,1,2,0:0:0:0:
448,192,90167,1,0,0:0:0:0:
64,192,90406,1,0,0:0:0:0:
192,192,90406,1,0,0:0:0:0:
320,192,90406,1,0,0:0:0:0:
64,192,90644,1,2,0:0:0:0:
320,192,90644,1,0,0:0:0:0:
448,192,90644,1,0,0:0:0:0:
320,192,91001,1,8,0:0:0:0:
448,192,91001,1,0,0:0:0:0:
64,192,91120,1,8,0:0:0:0:
192,192,91120,1,2,0:0:0:0:
448,192,91358,1,0,0:0:0:0:
64,192,91417,1,0,0:0:0:0:
192,192,91477,1,0,0:0:0:0:
320,192,91537,1,0,0:0:0:0:
64,192,91596,1,4,0:0:0:0:
448,192,91596,1,2,0:0:0:0:
320,192,91715,1,0,0:0:0:0:
192,192,91834,1,0,0:0:0:0:
64,192,92072,1,8,0:0:0:0:
192,192,92072,1,2,0:0:0:0:
192,192,92310,1,0,0:0:0:0:
64,192,92310,1,0,0:0:0:0:
64,192,92548,1,2,0:0:0:0:
448,192,92548,1,0,0:0:0:0:
64,192,92787,1,0,0:0:0:0:
448,192,92787,1,0,0:0:0:0:
448,192,93025,1,8,0:0:0:0:
320,192,93025,1,2,0:0:0:0:
192,192,93263,1,0,0:0:0:0:
64,192,93263,1,0,0:0:0:0:
320,192,93501,1,2,0:0:0:0:
448,192,93501,128,0,93977:0:0:0:0:
64,192,93501,1,0,0:0:0:0:
192,192,93739,1,0,0:0:0:0:
320,192,93858,1,0,0:0:0:0:
64,192,93977,1,10,0:0:0:0:
64,192,94215,1,0,0:0:0:0:
192,192,94215,1,0,0:0:0:0:
320,192,94453,1,2,0:0:0:0:
448,192,94453,1,0,0:0:0:0:
64,192,94691,1,0,0:0:0:0:
192,192,94691,1,0,0:0:0:0:
192,192,94929,1,8,0:0:0:0:
320,192,94929,1,2,0:0:0:0:
64,192,95167,1,0,0:0:0:0:
448,192,95167,1,0,0:0:0:0:
192,192,95406,1,2,0:0:0:0:
320,192,95406,1,0,0:0:0:0:
64,192,95763,1,0,0:0:0:0:
448,192,95763,1,0,0:0:0:0:
192,192,95882,1,8,0:0:0:0:
320,192,95882,1,2,0:0:0:0:
64,192,96358,1,2,0:0:0:0:
448,192,96358,1,0,0:0:0:0:
320,192,96596,1,0,0:0:0:0:
448,192,96596,1,0,0:0:0:0:
64,192,96834,1,8,0:0:0:0:
192,192,96834,1,2,0:0:0:0:
320,192,97072,1,0,0:0:0:0:
448,192,97072,1,0,0:0:0:0:
192,192,97310,1,2,0:0:0:0:
320,192,97310,1,0,0:0:0:0:
64,192,97667,1,0,0:0:0:0:
448,192,97667,1,0,0:0:0:0:
192,192,97787,1,8,0:0:0:0:
320,192,97787,1,2,0:0:0:0:
64,192,98025,1,0,0:0:0:0:
448,192,98025,1,0,0:0:0:0:
192,192,98263,1,2,0:0:0:0:
320,192,98263,1,0,0:0:0:0:
64,192,98382,1,0,0:0:0:0:
448,192,98382,1,0,0:0:0:0:
64,192,98739,1,8,0:0:0:0:
192,192,98739,1,2,0:0:0:0:
448,192,98739,1,0,0:0:0:0:
320,192,98977,1,2,0:0:0:0:
64,192,99215,1,10,0:0:0:70:
192,192,99215,1,0,0:0:0:20:drum-hitnormal.wav
320,192,99691,1,0,0:0:0:0:
320,192,99929,1,0,0:0:0:0:
64,192,100167,1,8,1:0:0:70:
448,192,100167,1,0,0:0:0:0:
64,192,100644,1,10,0:0:0:70:
448,192,100644,1,0,0:0:0:20:drum-hitnormal.wav
192,192,100703,1,0,0:0:0:0:
320,192,100763,1,0,0:0:0:0:
64,192,100822,1,0,0:0:0:0:
192,192,100882,1,0,0:0:0:0:
448,192,101120,1,0,0:0:0:0:
320,192,101179,1,0,0:0:0:0:
192,192,101239,1,0,0:0:0:0:
448,192,101298,1,0,0:0:0:0:
320,192,101358,1,0,0:0:0:0:
64,192,101596,1,10,0:0:0:70:
448,192,101596,1,0,0:0:0:20:drum-hitnormal.wav
192,192,101834,1,0,0:0:0:0:
64,192,102072,1,8,1:0:0:70:
320,192,102072,1,0,0:0:0:0:
448,192,102072,1,0,0:0:0:0:
192,192,102310,1,10,0:0:0:70:
320,192,102310,1,0,0:0:0:20:drum-hitnormal.wav
64,192,102548,1,10,0:0:0:70:
448,192,102548,1,0,0:0:0:20:drum-hitnormal.wav
320,192,102667,1,0,0:0:0:0:
192,192,102787,1,0,0:0:0:0:
64,192,103025,1,8,0:0:0:70:
320,192,103025,1,2,0:0:0:70:
448,192,103025,1,0,0:0:0:20:drum-hitnormal.wav
64,192,103263,1,10,0:0:0:70:
448,192,103263,1,0,0:0:0:20:drum-hitnormal.wav
64,192,103739,1,10,0:0:0:70:
448,192,103739,1,0,0:0:0:20:drum-hitnormal.wav
64,192,103977,1,8,1:0:0:70:
320,192,103977,1,0,0:0:0:0:
448,192,103977,1,0,0:0:0:0:
64,192,104453,1,10,0:0:0:70:
448,192,104453,1,0,0:0:0:20:drum-hitnormal.wav
192,192,104691,1,0,0:0:0:0:
320,192,104751,1,0,0:0:0:0:
64,192,104810,1,0,0:0:0:0:
192,192,104870,1,0,0:0:0:0:
320,192,104929,1,0,0:0:0:0:
192,192,105167,1,0,0:0:0:0:
64,192,105406,1,10,0:0:0:70:
448,192,105406,1,0,0:0:0:20:drum-hitnormal.wav
320,192,105525,1,0,0:0:0:0:
192,192,105644,1,0,0:0:0:0:
64,192,105882,1,8,1:0:0:70:
320,192,105882,1,0,0:0:0:0:
448,192,105882,1,0,0:0:0:0:
192,192,106120,1,10,0:0:0:70:
320,192,106239,1,0,0:0:0:0:
192,192,106298,1,0,0:0:0:0:
64,192,106358,1,0,0:0:0:0:
448,192,106477,1,0,0:0:0:0:
320,192,106537,1,0,0:0:0:0:
192,192,106596,1,0,0:0:0:0:
64,192,106834,1,8,0:0:0:70:
192,192,106834,1,2,0:0:0:70:
320,192,106834,1,4,1:0:0:70:
64,192,107072,1,0,0:0:0:0:
192,192,107310,1,0,0:0:0:0:
448,192,107310,1,0,0:0:0:0:
448,192,107548,1,0,0:0:0:0:
64,192,107787,1,8,1:0:0:70:
320,192,107787,1,0,0:0:0:0:
448,192,107787,1,0,0:0:0:0:
64,192,108263,1,10,3:0:0:70:
448,192,108263,1,0,0:0:0:20:drum-hitnormal.wav
320,192,108322,1,0,0:0:0:0:
192,192,108382,1,0,0:0:0:0:
448,192,108441,1,0,0:0:0:0:
320,192,108501,1,0,0:0:0:0:
448,192,108739,1,2,1:0:0:70:
64,192,108798,1,0,0:0:0:0:
192,192,108858,1,0,0:0:0:0:
320,192,108917,1,0,0:0:0:0:
448,192,108977,1,2,1:0:0:70:
64,192,109215,1,10,0:0:0:70:
448,192,109215,1,2,1:0:0:70:
448,192,109453,1,2,1:0:0:70:
64,192,109691,1,8,1:0:0:70:
320,192,109691,1,2,1:0:0:70:
448,192,109691,1,0,0:0:0:0:
192,192,109929,1,10,0:0:0:70:
320,192,109929,1,0,0:0:0:20:drum-hitnormal.wav
320,192,110167,1,10,0:0:0:70:
448,192,110167,1,0,0:0:0:20:drum-hitnormal.wav
192,192,110287,1,0,0:0:0:0:
64,192,110406,1,0,0:0:0:0:
64,192,110644,1,8,0:0:0:70:
320,192,110644,1,2,0:0:0:70:
448,192,110644,1,0,0:0:0:20:drum-hitnormal.wav
320,192,110882,1,10,0:0:0:70:
448,192,110882,1,0,0:0:0:20:drum-hitnormal.wav
320,192,111358,1,10,0:0:0:70:
448,192,111358,1,0,0:0:0:20:drum-hitnormal.wav
64,192,111596,1,8,1:0:0:70:
320,192,111596,1,0,0:0:0:0:
448,192,111596,1,0,0:0:0:0:
192,192,112072,1,8,1:0:0:70:
448,192,112072,1,0,0:0:0:20:drum-hitnormal.wav
320,192,112310,1,0,0:0:0:0:
448,192,112370,1,0,0:0:0:0:
64,192,112429,1,0,0:0:0:0:
192,192,112489,1,0,0:0:0:0:
320,192,112548,1,8,1:0:0:70:
448,192,112548,1,0,0:0:0:20:drum-hitnormal.wav
64,192,113025,1,8,1:0:0:70:
448,192,113025,1,0,0:0:0:20:drum-hitnormal.wav
320,192,113263,1,8,1:0:0:70:
448,192,113263,1,0,0:0:0:0:
64,192,113382,1,8,1:0:0:70:
192,192,113382,1,0,0:0:0:0:
320,192,113501,1,8,1:0:0:70:
448,192,113501,1,0,0:0:0:20:drum-hitnormal.wav
64,192,113739,1,10,0:0:0:70:
192,192,113739,1,0,0:0:0:20:drum-hitnormal.wav
64,192,114453,1,4,0:0:0:0:
320,192,114453,1,2,0:0:0:0:
448,192,114453,1,0,0:0:0:0:
320,192,114691,1,0,0:0:0:0:
192,192,114810,1,0,0:0:0:0:
64,192,114929,1,2,0:0:0:0:
448,192,114929,1,0,0:0:0:0:
320,192,115167,1,0,0:0:0:0:
64,192,115406,1,2,0:0:0:0:
192,192,115406,1,0,0:0:0:0:
192,192,115644,1,0,0:0:0:0:
320,192,115644,1,0,0:0:0:0:
320,192,115882,1,2,0:0:0:0:
448,192,115882,1,0,0:0:0:0:
192,192,116120,1,0,0:0:0:0:
320,192,116120,1,0,0:0:0:0:
64,192,116358,1,2,0:0:0:0:
192,192,116358,1,0,0:0:0:0:
320,192,116596,1,0,0:0:0:0:
448,192,116715,1,0,0:0:0:0:
64,192,116834,1,2,0:0:0:0:
192,192,116834,1,0,0:0:0:0:
320,192,117072,1,0,0:0:0:0:
192,192,117310,1,2,0:0:0:0:
448,192,117310,1,0,0:0:0:0:
64,192,117548,1,0,0:0:0:0:
448,192,117548,1,0,0:0:0:0:
192,192,117787,1,2,0:0:0:0:
320,192,117787,1,0,0:0:0:0:
320,192,118025,1,0,0:0:0:0:
448,192,118025,1,0,0:0:0:0:
64,192,118263,1,2,0:0:0:0:
320,192,118263,1,0,0:0:0:0:
448,192,118501,1,0,0:0:0:0:
192,192,118620,1,0,0:0:0:0:
64,192,118739,1,2,0:0:0:0:
320,192,118739,1,0,0:0:0:0:
448,192,118977,1,0,0:0:0:0:
64,192,119215,1,2,0:0:0:0:
320,192,119215,1,0,0:0:0:0:
64,192,119453,1,0,0:0:0:0:
320,192,119453,1,0,0:0:0:0:
64,192,119691,1,2,0:0:0:0:
448,192,119691,1,0,0:0:0:0:
192,192,119929,1,0,0:0:0:0:
320,192,119929,1,0,0:0:0:0:
64,192,120167,1,2,0:0:0:0:
192,192,120167,1,0,0:0:0:0:
320,192,120287,1,0,0:0:0:0:
448,192,120287,1,0,0:0:0:0:
64,192,120644,1,2,0:0:0:0:
320,192,120644,1,0,0:0:0:0:
192,192,120763,1,0,0:0:0:0:
448,192,120763,1,0,0:0:0:0:
64,192,121120,1,2,0:0:0:0:
448,192,121120,1,0,0:0:0:0:
192,192,121239,1,0,0:0:0:0:
320,192,121239,1,0,0:0:0:0:
64,192,121596,1,8,0:0:0:0:
192,192,121596,1,2,0:0:0:0:
320,192,121596,1,0,0:0:0:0:
448,192,121596,1,0,0:0:0:0:
64,192,122072,128,4,122310:0:0:0:0:
320,192,122072,1,2,0:0:0:0:
448,192,122072,1,0,0:0:0:0:
192,192,122310,1,0,0:0:0:0:
320,192,122548,128,2,122787:0:0:0:0:
448,192,122548,1,0,0:0:0:0:
192,192,122787,1,0,0:0:0:0:
64,192,123025,128,2,123263:0:0:0:0:
448,192,123025,1,0,0:0:0:0:
192,192,123263,1,0,0:0:0:0:
320,192,123501,1,2,0:0:0:0:
448,192,123501,1,0,0:0:0:0:
64,192,123739,1,0,0:0:0:0:
192,192,123739,1,0,0:0:0:0:
64,192,123977,1,2,0:0:0:0:
448,192,123977,1,0,0:0:0:0:
192,192,124215,1,0,0:0:0:0:
320,192,124215,1,0,0:0:0:0:
64,192,124453,1,2,0:0:0:0:
448,192,124453,1,0,0:0:0:0:
448,192,124691,1,0,0:0:0:0:
64,192,124810,1,0,0:0:0:0:
192,192,124810,1,0,0:0:0:0:
448,192,125167,128,0,125644:0:0:0:0:
320,192,125406,1,2,0:0:0:0:
64,192,125644,1,0,0:0:0:0:
192,192,125644,1,0,0:0:0:0:
320,192,125882,1,2,0:0:0:0:
448,192,125882,1,0,0:0:0:0:
320,192,126120,1,0,0:0:0:0:
448,192,126120,1,0,0:0:0:0:
320,192,126358,1,2,0:0:0:0:
448,192,126358,1,0,0:0:0:0:
320,192,126596,1,0,0:0:0:0:
448,192,126596,1,0,0:0:0:0:
64,192,126834,1,2,0:0:0:0:
192,192,126834,1,0,0:0:0:0:
64,192,127072,1,0,0:0:0:0:
192,192,127072,1,0,0:0:0:0:
64,192,127310,1,2,0:0:0:0:
192,192,127310,1,0,0:0:0:0:
64,192,127548,1,0,0:0:0:0:
192,192,127548,1,0,0:0:0:0:
64,192,127787,1,2,0:0:0:0:
448,192,127787,1,0,0:0:0:0:
64,192,128025,1,0,0:0:0:0:
448,192,128025,1,0,0:0:0:0:
192,192,128263,1,2,0:0:0:0:
320,192,128263,1,0,0:0:0:0:
192,192,128501,1,0,0:0:0:0:
320,192,128501,1,0,0:0:0:0:
64,192,128739,1,2,0:0:0:0:
448,192,128739,1,0,0:0:0:0:
320,192,128977,1,0,0:0:0:0:
64,192,129215,1,8,0:0:0:0:
192,192,129215,1,0,0:0:0:0:
448,192,129215,1,0,0:0:0:0:
64,192,129691,1,4,0:0:0:0:
320,192,129691,1,8,2:0:0:0:
448,192,129691,1,0,0:0:0:0:
64,192,129929,1,8,2:0:0:0:
192,192,129929,1,0,0:0:0:0:
64,192,130167,1,8,2:0:0:0:
64,192,130406,1,8,2:0:0:0:
192,192,130406,1,0,0:0:0:0:
64,192,130644,1,8,2:0:0:0:
448,192,130644,1,0,0:0:0:0:
320,192,130763,1,0,0:0:0:0:
64,192,130882,1,8,2:0:0:0:
192,192,130882,1,0,0:0:0:0:
64,192,131120,1,8,2:0:0:0:
64,192,131358,1,8,2:0:0:0:
192,192,131358,1,0,0:0:0:0:
448,192,131596,1,8,2:0:0:0:
320,192,131834,1,8,2:0:0:0:
448,192,131834,1,0,0:0:0:0:
448,192,132072,1,8,2:0:0:0:
320,192,132310,1,8,2:0:0:0:
448,192,132310,1,0,0:0:0:0:
64,192,132548,1,8,2:0:0:0:
448,192,132548,1,0,0:0:0:0:
192,192,132667,1,0,0:0:0:0:
320,192,132787,1,8,2:0:0:0:
448,192,132787,1,0,0:0:0:0:
448,192,133025,1,8,2:0:0:0:
320,192,133263,1,8,2:0:0:0:
448,192,133263,1,0,0:0:0:0:
192,192,133382,1,8,2:0:0:0:
64,192,133501,1,8,2:0:0:0:
448,192,133501,1,0,0:0:0:0:
64,192,133739,1,8,2:0:0:0:
320,192,133739,1,0,0:0:0:0:
64,192,133977,1,8,2:0:0:0:
192,192,133977,1,0,0:0:0:0:
64,192,134215,1,8,2:0:0:0:
320,192,134215,1,0,0:0:0:0:
64,192,134453,1,8,2:0:0:0:
448,192,134453,1,0,0:0:0:0:
64,192,134691,1,8,2:0:0:0:
192,192,134691,1,0,0:0:0:0:
64,192,134929,1,8,2:0:0:0:
320,192,134929,1,0,0:0:0:0:
64,192,135167,1,8,2:0:0:0:
448,192,135167,1,0,0:0:0:0:
64,192,135406,1,8,2:0:0:0:
320,192,135644,1,8,2:0:0:0:
448,192,135644,1,0,0:0:0:0:
64,192,135882,1,8,2:0:0:0:
448,192,135882,1,0,0:0:0:0:
192,192,136120,1,8,2:0:0:0:
448,192,136120,1,0,0:0:0:0:
64,192,136358,1,8,2:0:0:0:
448,192,136358,1,0,0:0:0:0:
192,192,136596,1,8,2:0:0:0:
448,192,136596,1,0,0:0:0:0:
320,192,136834,1,8,2:0:0:0:
448,192,136834,1,0,0:0:0:0:
192,192,137072,1,8,2:0:0:0:
448,192,137072,1,0,0:0:0:0:
64,192,137191,1,8,2:0:0:0:
320,192,137310,1,8,2:0:0:0:
448,192,137310,1,0,0:0:0:0:
192,192,137429,1,8,2:0:0:0:
448,192,137548,1,8,2:0:0:0:
320,192,137667,1,8,2:0:0:0:
64,192,137787,1,8,2:0:0:0:
192,192,137787,1,0,0:0:0:0:
448,192,137906,1,8,2:0:0:0:
320,192,138025,1,8,2:0:0:0:
192,192,138144,1,8,2:0:0:0:
320,192,138263,1,8,2:0:0:0:
448,192,138263,1,0,0:0:0:0:
64,192,138382,1,8,2:0:0:0:
192,192,138382,1,0,0:0:0:0:
448,192,138501,1,8,2:0:0:0:
320,192,138620,1,8,2:0:0:0:
64,192,138739,1,8,2:0:0:0:
192,192,138739,1,0,0:0:0:0:
320,192,138858,1,8,2:0:0:0:
448,192,138977,1,8,2:0:0:0:
64,192,139096,1,8,2:0:0:0:
192,192,139215,1,8,2:0:0:0:
448,192,139215,1,0,0:0:0:0:
320,192,139334,1,8,2:0:0:0:
64,192,139453,1,8,2:0:0:0:
192,192,139572,1,8,2:0:0:0:
320,192,139691,1,8,2:0:0:0:
448,192,139691,1,0,0:0:0:0:
192,192,139810,1,8,2:0:0:0:
64,192,139929,1,8,2:0:0:0:
320,192,140048,1,8,2:0:0:0:
192,192,140167,1,8,2:0:0:0:
448,192,140167,1,0,0:0:0:0:
64,192,140287,1,8,2:0:0:0:
320,192,140287,1,0,0:0:0:0:
192,192,140406,1,8,2:0:0:0:
64,192,140525,1,8,2:0:0:0:
448,192,140644,1,8,2:0:0:0:
320,192,140763,1,8,2:0:0:0:
64,192,140882,1,8,2:0:0:0:
192,192,140882,1,0,0:0:0:0:
320,192,141001,1,8,2:0:0:0:
448,192,141001,1,0,0:0:0:0:
64,192,141120,1,8,2:0:0:0:
192,192,141120,1,0,0:0:0:0:
192,192,141239,1,8,2:0:0:0:
320,192,141358,1,8,2:0:0:0:
448,192,141358,1,0,0:0:0:0:
448,192,141477,1,8,2:0:0:0:
64,192,141596,1,8,2:0:0:0:
192,192,141596,1,0,0:0:0:0:
64,192,141715,1,8,2:0:0:0:
320,192,141834,1,8,2:0:0:0:
448,192,141834,1,0,0:0:0:0:
320,192,141953,1,8,2:0:0:0:
64,192,142072,1,8,2:0:0:0:
192,192,142072,1,0,0:0:0:0:
192,192,142191,1,8,2:0:0:0:
320,192,142310,1,8,2:0:0:0:
448,192,142310,1,0,0:0:0:0:
448,192,142429,1,8,2:0:0:0:
64,192,142548,1,8,2:0:0:0:
192,192,142548,1,0,0:0:0:0:
64,192,142667,1,8,2:0:0:0:
320,192,142787,1,8,2:0:0:0:
448,192,142787,1,0,0:0:0:0:
64,192,142906,1,8,2:0:0:0:
448,192,143144,1,2,2:0:0:0:
64,192,143263,1,2,2:0:0:0:
320,192,143501,1,2,2:0:0:0:
64,192,143620,1,2,2:0:0:0:
192,192,143858,1,2,2:0:0:0:
64,192,143977,1,2,2:0:0:0:
192,192,144215,1,8,0:0:0:0:
64,192,144334,1,8,0:0:0:0:
320,192,144334,1,0,0:0:0:0:
192,192,144453,1,8,0:0:0:0:
448,192,144453,1,0,0:0:0:0:
64,192,144691,1,2,0:0:0:0:
320,192,144929,1,4,0:0:0:0:
448,192,144929,1,2,0:0:0:0:
192,192,144929,1,0,0:0:0:0:
448,192,145167,1,0,0:0:0:0:
64,192,145287,1,0,0:0:0:0:
64,192,145406,1,8,0:0:0:0:
192,192,145406,1,2,0:0:0:0:
64,192,145644,1,0,0:0:0:0:
448,192,145644,1,0,0:0:0:0:
192,192,145882,1,2,0:0:0:0:
448,192,145882,1,0,0:0:0:0:
320,192,146001,1,0,0:0:0:0:
192,192,146120,1,0,0:0:0:0:
448,192,146120,1,0,0:0:0:0:
64,192,146358,1,8,0:0:0:0:
320,192,146358,1,2,0:0:0:0:
448,192,146358,1,0,0:0:0:0:
192,192,146596,1,0,0:0:0:0:
320,192,146596,1,0,0:0:0:0:
64,192,146834,1,2,0:0:0:0:
192,192,146834,1,0,0:0:0:0:
448,192,146834,1,0,0:0:0:0:
64,192,147191,1,0,0:0:0:0:
448,192,147191,1,0,0:0:0:0:
320,192,147191,1,0,0:0:0:0:
64,192,147310,1,8,0:0:0:0:
192,192,147310,1,2,0:0:0:0:
320,192,147548,1,0,0:0:0:0:
64,192,147787,1,2,0:0:0:0:
192,192,147787,1,0,0:0:0:0:
320,192,147906,1,0,0:0:0:0:
192,192,148025,1,0,0:0:0:0:
448,192,148025,1,0,0:0:0:0:
64,192,148263,1,8,0:0:0:0:
320,192,148263,1,2,0:0:0:0:
192,192,148501,1,0,0:0:0:0:
448,192,148501,1,0,0:0:0:0:
64,192,148739,1,2,0:0:0:0:
448,192,148739,1,0,0:0:0:0:
448,192,148977,1,0,0:0:0:0:
64,192,149096,1,0,0:0:0:0:
64,192,149215,1,8,0:0:0:0:
192,192,149215,1,2,0:0:0:0:
64,192,149453,1,0,0:0:0:0:
448,192,149453,1,0,0:0:0:0:
64,192,149691,1,2,0:0:0:0:
320,192,149691,1,0,0:0:0:0:
192,192,149810,1,0,0:0:0:0:
64,192,149929,1,0,0:0:0:0:
320,192,149929,1,0,0:0:0:0:
64,192,150167,1,8,0:0:0:0:
192,192,150167,1,2,0:0:0:0:
448,192,150167,1,0,0:0:0:0:
64,192,150406,1,0,0:0:0:0:
192,192,150406,1,0,0:0:0:0:
448,192,150406,1,0,0:0:0:0:
320,192,150644,1,2,0:0:0:0:
448,192,150644,1,0,0:0:0:0:
192,192,150882,1,0,0:0:0:0:
64,192,151001,1,0,0:0:0:0:
192,192,151060,1,0,0:0:0:0:
320,192,151120,1,8,0:0:0:0:
448,192,151120,1,2,0:0:0:0:
64,192,151358,1,0,0:0:0:0:
320,192,151596,1,2,0:0:0:0:
448,192,151596,1,0,0:0:0:0:
192,192,151715,1,0,0:0:0:0:
64,192,151834,1,0,0:0:0:0:
448,192,151834,1,0,0:0:0:0:
192,192,152072,1,8,0:0:0:0:
320,192,152072,1,2,0:0:0:0:
64,192,152310,1,0,0:0:0:0:
192,192,152310,1,0,0:0:0:0:
64,192,152548,1,4,0:0:0:0:
320,192,152548,1,2,0:0:0:0:
448,192,152548,1,0,0:0:0:0:
448,192,153025,1,8,0:0:0:0:
320,192,153025,1,2,0:0:0:0:
320,192,153263,1,0,0:0:0:0:
448,192,153263,1,0,0:0:0:0:
192,192,153501,1,2,0:0:0:0:
448,192,153501,1,0,0:0:0:0:
320,192,153620,1,0,0:0:0:0:
192,192,153739,1,0,0:0:0:0:
448,192,153739,1,0,0:0:0:0:
64,192,153977,1,8,0:0:0:0:
320,192,153977,1,2,0:0:0:0:
448,192,153977,1,0,0:0:0:0:
192,192,154215,1,0,0:0:0:0:
320,192,154215,1,0,0:0:0:0:
64,192,154453,1,2,0:0:0:0:
320,192,154453,1,0,0:0:0:0:
448,192,154453,1,0,0:0:0:0:
320,192,154810,1,0,0:0:0:0:
448,192,154810,1,0,0:0:0:0:
192,192,154929,1,8,0:0:0:0:
448,192,154929,1,2,0:0:0:0:
64,192,154929,1,0,0:0:0:0:
64,192,155167,1,0,0:0:0:0:
320,192,155406,1,2,0:0:0:0:
448,192,155406,1,0,0:0:0:0:
192,192,155525,1,0,0:0:0:0:
64,192,155644,1,0,0:0:0:0:
448,192,155644,1,0,0:0:0:0:
64,192,155882,1,8,0:0:0:0:
192,192,155882,1,2,0:0:0:0:
192,192,156120,1,0,0:0:0:0:
448,192,156120,1,0,0:0:0:0:
448,192,156358,1,0,0:0:0:0:
64,192,156358,1,2,0:0:0:0:
320,192,156358,1,0,0:0:0:0:
192,192,156596,1,0,0:0:0:0:
64,192,156715,1,0,0:0:0:0:
320,192,156715,1,0,0:0:0:0:
448,192,156715,1,0,0:0:0:0:
192,192,156834,1,10,0:0:0:0:
64,192,157072,1,0,0:0:0:0:
320,192,157072,1,0,0:0:0:0:
448,192,157072,1,0,0:0:0:0:
192,192,157310,1,2,0:0:0:0:
192,192,157548,1,0,0:0:0:0:
64,192,157787,1,8,0:0:0:0:
320,192,157787,1,2,0:0:0:0:
448,192,158025,1,0,0:0:0:0:
64,192,158263,1,2,0:0:0:0:
320,192,158263,1,0,0:0:0:0:
448,192,158263,1,0,0:0:0:0:
192,192,158501,1,0,0:0:0:0:
64,192,158620,1,0,0:0:0:0:
320,192,158620,1,0,0:0:0:0:
448,192,158620,1,0,0:0:0:0:
192,192,158858,1,0,0:0:0:0:
64,192,158977,1,0,0:0:0:0:
320,192,158977,1,0,0:0:0:0:
448,192,158977,1,0,0:0:0:0:
192,192,159215,1,2,0:0:0:0:
64,192,159334,1,0,0:0:0:0:
320,192,159334,1,0,0:0:0:0:
448,192,159334,1,0,0:0:0:0:
192,192,159691,1,8,0:0:0:0:
320,192,159691,1,2,0:0:0:0:
448,192,159691,1,0,0:0:0:0:
448,192,159929,1,0,0:0:0:0:
64,192,160167,1,4,0:0:0:0:
192,192,160167,1,2,0:0:0:0:
448,192,160227,1,0,0:0:0:0:
320,192,160287,1,0,0:0:0:0:
192,192,160346,1,0,0:0:0:0:
64,192,160406,1,0,0:0:0:0:
64,192,160644,1,2,0:0:0:0:
448,192,160644,1,0,0:0:0:0:
192,192,160882,1,0,0:0:0:0:
64,192,161120,1,2,0:0:0:0:
192,192,161120,1,0,0:0:0:0:
320,192,161358,1,0,0:0:0:0:
64,192,161596,1,2,0:0:0:0:
320,192,161596,1,0,0:0:0:0:
448,192,161834,128,0,162072:0:0:0:0:
64,192,162072,1,2,0:0:0:0:
192,192,162072,1,0,0:0:0:0:
320,192,162310,1,0,0:0:0:0:
64,192,162548,1,2,0:0:0:0:
320,192,162548,1,0,0:0:0:0:
448,192,162787,128,0,163025:0:0:0:0:
64,192,163025,1,2,0:0:0:0:
192,192,163025,1,0,0:0:0:0:
320,192,163263,1,0,0:0:0:0:
64,192,163501,1,2,0:0:0:0:
320,192,163501,1,0,0:0:0:0:
192,192,163739,1,0,0:0:0:0:
64,192,163977,1,2,0:0:0:0:
192,192,163977,1,0,0:0:0:0:
192,192,164334,1,0,0:0:0:0:
320,192,164334,1,0,0:0:0:0:
64,192,164453,1,2,0:0:0:0:
448,192,164453,1,0,0:0:0:0:
64,192,164691,1,0,0:0:0:0:
192,192,164691,1,0,0:0:0:0:
448,192,164929,1,2,0:0:0:0:
192,192,165048,1,0,0:0:0:0:
320,192,165048,1,0,0:0:0:0:
64,192,165167,1,0,0:0:0:0:
192,192,165406,1,2,0:0:0:0:
320,192,165406,1,0,0:0:0:0:
448,192,165406,1,0,0:0:0:0:
64,192,165882,1,2,0:0:0:0:
448,192,165882,1,0,0:0:0:0:
192,192,166120,1,0,0:0:0:0:
320,192,166239,1,0,0:0:0:0:
448,192,166298,1,0,0:0:0:0:
64,192,166358,1,2,0:0:0:0:
192,192,166358,1,0,0:0:0:0:
320,192,166596,1,0,0:0:0:0:
448,192,166596,1,0,0:0:0:0:
64,192,166834,1,2,0:0:0:0:
192,192,166953,1,0,0:0:0:0:
320,192,166953,1,0,0:0:0:0:
64,192,167072,1,0,0:0:0:0:
64,192,167310,1,2,0:0:0:0:
320,192,167310,1,0,0:0:0:0:
448,192,167310,1,0,0:0:0:0:
192,192,167548,1,0,0:0:0:0:
320,192,167787,1,4,0:0:0:0:
448,192,167787,1,2,0:0:0:0:
192,192,167846,1,0,0:0:0:0:
64,192,167906,1,0,0:0:0:0:
320,192,167965,1,0,0:0:0:0:
192,192,168025,1,0,0:0:0:0:
64,192,168263,1,2,0:0:0:0:
448,192,168263,1,0,0:0:0:0:
192,192,168501,1,0,0:0:0:0:
64,192,168739,1,2,0:0:0:0:
192,192,168739,1,0,0:0:0:0:
320,192,168977,1,0,0:0:0:0:
64,192,169215,1,2,0:0:0:0:
320,192,169215,1,0,0:0:0:0:
448,192,169453,128,0,169691:0:0:0:0:
64,192,169691,1,2,0:0:0:0:
192,192,169691,1,0,0:0:0:0:
320,192,169929,1,0,0:0:0:0:
64,192,170167,1,2,0:0:0:0:
320,192,170167,1,0,0:0:0:0:
448,192,170406,128,0,170644:0:0:0:0:
64,192,170644,1,2,0:0:0:0:
192,192,170644,1,0,0:0:0:0:
320,192,170882,1,0,0:0:0:0:
64,192,171120,1,2,0:0:0:0:
320,192,171120,1,0,0:0:0:0:
192,192,171358,1,0,0:0:0:0:
320,192,171596,1,8,2:0:0:0:
448,192,171596,1,2,2:0:0:0:
192,192,171715,1,8,2:0:0:0:
64,192,171834,1,8,2:0:0:0:
320,192,171953,1,8,2:0:0:0:
448,192,171953,1,0,0:0:0:0:
64,192,172072,1,8,2:0:0:0:
192,192,172072,1,2,2:0:0:0:
448,192,172191,1,8,2:0:0:0:
64,192,172310,1,8,2:0:0:0:
320,192,172310,1,0,0:0:0:0:
192,192,172429,1,8,2:0:0:0:
448,192,172548,1,10,2:0:0:0:
64,192,172667,1,8,2:0:0:0:
192,192,172667,1,0,0:0:0:0:
320,192,172787,1,8,2:0:0:0:
448,192,172906,1,8,2:0:0:0:
64,192,173025,1,8,2:0:0:0:
192,192,173025,1,2,2:0:0:0:
448,192,173144,1,8,2:0:0:0:
320,192,173263,1,8,2:0:0:0:
192,192,173382,1,8,2:0:0:0:
64,192,173501,1,8,2:0:0:0:
448,192,173501,1,2,2:0:0:0:
192,192,173620,1,8,2:0:0:0:
320,192,173620,1,0,0:0:0:0:
64,192,173739,1,8,2:0:0:0:
320,192,173858,1,8,2:0:0:0:
448,192,173858,1,0,0:0:0:0:
64,192,173977,1,8,2:0:0:0:
192,192,173977,1,2,2:0:0:0:
448,192,174096,1,8,2:0:0:0:
192,192,174215,1,8,2:0:0:0:
320,192,174215,1,0,0:0:0:0:
64,192,174334,1,8,2:0:0:0:
448,192,174334,1,0,0:0:0:0:
320,192,174453,1,10,2:0:0:0:
64,192,174572,1,8,2:0:0:0:
192,192,174572,1,0,0:0:0:0:
320,192,174691,1,8,2:0:0:0:
448,192,174691,1,0,0:0:0:0:
64,192,174810,1,8,0:0:0:0:
320,192,174929,1,8,0:0:0:0:
448,192,174929,1,2,0:0:0:0:
192,192,175167,1,2,0:0:0:0:
64,192,175406,1,4,0:0:0:0:
320,192,175406,1,2,0:0:0:0:
448,192,175406,1,0,0:0:0:0:
64,192,175644,1,0,0:0:0:0:
448,192,175763,1,0,0:0:0:0:
64,192,175882,1,8,0:0:0:0:
320,192,175882,1,2,0:0:0:0:
448,192,175882,1,0,0:0:0:0:
64,192,176120,1,0,0:0:0:0:
192,192,176120,1,0,0:0:0:0:
64,192,176358,1,2,0:0:0:0:
320,192,176358,1,0,0:0:0:0:
192,192,176477,1,0,0:0:0:0:
64,192,176596,1,0,0:0:0:0:
448,192,176596,1,0,0:0:0:0:
64,192,176834,1,8,0:0:0:0:
192,192,176834,1,2,0:0:0:0:
448,192,176834,1,0,0:0:0:0:
64,192,177072,1,0,0:0:0:0:
320,192,177072,1,0,0:0:0:0:
192,192,177310,1,2,0:0:0:0:
320,192,177310,1,0,0:0:0:0:
448,192,177310,1,0,0:0:0:0:
64,192,177667,1,0,0:0:0:0:
192,192,177667,1,0,0:0:0:0:
64,192,177787,1,8,0:0:0:0:
320,192,177787,1,2,0:0:0:0:
448,192,177787,1,0,0:0:0:0:
320,192,178025,1,0,0:0:0:0:
64,192,178263,1,2,0:0:0:0:
192,192,178263,1,0,0:0:0:0:
320,192,178382,1,0,0:0:0:0:
64,192,178501,1,0,0:0:0:0:
448,192,178501,1,0,0:0:0:0:
64,192,178739,1,8,0:0:0:0:
192,192,178739,1,2,0:0:0:0:
192,192,178977,1,0,0:0:0:0:
320,192,178977,1,0,0:0:0:0:
64,192,179215,1,2,0:0:0:0:
320,192,179215,1,0,0:0:0:0:
448,192,179215,1,0,0:0:0:0:
448,192,179453,1,0,0:0:0:0:
64,192,179572,1,0,0:0:0:0:
64,192,179691,1,8,0:0:0:0:
320,192,179691,1,2,0:0:0:0:
448,192,179691,1,0,0:0:0:0:
192,192,179929,1,0,0:0:0:0:
448,192,179929,1,0,0:0:0:0:
64,192,180167,1,2,0:0:0:0:
448,192,180167,1,0,0:0:0:0:
320,192,180287,1,0,0:0:0:0:
192,192,180406,1,0,0:0:0:0:
448,192,180406,1,0,0:0:0:0:
64,192,180644,1,8,0:0:0:0:
320,192,180644,1,2,0:0:0:0:
448,192,180644,1,0,0:0:0:0:
192,192,180882,1,0,0:0:0:0:
320,192,180882,1,0,0:0:0:0:
448,192,180882,1,0,0:0:0:0:
64,192,181120,1,2,0:0:0:0:
192,192,181120,1,0,0:0:0:0:
448,192,181120,1,0,0:0:0:0:
320,192,181358,1,0,0:0:0:0:
64,192,181477,1,0,0:0:0:0:
192,192,181537,1,0,0:0:0:0:
320,192,181596,1,8,0:0:0:0:
448,192,181596,1,2,0:0:0:0:
320,192,181834,1,0,0:0:0:0:
64,192,182072,1,2,0:0:0:0:
448,192,182072,1,0,0:0:0:0:
320,192,182191,1,0,0:0:0:0:
64,192,182310,1,0,0:0:0:0:
192,192,182310,1,0,0:0:0:0:
192,192,182548,1,8,0:0:0:0:
320,192,182548,1,2,0:0:0:0:
320,192,182787,1,0,0:0:0:0:
448,192,182787,1,0,0:0:0:0:
64,192,183025,1,2,0:0:0:0:
448,192,183025,1,0,0:0:0:0:
320,192,183263,1,0,0:0:0:0:
192,192,183382,1,0,0:0:0:0:
64,192,183501,1,8,0:0:0:0:
192,192,183501,1,2,0:0:0:0:
448,192,183501,1,0,0:0:0:0:
64,192,183739,1,0,0:0:0:0:
448,192,183739,1,0,0:0:0:0:
64,192,183977,1,2,0:0:0:0:
448,192,183977,1,0,0:0:0:0:
320,192,184096,1,0,0:0:0:0:
64,192,184215,1,0,0:0:0:0:
448,192,184215,1,0,0:0:0:0:
64,192,184453,1,8,0:0:0:0:
192,192,184453,1,2,0:0:0:0:
448,192,184453,1,0,0:0:0:0:
64,192,184691,1,0,0:0:0:0:
448,192,184691,1,0,0:0:0:0:
64,192,184929,1,2,0:0:0:0:
320,192,184929,1,0,0:0:0:0:
448,192,184929,1,0,0:0:0:0:
192,192,185167,1,0,0:0:0:0:
320,192,185287,1,0,0:0:0:0:
448,192,185287,1,0,0:0:0:0:
64,192,185406,1,8,0:0:0:0:
192,192,185406,1,2,0:0:0:0:
448,192,185406,1,0,0:0:0:0:
192,192,185644,1,0,0:0:0:0:
64,192,185882,1,2,0:0:0:0:
448,192,185882,1,0,0:0:0:0:
320,192,186001,1,0,0:0:0:0:
64,192,186120,1,0,0:0:0:0:
192,192,186120,1,0,0:0:0:0:
192,192,186358,1,8,0:0:0:0:
320,192,186358,1,2,0:0:0:0:
448,192,186358,1,0,0:0:0:0:
320,192,186596,1,0,0:0:0:0:
448,192,186596,1,0,0:0:0:0:
64,192,186834,1,2,0:0:0:0:
192,192,186834,1,0,0:0:0:0:
448,192,186834,1,0,0:0:0:0:
320,192,187072,1,0,0:0:0:0:
192,192,187191,1,0,0:0:0:0:
448,192,187191,1,0,0:0:0:0:
64,192,187310,1,8,0:0:0:0:
320,192,187310,1,2,0:0:0:0:
192,192,187548,1,0,0:0:0:0:
448,192,187548,1,0,0:0:0:0:
64,192,187787,1,2,0:0:0:0:
320,192,187787,1,0,0:0:0:0:
64,192,188025,1,0,0:0:0:0:
320,192,188025,1,0,0:0:0:0:
64,192,188263,1,8,0:0:0:0:
192,192,188263,1,2,0:0:0:0:
448,192,188263,1,0,0:0:0:0:
64,192,188501,1,0,0:0:0:0:
448,192,188501,1,0,0:0:0:0:
192,192,188739,1,2,0:0:0:0:
320,192,188739,1,0,0:0:0:0:
448,192,188739,1,0,0:0:0:0:
64,192,188977,1,0,0:0:0:0:
64,192,189096,1,0,0:0:0:0:
320,192,189096,1,0,0:0:0:0:
448,192,189096,1,0,0:0:0:0:
448,192,189334,1,0,0:0:0:0:
64,192,189453,1,0,0:0:0:0:
192,192,189453,1,0,0:0:0:0:
448,192,189453,1,0,0:0:0:0:
192,192,189691,1,2,0:0:0:0:
64,192,189810,1,0,0:0:0:0:
192,192,189810,1,0,0:0:0:0:
320,192,189810,1,0,0:0:0:0:
320,192,190048,1,8,0:0:0:0:
448,192,190167,1,8,0:0:0:0:
320,192,190167,1,2,0:0:0:0:
192,192,190167,1,0,0:0:0:0:
64,192,190406,1,2,0:0:0:0:
320,192,190644,1,4,0:0:0:0:
448,192,190644,1,2,0:0:0:0:
192,192,190703,1,0,0:0:0:0:
64,192,190763,1,0,0:0:0:0:
448,192,190822,1,0,0:0:0:0:
320,192,190882,1,0,0:0:0:0:
