osu file format v14

[General]
AudioFilename: audio.mp3
AudioLeadIn: 0
PreviewTime: -1
Countdown: 1
SampleSet: None
StackLeniency: 0.7
Mode: 0
LetterboxInBreaks: 0
WidescreenStoryboard: 0

[Editor]
DistanceSpacing: 1
BeatDivisor: 4
GridSize: 32
TimelineZoom: 1.5

[Metadata]
Title:Santa San
TitleUnicode:Santa San
Artist:MOMOIRO CLOVER Z
ArtistUnicode:MOMOIRO CLOVER Z
Creator:fstapled
Version:StapledClaus
Source:
Tags:
BeatmapID:1870414
BeatmapSetID:895135

[Difficulty]
HPDrainRate:6
CircleSize:4.2
OverallDifficulty:9
ApproachRate:9.5
SliderMultiplier:2
SliderTickRate:1

[Events]
//Background and Video events
0,0,"monstratasan.jpg",0,0
//Break Periods
2,224312,233693
2,256955,258956
//Storyboard Layer 0 (Background)
//Storyboard Layer 1 (Fail)
//Storyboard Layer 2 (Pass)
//Storyboard Layer 3 (Foreground)
//Storyboard Sound Samples

[TimingPoints]
534,315.789473684211,4,2,0,75,1,0
1165,-83.3333333333333,4,2,0,75,0,0
1481,-66.6666666666667,4,2,0,75,0,0
1797,-166.666666666667,4,2,0,75,0,0
10639,-250.000000000001,4,2,0,75,0,0
16955,-100,4,2,0,75,0,0
18139,-100,4,2,0,5,0,0
18218,-100,4,2,0,75,0,0
28007,-200,4,2,0,75,0,0
28244,-200,4,2,0,5,0,0
28323,-133.333333333333,4,2,0,75,0,0
38349,-133.333333333333,4,2,0,5,0,0
38428,-100,4,2,0,75,0,0
43402,-100,4,2,0,5,0,0
43481,-100,4,2,0,75,0,0
47823,-100,4,2,0,5,0,0
47902,-100,4,2,0,75,0,0
48455,-100,4,2,0,5,0,0
48534,-100,4,2,0,75,0,0
64876,-100,4,2,0,5,0,0
64955,-100,4,2,0,75,0,0
66218,-83.3333333333333,4,2,0,75,0,0
68428,-133.333333333333,4,2,0,75,0,0
68665,-133.333333333333,4,2,0,5,0,0
68744,-133.333333333333,4,2,0,75,0,0
77586,-100,4,2,0,75,0,0
78849,-133.333333333333,4,2,0,75,0,0
87534,-133.333333333333,4,2,0,5,0,0
87691,-100,4,2,0,75,0,0
88323,-66.6666666666667,4,2,0,75,0,0
88955,-66.6666666666667,4,2,0,75,0,1
90376,-76.9230769230769,4,2,0,75,0,1
91086,-76.9230769230769,4,2,0,5,0,1
91165,-76.9230769230769,4,2,0,75,0,1
91402,-76.9230769230769,4,2,0,5,0,1
91481,-76.9230769230769,4,2,0,75,0,1
93376,-100,4,2,0,75,0,1
94007,-66.6666666666667,4,2,0,75,0,1
106639,-100,4,2,0,75,0,1
109165,-100,4,2,0,75,0,0
114060,-100,4,2,0,75,0,0
118797,-200,4,2,0,75,0,0
119349,-200,4,2,0,5,0,0
119428,-200,4,2,0,75,0,0
119981,-200,4,2,0,5,0,0
120060,-200,4,2,0,75,0,0
120612,-200,4,2,0,5,0,0
120691,-200,4,2,0,75,0,0
121244,-200,4,2,0,5,0,0
121323,-200,4,2,0,75,0,0
121876,-200,4,2,0,5,0,0
121955,-200,4,2,0,75,0,0
122507,-200,4,2,0,5,0,0
122586,-200,4,2,0,100,0,0
123060,-100,4,2,0,75,0,0
134428,-83.3333333333333,4,2,0,75,0,0
138139,-83.3333333333333,4,2,0,5,0,0
138218,-83.3333333333333,4,2,0,75,0,0
142955,-133.333333333333,4,2,0,75,0,0
143191,-133.333333333333,4,2,0,5,0,0
143270,-133.333333333333,4,2,0,75,0,0
146034,-133.333333333333,4,2,0,5,0,0
146112,-133.333333333333,4,2,0,75,0,0
146349,-133.333333333333,4,2,0,5,0,0
146428,-133.333333333333,4,2,0,75,0,0
146665,-133.333333333333,4,2,0,5,0,0
146744,-133.333333333333,4,2,0,75,0,0
146981,-133.333333333333,4,2,0,5,0,0
147060,-100,4,2,0,75,0,0
148323,-83.3333333333333,4,2,0,75,0,0
151165,-133.333333333333,4,2,0,75,0,0
151402,-133.333333333333,4,2,0,5,0,0
151481,-133.333333333333,4,2,0,75,0,0
151718,-133.333333333333,4,2,0,5,0,0
151797,-133.333333333333,4,2,0,75,0,0
152034,-133.333333333333,4,2,0,5,0,0
152112,-83.3333333333333,4,2,0,75,0,1
159691,-222.222222222221,4,2,0,75,0,1
159770,-222.222222222221,4,2,0,5,0,1
160955,-100,4,2,0,75,0,1
182428,-100,4,2,0,75,0,0
192376,-200,4,2,0,75,0,0
193402,-200,4,2,0,5,0,0
193481,-200,4,2,0,75,0,0
194034,-200,4,2,0,5,0,0
194112,-200,4,2,0,75,0,0
194665,-200,4,2,0,5,0,0
194744,-200,4,2,0,75,0,0
195297,-200,4,2,0,5,0,0
195376,-200,4,2,0,75,0,0
195928,-200,4,2,0,5,0,0
196007,-100,4,2,0,75,0,0
203902,-76.9230769230769,4,2,0,75,0,1
224112,-142.857142857143,4,2,0,75,0,0
234455,-142.857142857143,4,2,0,5,0,0
234534,-142.857142857143,4,2,0,75,0,0
234770,-142.857142857143,4,2,0,5,0,0
234849,-142.857142857143,4,2,0,75,0,0
235086,-142.857142857143,4,2,0,5,0,0
235165,-142.857142857143,4,2,0,75,0,0
235402,-142.857142857143,4,2,0,5,0,0
235481,-100,4,2,0,75,0,0
254349,-100,4,2,0,5,0,0
254428,-100,4,2,0,75,0,0
255612,-100,4,2,0,5,0,0
255691,-100,4,2,0,75,0,0
260665,-100,4,2,0,5,0,0
260744,-76.9230769230769,4,2,0,75,0,0
265165,-222.222222222221,4,2,0,75,0,0
265481,-222.222222222221,4,2,0,5,0,0
265560,-222.222222222221,4,2,0,75,0,0
266034,-222.222222222221,4,2,0,5,0,0
266112,-222.222222222221,4,2,0,75,0,0
270849,-100,4,2,0,75,0,0
277165,-76.9230769230769,4,2,0,75,0,1
288455,-76.9230769230769,4,2,0,5,0,1
288534,-76.9230769230769,4,2,0,75,0,1
297376,-100,4,2,0,5,0,0
299902,-100,4,2,0,75,0,0
301165,-166.666666666667,4,2,0,5,0,0

[HitObjects]
512,219,1797,6,0,L|376:207,1,119.999996337891
230,347,2428,2,0,L|365:335,1,119.999996337891
142,111,3060,2,0,B|134:209|134:209|151:191,1,119.999996337891
363,283,3691,2,0,B|330:297|301:285|301:285|272:275|236:291,1,119.999996337891
126,224,4323,5,0,0:0:0:0:
170,59,4639,1,0,0:0:0:0:
276,183,4955,2,0,P|292:249|285:309,1,119.999996337891
403,131,5428,1,0,0:0:0:0:
214,253,5586,2,0,L|86:246,1,119.999996337891
265,156,6218,2,0,L|393:168,1,119.999996337891
95,82,6849,5,0,0:0:0:0:
211,238,7165,1,0,0:0:0:0:
110,194,7481,2,0,L|92:340,1,119.999996337891
325,239,7955,1,0,0:0:0:0:
349,243,8112,2,0,L|486:253,1,119.999996337891
165,165,8744,2,0,L|237:153,1,59.9999981689454
327,129,9060,1,0,0:0:0:0:
208,53,9218,1,0,0:0:0:0:
172,325,9376,5,0,0:0:0:0:
289,61,9691,1,0,0:0:0:0:
350,322,10007,1,0,0:0:0:0:
141,155,10323,1,0,0:0:0:0:
229,34,10639,2,0,B|236:62|253:73|288:89|311:101|311:101|253:102|214:120|186:142|170:174|170:174|224:174|270:190|300:213|314:256|314:256|246:246|197:261|146:291|98:335|98:335|159:320|246:329|298:346|355:385,1,960
105,64,15691,5,0,0:0:0:0:
429,324,16244,1,0,0:0:0:0:
159,46,17902,6,0,P|199:102|137:133,1,150
48,169,18218,6,0,P|31:217|48:280,1,100
156,340,18534,2,0,P|168:282|157:240,1,100
48,169,18849,1,0,0:0:0:0:
263,297,19007,1,0,0:0:0:0:
138,35,19165,2,0,L|128:148,1,100
437,93,19481,2,0,L|320:104,1,100
183,204,19797,6,0,L|302:214,1,100
441,217,20112,1,0,0:0:0:0:
308,351,20270,1,0,0:0:0:0:
261,105,20428,2,0,P|288:70|350:75,1,100
429,140,20744,5,0,0:0:0:0:
189,213,20902,1,0,0:0:0:0:
483,280,21060,1,0,0:0:0:0:
301,82,21218,1,0,0:0:0:0:
329,275,21376,2,0,B|329:328|329:328|367:371,1,100
226,176,21691,2,0,B|203:222|203:222|206:277,1,100
366,112,22007,5,0,0:0:0:0:
139,66,22165,1,0,0:0:0:0:
374,200,22323,1,0,0:0:0:0:
177,7,22481,1,0,0:0:0:0:
241,266,22639,1,0,0:0:0:0:
443,149,22797,5,0,0:0:0:0:
136,193,22955,1,0,0:0:0:0:
344,328,23270,6,0,L|448:317,1,100
249,220,23586,2,0,L|137:225,1,100
399,131,23902,2,0,P|410:75|388:17,1,100
189,354,24218,2,0,P|196:280|193:242,1,100
147,108,24534,2,0,L|44:117,1,100
239,65,24849,2,0,P|264:117|251:163,1,100
303,211,25165,2,0,P|227:216|203:242,1,100
178,302,25481,5,0,0:0:0:0:
192,78,25639,1,0,0:0:0:0:
262,354,25797,1,0,0:0:0:0:
427,184,25955,1,0,0:0:0:0:
165,149,26112,1,0,0:0:0:0:
406,323,26270,1,0,0:0:0:0:
379,59,26428,6,0,L|361:170,1,100
222,246,26744,2,0,L|205:144,1,100
178,41,27060,1,0,0:0:0:0:
392,266,27376,1,0,0:0:0:0:
97,326,27691,1,0,0:0:0:0:
285,104,28007,6,0,P|281:147|290:184,1,75
420,256,28323,2,0,L|335:267,1,75.0000028610231
237,284,28639,1,0,0:0:0:0:
131,132,28797,1,0,0:0:0:0:
91,206,28955,2,0,L|104:288,1,75.0000028610231
318,320,29270,1,0,0:0:0:0:
329,310,29428,2,0,B|308:276|327:243|327:243|357:200|334:150,1,150.000005722046
253,155,29902,5,0,0:0:0:0:
403,72,30060,1,0,0:0:0:0:
389,245,30218,2,0,L|308:233,1,75.0000028610231
198,321,30534,2,0,L|281:309,1,75.0000028610231
135,250,30849,2,0,P|104:304|130:388,1,150.000005722046
159,173,31481,2,0,P|106:166|44:236,1,150.000005722046
265,183,31955,2,0,L|279:21,1,150.000005722046
406,237,32428,6,0,L|397:325,1,75.0000028610231
208,226,32744,2,0,L|130:218,1,75.0000028610231
332,105,33060,2,0,P|312:138|306:104,1,75.0000028610231
410,123,33376,2,0,P|378:198|294:205,1,150.000005722046
206,184,33849,1,0,0:0:0:0:
421,288,34007,2,0,L|408:364,1,75.0000028610231
282,236,34323,1,0,0:0:0:0:
275,245,34481,6,0,P|219:274|135:238,1,150.000005722046
222,82,34955,1,0,0:0:0:0:
212,196,35112,1,0,0:0:0:0:
372,120,35270,1,0,0:0:0:0:
139,153,35428,1,0,0:0:0:0:
386,238,35586,1,0,0:0:0:0:
15,362,35902,6,0,L|95:355,1,75.0000028610231
220,265,36218,2,0,L|133:273,1,75.0000028610231
38,208,36534,2,0,L|25:53,1,150.000005722046
158,135,37007,5,0,0:0:0:0:
282,301,37165,1,0,0:0:0:0:
289,151,37323,1,0,0:0:0:0:
118,290,37481,1,0,0:0:0:0:
391,225,37639,1,0,0:0:0:0:
150,101,37797,1,0,0:0:0:0:
213,332,37955,1,0,0:0:0:0:
277,105,38112,6,0,L|408:88,1,112.500004291535
414,90,38428,1,0,0:0:0:0:
326,193,38586,1,0,0:0:0:0:
441,248,38744,5,0,0:0:0:0:
261,301,38902,1,0,0:0:0:0:
378,357,39060,5,0,0:0:0:0:
140,324,39218,1,0,0:0:0:0:
348,246,39376,5,0,0:0:0:0:
115,321,39534,1,0,0:0:0:0:
199,117,39691,1,0,0:0:0:0:
239,243,39849,1,0,0:0:0:0:
333,53,40007,1,0,0:0:0:0:
161,210,40165,1,0,0:0:0:0:
281,331,40323,2,0,L|390:316,1,100
195,269,40639,1,0,0:0:0:0:
272,181,40797,6,0,B|285:121|252:69|252:69|221:102|219:155,1,200
309,284,41270,1,0,0:0:0:0:
457,255,41428,1,0,0:0:0:0:
245,355,41586,1,0,0:0:0:0:
219,206,41744,1,0,0:0:0:0:
327,281,41902,1,0,0:0:0:0:
315,122,42060,1,0,0:0:0:0:
152,185,42218,2,0,P|151:246|182:271,1,100
211,102,42534,2,0,P|159:73|114:88,1,100
268,201,42849,5,0,0:0:0:0:
413,100,43007,1,0,0:0:0:0:
379,326,43165,2,0,B|301:298|301:298|219:323,1,150
217,331,43481,1,0,0:0:0:0:
182,148,43639,1,0,0:0:0:0:
329,191,43797,2,0,L|328:78,1,100
139,255,44112,2,0,L|146:364,1,100
247,149,44428,5,0,0:0:0:0:
72,108,44586,1,0,0:0:0:0:
316,229,44744,2,0,P|341:163|336:122,1,100
178,211,45060,1,0,0:0:0:0:
206,360,45218,1,0,0:0:0:0:
155,197,45376,2,0,P|94:194|52:218,1,100
259,126,45691,1,0,0:0:0:0:
323,247,45849,1,0,0:0:0:0:
392,197,46007,2,0,L|405:96,1,100
299,322,46481,5,0,0:0:0:0:
237,257,46639,2,0,L|228:152,1,100
391,195,47112,1,0,0:0:0:0:
103,303,47270,2,0,L|95:189,1,100
171,102,47507,1,0,0:0:0:0:
183,114,47586,2,0,L|340:93,1,150
416,207,47902,2,0,L|312:188,1,100
167,264,48218,2,0,P|170:313|212:262,1,150
54,167,48534,6,0,P|96:124|142:126,1,100
339,191,48849,2,0,P|285:222|245:219,1,100
435,80,49165,1,0,0:0:0:0:
394,286,49323,1,0,0:0:0:0:
329,95,49481,2,0,P|330:40|337:-5,1,100
188,209,49797,2,0,P|263:187|295:188,1,100
414,131,50112,2,0,P|442:193|430:228,1,100
392,323,50428,5,0,0:0:0:0:
326,70,50586,1,0,0:0:0:0:
214,231,50744,2,0,L|103:222,1,100
370,169,51060,1,0,0:0:0:0:
152,313,51218,1,0,0:0:0:0:
410,345,51376,1,0,0:0:0:0:
272,90,51534,1,0,0:0:0:0:
249,366,51691,1,0,0:0:0:0:
449,205,51849,1,0,0:0:0:0:
132,196,52007,6,0,P|119:152|125:93,1,100
309,305,52323,2,0,P|255:288|205:299,1,100
437,132,52639,2,0,L|446:22,1,100
348,117,52955,2,0,L|341:222,1,100
264,72,53270,2,0,P|205:53|157:75,1,100
212,146,53586,1,0,0:0:0:0:
306,315,53744,1,0,0:0:0:0:
368,80,53902,5,0,0:0:0:0:
279,235,54060,2,0,B|423:223|423:223|358:207,1,200
181,246,54534,2,0,P|174:301|203:343,1,100
239,158,54849,2,0,P|256:90|158:34,1,200,0|0,2:0|2:0,2:0:0:0:
286,246,55323,2,0,B|346:289|360:328|360:328|347:290|363:233,1,200
259,326,55797,2,0,P|214:333|152:329,1,100
170,75,56112,5,0,0:0:0:0:
63,211,56270,1,0,0:0:0:0:
281,186,56428,1,0,0:0:0:0:
59,67,56586,1,0,0:0:0:0:
183,279,56744,2,0,P|193:226|185:177,1,100
316,326,57060,2,0,P|364:300|428:307,1,100
335,174,57376,5,0,0:0:0:0:
305,134,57454,1,0,0:0:0:0:
258,121,57533,1,0,0:0:0:0:
213,141,57612,1,0,0:0:0:0:
190,185,57691,1,0,0:0:0:0:
167,228,57770,1,0,0:0:0:0:
122,248,57849,1,0,0:0:0:0:
74,235,57928,1,0,0:0:0:0:
45,196,58007,6,0,P|41:166|45:137,1,50
154,25,58165,2,0,P|155:55|149:89,1,50
235,298,58323,6,0,P|239:274|239:246,1,50
330,135,58481,2,0,P|326:153|330:188,1,50
363,337,58639,2,0,P|420:332|460:302,1,100
299,218,58955,2,0,P|239:200|190:209,1,100
446,174,59270,1,0,0:0:0:0:
344,32,59428,1,0,0:0:0:0:
198,126,59586,2,0,P|186:199|186:228,1,100
146,41,59902,6,0,L|44:35,1,100
154,142,60218,2,0,L|259:148,1,100
405,169,60534,1,0,0:0:0:0:
219,64,60691,1,0,0:0:0:0:
309,278,60849,2,0,L|196:269,1,100
68,200,61165,2,0,P|64:148|79:95,1,100
188,162,61481,2,0,P|191:213|176:266,1,100
95,329,61797,2,0,L|201:326,1,100
345,249,62112,2,0,L|241:249,1,100
112,104,62428,6,0,L|103:213,1,100
220,90,62744,1,0,0:0:0:0:
34,159,62902,1,0,0:0:0:0:
279,194,63060,2,0,P|330:185|370:155,1,100
186,200,63376,2,0,P|152:247|158:288,1,100
255,267,63691,1,0,0:0:0:0:
345,100,63849,1,0,0:0:0:0:
418,316,64007,1,0,0:0:0:0:
399,326,64165,2,0,B|301:296|327:367|192:339,1,200
121,283,64639,6,0,P|94:220|131:148,1,150
141,141,64955,1,0,0:0:0:0:
252,308,65112,1,0,0:0:0:0:
402,89,65270,1,0,0:0:0:0:
382,87,65428,2,0,B|224:86|224:86|259:120,1,200
372,199,65902,2,0,P|423:208|477:198,1,100
97,275,66218,6,0,L|99:133,1,119.999996337891
233,73,66534,2,0,L|214:207,1,119.999996337891
339,322,66849,2,0,L|206:339,1,119.999996337891
330,197,67165,2,0,L|460:218,1,119.999996337891
100,305,67481,5,0,0:0:0:0:
402,118,67797,1,0,0:0:0:0:
67,48,68112,1,0,0:0:0:0:
268,82,68428,6,0,P|272:157|259:200,1,112.500004291535
233,256,68744,1,0,0:0:0:0:
382,205,68902,1,0,0:0:0:0:
169,321,69060,2,0,P|146:269|145:237,1,75.0000028610231
189,124,69376,2,0,B|154:136|116:117|116:117|77:101|37:120,1,150.000005722046
238,207,69849,1,0,0:0:0:0:
314,62,70007,1,0,0:0:0:0:
415,87,70165,1,0,0:0:0:0:
333,244,70323,6,0,P|328:192|328:162,1,75.0000028610231
437,219,70639,2,0,P|441:307|423:375,1,150.000005722046
193,144,71270,2,0,L|99:138,1,75.0000028610231
36,160,71586,1,0,0:0:0:0:
26,30,71744,1,0,0:0:0:0:
174,226,71902,2,0,P|215:230|266:214,1,75.0000028610231
318,164,72218,1,0,0:0:0:0:
221,96,72376,1,0,0:0:0:0:
247,310,72534,5,0,0:0:0:0:
419,159,72691,1,0,0:0:0:0:
145,149,72849,1,0,0:0:0:0:
315,270,73007,1,0,0:0:0:0:
335,97,73165,2,0,L|347:6,1,75.0000028610231
229,155,73481,1,0,0:0:0:0:
254,327,73639,1,0,0:0:0:0:
352,256,73797,2,0,B|379:217|356:178|356:178|335:141|356:89,1,150.000005722046
447,317,74270,1,0,0:0:0:0:
272,215,74428,6,0,P|221:190|141:245,1,150.000005722046
361,82,74902,2,0,B|369:120|361:147|361:147|369:156|369:156|360:193|370:228,1,150.000005722046
317,361,75534,1,0,0:0:0:0:
206,289,75691,2,0,L|53:302,1,150.000005722046
310,122,76323,1,0,0:0:0:0:
287,262,76481,1,0,0:0:0:0:
439,113,76639,1,0,0:0:0:0:
389,203,76797,1,0,0:0:0:0:
202,151,76955,5,0,0:0:0:0:
458,298,77270,1,0,0:0:0:0:
114,330,77586,2,0,L|109:220,1,100
308,81,77902,2,0,L|281:210,1,100
245,310,78218,1,0,0:0:0:0:
428,200,78534,1,0,0:0:0:0:
207,129,78849,6,0,B|234:122|234:93|232:66|188:51|135:90|124:115|159:149|192:211|153:239|113:246|73:227|78:190|109:167|128:192,1,300.000011444092
372,218,79955,1,0,0:0:0:0:
403,140,80112,2,0,B|371:124|324:146|324:146|332:83|308:53|271:41|225:46|201:82|197:113|221:150,1,300.000011444092
343,193,81060,5,0,0:0:0:0:
315,210,81376,2,0,B|272:220|241:197|241:197|206:171|164:188|164:188|193:210|209:236|207:276|192:291|156:299,2,300.000011444092
405,241,83270,1,0,0:0:0:0:
163,147,83586,5,0,0:0:0:0:
361,171,83902,2,0,B|334:108|359:33|441:74|442:145|411:155|256:131,1,300.000011444092
148,122,84849,1,0,0:0:0:0:
308,248,85165,2,0,B|348:202|352:128|319:76|266:51|266:51|290:84|294:112|292:138,1,300.000011444092
205,316,86112,1,0,0:0:0:0:
278,199,86376,2,0,B|251:164|239:125|230:61|230:61|240:125|234:164|206:208|168:234|168:234|146:177|101:158|28:194|28:243|54:283,1,550.000020980836
367,89,87691,6,0,B|424:63|424:63|418:160,1,150
88,44,88007,2,0,B|137:83|94:131|94:131|154:138,1,150
231,173,88323,2,0,B|241:154|274:158|294:199|254:237|254:237|301:258|287:304|239:309,1,225.000008583069
141,186,88639,2,0,P|175:93|303:112,1,225.000008583069
271,242,88955,2,0,P|352:259|422:217,1,150.000005722046
133,61,89270,1,0,0:0:0:0:
167,237,89428,2,0,B|155:276|166:299|166:299|186:335|173:390,1,150.000005722046
215,148,89744,2,0,P|144:122|90:163,1,150.000005722046
347,263,90060,6,0,L|359:108,1,150.000005722046
248,337,90376,5,0,0:0:0:0:
477,315,90534,1,0,0:0:0:0:
211,198,90691,1,0,0:0:0:0:
384,216,90849,2,0,B|377:78|377:78|357:142,1,194.999991073609
405,297,91165,2,0,P|472:258|448:153,1,194.999991073609
313,263,91481,2,0,P|246:233|187:248,1,129.999994049073
401,111,91797,1,0,0:0:0:0:
216,21,91955,2,0,L|205:154,1,129.999994049073
311,299,92270,2,0,L|299:169,1,129.999994049073
56,348,92586,6,0,P|96:316|178:326,2,129.999994049073
243,195,93060,2,0,L|245:57,1,129.999994049073
210,305,93376,2,0,P|260:312|315:288,1,100
414,171,93691,2,0,L|408:284,1,100
86,222,94007,6,0,P|82:152|159:118,1,150.000005722046
377,243,94323,1,0,0:0:0:0:
168,191,94481,2,0,L|176:348,1,150.000005722046
305,42,94797,2,0,L|299:197,1,150.000005722046
139,270,95112,2,0,B|206:226|283:275|283:275|215:332|130:340,1,300.000011444092
49,197,95586,2,0,L|64:42,1,150.000005722046
198,193,95902,2,0,P|288:247|341:235,1,150.000005722046
182,110,96218,2,0,P|114:165|124:226,1,150.000005722046
316,123,96534,6,0,L|470:108,1,150.000005722046
219,232,96849,1,0,0:0:0:0:
403,175,97007,2,0,P|423:87|408:26,1,150.000005722046
150,176,97323,2,0,P|130:260|174:310,1,150.000005722046
243,118,97639,1,0,0:0:0:0:
258,108,97797,1,0,0:0:0:0:
240,312,97955,1,0,0:0:0:0:
360,62,98112,1,0,0:0:0:0:
162,248,98270,1,0,0:0:0:0:
446,199,98428,5,0,0:0:0:0:
95,143,98586,1,0,0:0:0:0:
316,44,98744,2,0,P|314:118|304:214,1,150.000005722046
83,309,99060,2,0,P|165:277|247:299,1,150.000005722046
319,346,99376,1,0,0:0:0:0:
234,164,99534,2,0,P|232:86|277:29,1,150.000005722046
357,238,99849,2,0,P|313:158|323:99,1,150.000005722046
182,328,100165,6,0,B|160:349|118:358|86:350|65:323|65:323|101:315,1,150.000005722046
234,164,100481,2,0,B|255:142|264:100|256:68|229:47|229:47|221:83,1,150.000005722046
388,189,100797,1,0,0:0:0:0:
132,157,100955,1,0,0:0:0:0:
252,348,101112,1,0,0:0:0:0:
324,49,101270,1,0,0:0:0:0:
139,257,101428,1,0,0:0:0:0:
344,288,101586,6,0,P|437:273|479:229,1,150.000005722046
242,151,101902,1,0,0:0:0:0:
380,43,102060,2,0,L|383:203,1,150.000005722046
357,277,102376,2,0,L|350:116,1,150.000005722046
173,337,102691,5,0,0:0:0:0:
117,120,102849,1,0,0:0:0:0:
244,238,103007,1,0,0:0:0:0:
292,74,103165,1,0,0:0:0:0:
110,201,103323,1,0,0:0:0:0:
272,345,103481,1,0,0:0:0:0:
354,149,103639,1,0,0:0:0:0:
172,295,103797,1,0,0:0:0:0:
488,295,103955,1,0,0:0:0:0:
337,175,104112,6,0,P|328:81|374:40,1,150.000005722046
158,149,104428,1,0,0:0:0:0:
323,316,104586,2,0,P|414:306|451:254,1,150.000005722046
176,226,104902,2,0,P|150:312|183:367,1,150.000005722046
302,166,105218,2,0,L|296:9,1,150.000005722046
471,366,105534,2,0,L|484:215,1,150.000005722046
144,127,105849,1,0,0:0:0:0:
100,212,106007,2,0,L|115:370,1,150.000005722046
278,37,106323,2,0,L|263:198,1,150.000005722046
257,308,106639,5,0,0:0:0:0:
295,276,106717,1,0,0:0:0:0:
311,230,106796,1,0,0:0:0:0:
301,181,106875,1,0,0:0:0:0:
268,145,106954,1,0,0:0:0:0:
220,131,107033,1,0,0:0:0:0:
172,144,107112,1,0,0:0:0:0:
138,180,107191,1,0,0:0:0:0:
127,228,107270,5,0,0:0:0:0:
160,191,107348,1,0,0:0:0:0:
208,178,107427,1,0,0:0:0:0:
254,195,107506,1,0,0:0:0:0:
284,234,107585,1,0,0:0:0:0:
318,268,107665,1,0,0:0:0:0:
367,271,107744,1,0,0:0:0:0:
406,242,107823,1,0,0:0:0:0:
415,194,107902,5,0,0:0:0:0:
171,318,108060,1,0,0:0:0:0:
243,74,108218,1,0,0:0:0:0:
350,287,108376,1,0,0:0:0:0:
132,142,108534,1,0,0:0:0:0:
364,128,108691,1,0,0:0:0:0:
125,156,108849,1,0,0:0:0:0:
368,285,109007,1,0,0:0:0:0:
165,339,109165,5,0,0:0:0:0:
314,99,110270,1,0,0:0:0:0:
95,71,111060,5,0,0:0:0:0:
126,269,111376,1,0,0:0:0:0:
228,151,111534,1,0,0:0:0:0:
228,151,111612,1,0,0:0:0:0:
228,151,111691,1,0,0:0:0:0:
306,355,112797,5,0,0:0:0:0:
201,104,113586,1,0,0:0:0:0:
105,265,113902,1,0,0:0:0:0:
312,245,114060,1,0,0:0:0:0:
312,245,114139,1,0,0:0:0:0:
312,245,114218,2,0,P|337:188|325:142,1,100
273,88,114534,1,0,0:0:0:0:
144,192,114691,2,0,P|195:199|258:173,1,100
370,81,115007,2,0,P|319:74|256:100,1,100
390,332,115323,6,0,P|404:228|325:167,1,200
166,260,115797,2,0,P|215:276|268:269,1,100
89,186,116112,2,0,P|62:242|68:287,1,100
184,149,116428,2,0,P|198:82|183:32,1,100
377,201,116744,2,0,P|319:202|282:179,1,100
255,80,117060,1,0,0:0:0:0:
193,279,117218,2,0,L|307:291,1,100,0|0,2:2|2:2,2:2:0:0:
446,344,117534,2,0,L|331:356,1,100,0|0,2:2|2:2,2:2:0:0:
236,358,117849,5,0,0:0:0:0:
297,184,118007,1,0,0:0:0:0:
137,248,118165,1,0,0:0:0:0:
374,311,118323,1,0,0:0:0:0:
92,330,118481,1,0,0:0:0:0:
374,230,118639,1,0,0:0:0:0:
205,169,118797,2,0,L|198:101,1,50
273,274,119112,2,0,L|284:178,1,75
370,97,119428,6,0,L|313:89,1,50
460,158,119744,2,0,L|386:169,1,75
232,138,120060,2,0,L|237:80,1,50
159,263,120376,2,0,L|136:178,1,75
258,240,120691,2,0,L|247:308,1,50
392,155,121007,2,0,L|307:135,1,75
193,88,121323,6,0,L|250:77,1,50
69,170,121639,2,0,L|162:178,1,75
224,228,121955,2,0,L|229:280,1,50
321,148,122270,2,0,L|325:64,1,75
326,49,122586,1,0,0:0:0:0:
395,220,122744,2,0,L|454:219,1,50
213,162,123060,5,0,0:0:0:0:
450,92,123218,1,0,0:0:0:0:
233,246,123376,1,0,0:0:0:0:
444,94,123534,1,0,0:0:0:0:
192,160,123691,1,0,0:0:0:0:
406,302,123849,1,0,0:0:0:0:
303,15,124007,1,0,0:0:0:0:
190,222,124165,1,0,0:0:0:0:
287,184,124323,6,0,P|299:111|294:78,1,100
186,298,124639,1,0,0:0:0:0:
316,317,124797,2,0,P|370:333|397:371,1,100
238,207,125112,2,0,P|204:154|206:106,1,100
199,292,125428,2,0,P|136:295|99:277,1,100
319,271,125744,2,0,L|308:380,1,100
231,175,126060,1,0,0:0:0:0:
397,100,126218,2,0,L|386:209,1,100
310,18,126534,2,0,L|299:127,1,100
263,252,126849,5,0,0:0:0:0:
83,158,127007,1,0,0:0:0:0:
319,311,127165,2,0,P|343:253|340:216,1,100
288,113,127481,1,0,0:0:0:0:
210,246,127639,1,0,0:0:0:0:
70,161,127797,2,0,L|75:263,1,100
210,115,128112,5,0,0:0:0:0:
128,316,128270,1,0,0:0:0:0:
324,188,128428,1,0,0:0:0:0:
94,113,128586,1,0,0:0:0:0:
240,327,128744,1,0,0:0:0:0:
289,92,128902,1,0,0:0:0:0:
97,228,129060,1,0,0:0:0:0:
398,205,129218,1,0,0:0:0:0:
244,262,129376,5,0,0:0:0:0:
203,170,129691,1,0,0:0:0:0:
206,69,130007,1,0,0:0:0:0:
360,305,130639,5,0,0:0:0:0:
268,346,130954,1,0,0:0:0:0:
167,343,131270,1,0,0:0:0:0:
187,197,131902,5,0,0:0:0:0:
287,109,132218,1,0,0:0:0:0:
334,196,132534,1,0,0:0:0:0:
430,170,132849,1,0,0:0:0:0:
469,262,133165,1,0,0:0:0:0:
112,78,134428,5,0,0:0:0:0:
323,262,135691,1,0,0:0:0:0:
138,172,136955,1,0,0:0:0:0:
307,115,137270,1,0,0:0:0:0:
274,271,137586,1,0,0:0:0:0:
123,124,137902,2,0,P|130:56|152:98,1,179.999994506836
230,158,138218,6,0,L|368:144,1,119.999996337891
184,267,138534,1,0,0:0:0:0:
281,302,138691,2,0,P|281:368|229:389,1,119.999996337891
262,170,139007,5,0,0:0:0:0:
77,111,139165,1,0,0:0:0:0:
124,326,139323,1,0,0:0:0:0:
184,173,139481,2,0,P|195:109|192:48,1,119.999996337891
272,271,139797,1,0,0:0:0:0:
341,206,139955,2,0,P|403:198|459:216,1,119.999996337891
359,104,140270,5,0,0:0:0:0:
390,310,140428,1,0,0:0:0:0:
207,45,140586,1,0,0:0:0:0:
166,160,140744,2,0,L|163:286,1,119.999996337891
296,173,141060,1,0,0:0:0:0:
341,255,141218,2,0,L|470:242,1,119.999996337891
200,124,141534,1,0,0:0:0:0:
166,358,141691,1,0,0:0:0:0:
102,73,142323,5,0,0:0:0:0:
357,280,142639,1,0,0:0:0:0:
213,338,142955,2,0,P|192:249|215:216,1,112.500004291535
212,217,143270,1,0,0:0:0:0:
79,275,144534,1,0,0:0:0:0:
127,94,145797,2,0,L|243:88,1,112.500004291535
444,112,146112,2,0,L|316:119,1,112.500004291535
141,233,146428,2,0,L|257:227,1,112.500004291535
362,199,146744,2,0,P|368:261|331:309,1,112.500004291535
241,155,147060,6,0,B|190:143|190:143|135:158,1,100
63,215,147376,1,0,0:0:0:0:
363,174,147534,2,0,B|355:119|355:119|303:83,1,100
161,301,147849,1,0,0:0:0:0:
459,278,148007,1,0,0:0:0:0:
177,132,148165,1,0,0:0:0:0:
279,325,148323,2,0,B|299:262|299:262|283:192,1,119.999996337891
208,117,148639,1,0,0:0:0:0:
375,244,148797,6,0,L|500:233,1,119.999996337891
321,155,149112,1,0,0:0:0:0:
422,335,149270,1,0,0:0:0:0:
441,75,149428,1,0,0:0:0:0:
289,260,149586,2,0,B|229:233|229:233|164:238,1,119.999996337891
79,266,149902,1,0,0:0:0:0:
359,199,150060,2,0,B|387:138|387:138|381:71,1,119.999996337891
328,17,150376,5,0,0:0:0:0:
303,262,150534,1,0,0:0:0:0:
448,31,150691,1,0,0:0:0:0:
143,133,151165,6,0,L|136:264,1,112.500004291535
227,150,151481,2,0,L|233:32,1,112.500004291535
320,172,151797,2,0,P|299:230|247:250,1,112.500004291535
342,92,152112,2,0,P|399:100|464:85,2,119.999996337891
215,40,152586,1,0,0:0:0:0:
154,160,152744,2,0,P|139:221|162:296,2,119.999996337891
243,111,153218,1,0,0:0:0:0:
354,333,153376,2,0,B|269:324|269:324|314:295,1,119.999996337891
435,265,153691,5,0,0:0:0:0:
269,162,153849,1,0,0:0:0:0:
475,97,154007,2,0,L|337:84,1,119.999996337891
277,220,154323,2,0,L|157:230,1,119.999996337891
400,150,154639,2,0,B|410:217|410:217|399:279,1,119.999996337891
210,139,154955,2,0,B|192:78|192:78|209:17,1,119.999996337891
272,278,155270,2,0,B|205:290|205:290|145:265,1,119.999996337891
349,133,155586,1,0,0:0:0:0:
448,335,155744,1,0,0:0:0:0:
215,209,155902,6,0,P|208:135|228:78,1,119.999996337891
346,211,156218,1,0,0:0:0:0:
297,368,156376,1,0,0:0:0:0:
133,285,156534,1,0,0:0:0:0:
419,262,156691,1,0,0:0:0:0:
245,160,156849,2,0,P|237:88|254:33,1,119.999996337891
398,48,157165,1,0,0:0:0:0:
105,117,157323,1,0,0:0:0:0:
339,193,157481,2,0,P|333:266|301:298,1,119.999996337891
216,82,157797,5,0,0:0:0:0:
251,218,157955,1,0,0:0:0:0:
398,126,158112,2,0,P|432:183|408:236,1,119.999996337891
216,309,158428,2,0,L|89:304,1,119.999996337891
304,226,158744,1,0,0:0:0:0:
180,127,158902,2,0,B|240:119|291:80|291:80|225:64|162:76,1,239.999992675781
109,179,159376,2,0,P|115:260|159:285,1,119.999996337891
197,191,159691,6,0,B|164:131|195:70|286:70|302:134|302:134|324:107|357:99|387:109|413:137,1,337.499989700318
429,150,160955,1,0,0:0:0:0:
219,273,161270,1,0,0:0:0:0:
221,48,161586,1,0,0:0:0:0:
291,320,161902,1,0,0:0:0:0:
152,195,162218,2,0,L|51:181,1,100
267,153,162534,1,0,0:0:0:0:
284,280,162691,2,0,L|276:393,1,100
390,232,163007,2,0,P|392:157|381:131,1,100
213,201,163323,6,0,L|97:196,2,100
338,135,163797,1,0,0:0:0:0:
323,297,163955,1,0,0:0:0:0:
213,93,164112,2,0,P|215:26|246:0,1,100
410,250,164428,2,0,P|418:313|405:352,1,100
197,196,164744,2,0,P|271:193|309:163,1,100
339,94,165060,1,0,0:0:0:0:
114,140,165218,2,0,P|101:211|123:255,1,100
203,314,165534,2,0,P|229:260|224:211,1,100
324,356,165849,6,0,L|437:345,1,100
501,338,166165,1,0,0:0:0:0:
346,157,166323,1,0,0:0:0:0:
262,277,166481,1,0,0:0:0:0:
206,125,166639,2,0,P|192:70|198:17,1,100
345,239,166955,2,0,P|362:300|354:347,1,100
337,124,167270,6,0,P|394:79|444:80,1,100
436,285,167586,1,0,0:0:0:0:
285,258,167744,2,0,L|170:251,1,100
192,146,168060,2,0,L|77:139,1,100
272,7,168376,2,0,B|239:47|264:96|264:96|286:143|260:201,1,200
313,266,168849,2,0,P|363:268|408:291,1,100
210,321,169165,2,0,P|145:309|113:279,1,100
234,198,169481,6,0,L|229:71,1,100
108,61,169797,2,0,B|43:77|43:77|78:86,1,100
321,97,170112,1,0,0:0:0:0:
162,258,170270,2,0,L|160:146,1,100
337,214,170586,2,0,L|337:328,1,100
270,124,170902,1,0,0:0:0:0:
461,222,171060,5,0,0:0:0:0:
258,309,171218,1,0,0:0:0:0:
366,116,171376,1,0,0:0:0:0:
356,352,171534,1,0,0:0:0:0:
195,63,171691,1,0,0:0:0:0:
445,263,171849,1,0,0:0:0:0:
237,222,172007,2,0,L|121:209,1,100
343,296,172323,6,0,P|350:223|381:195,1,100
445,163,172639,1,0,0:0:0:0:
367,86,172797,2,0,P|328:41|323:-2,1,100
255,142,173112,2,0,P|199:139|150:169,1,100
412,360,173428,2,0,L|420:249,1,100
341,232,173744,2,0,L|328:114,1,100
257,307,174060,5,0,0:0:0:0:
87,231,174218,1,0,0:0:0:0:
263,156,174376,1,0,0:0:0:0:
86,346,174534,1,0,0:0:0:0:
23,130,174691,1,0,0:0:0:0:
193,278,174849,2,0,P|254:277|294:306,1,100
334,371,175165,1,0,0:0:0:0:
143,213,175323,2,0,P|130:153|145:118,1,100
247,35,175639,6,0,P|255:107|242:140,1,100
271,225,175955,1,0,0:0:0:0:
460,215,176112,1,0,0:0:0:0:
321,326,176270,1,0,0:0:0:0:
320,117,176428,1,0,0:0:0:0:
419,342,176586,1,0,0:0:0:0:
197,282,176744,1,0,0:0:0:0:
406,124,176902,1,0,0:0:0:0:
202,86,177060,5,0,0:0:0:0:
360,286,177218,1,0,0:0:0:0:
187,294,177376,2,0,L|66:284,1,100
266,217,177691,1,0,0:0:0:0:
175,127,177849,2,0,P|160:51|172:17,1,100
340,173,178165,2,0,P|356:238|335:280,1,100
362,85,178481,2,0,L|467:67,1,100
284,175,178797,2,0,L|400:189,1,100
216,88,179112,5,0,0:0:0:0:
112,234,179270,2,0,L|120:346,1,100
168,108,179586,2,0,L|157:4,1,100
233,271,179902,1,0,0:0:0:0:
472,234,180060,1,0,0:0:0:0:
192,204,180218,1,0,0:0:0:0:
395,339,180376,1,0,0:0:0:0:
319,85,180534,1,0,0:0:0:0:
246,284,180691,5,0,0:0:0:0:
444,193,180849,1,0,0:0:0:0:
125,148,181007,1,0,0:0:0:0:
145,355,181165,1,0,0:0:0:0:
233,109,181323,1,0,0:0:0:0:
128,258,181481,1,0,0:0:0:0:
71,69,181639,1,0,0:0:0:0:
224,225,181797,1,0,0:0:0:0:
21,131,181955,1,0,0:0:0:0:
43,298,182112,5,0,0:0:0:0:
179,45,182270,1,0,0:0:0:0:
198,363,182428,1,0,0:0:0:0:
337,233,183534,1,0,0:0:0:0:
119,149,184323,1,0,0:0:0:0:
203,368,184639,1,0,0:0:0:0:
270,233,184797,1,0,0:0:0:0:
270,233,184876,1,0,0:0:0:0:
270,233,184955,1,0,0:0:0:0:
83,139,186060,5,0,0:0:0:0:
209,31,186849,1,0,0:0:0:0:
276,244,187165,1,0,0:0:0:0:
300,241,187244,1,0,0:0:0:0:
324,238,187323,1,0,0:0:0:0:
348,235,187402,1,0,0:0:0:0:
372,230,187481,6,0,L|358:118,1,100
158,158,187797,1,0,0:0:0:0:
271,28,187955,2,0,P|287:84|265:134,1,100
240,199,188270,2,0,P|224:259|236:301,1,100
334,324,188586,2,0,B|345:313|363:302|394:304|437:309|437:309|405:297|388:280|373:253|383:224,1,200
445,135,189060,6,0,L|345:125,1,100
197,217,189376,2,0,L|296:207,1,100
377,264,189691,2,0,P|391:206|377:160,1,100
163,152,190007,2,0,P|134:268|212:296,1,200
316,293,190481,2,0,P|378:300|410:348,1,100
273,213,190797,2,0,P|246:167|250:113,1,100
292,42,191112,1,0,0:0:0:0:
141,195,191270,5,0,0:0:0:0:
349,149,191428,1,0,0:0:0:0:
235,311,191586,1,0,0:0:0:0:
263,95,191744,1,0,0:0:0:0:
323,357,191902,1,0,0:0:0:0:
103,293,192060,2,0,P|147:269|210:275,1,100
261,229,192376,2,0,L|259:122,1,100
224,327,192849,6,0,B|306:290|306:290|403:306,1,175
407,314,193481,2,0,B|389:259|405:224|405:224|424:183|395:137,1,175
398,142,194112,2,0,B|380:197|396:232|396:232|415:273|405:324,1,175
320,335,194744,2,0,B|195:315|195:315|248:299,1,175
323,227,195376,2,0,B|369:213|369:213|244:193,1,175
226,189,196007,1,0,0:0:0:0:
394,86,196323,5,0,0:0:0:0:
409,275,196481,1,0,0:0:0:0:
302,95,196639,5,0,0:0:0:0:
317,273,196797,1,0,0:0:0:0:
223,75,196955,5,0,0:0:0:0:
220,269,197112,1,0,0:0:0:0:
135,40,197270,5,0,0:0:0:0:
92,208,197428,1,0,0:0:0:0:
203,168,197586,6,0,L|315:185,1,100
411,141,197902,1,0,0:0:0:0:
452,260,198060,2,0,L|450:369,1,100
322,187,198376,2,0,L|325:69,1,100
157,262,198691,2,0,P|86:236|60:199,1,100
241,146,199007,2,0,P|188:171|137:158,1,100
310,48,199323,1,0,0:0:0:0:
368,164,199481,2,0,L|357:280,1,100
451,275,199797,2,0,L|440:391,1,100
165,259,200112,5,0,0:0:0:0:
410,168,200270,1,0,0:0:0:0:
97,332,200428,2,0,P|66:275|77:235,1,100
313,262,200744,1,0,0:0:0:0:
179,69,200902,1,0,0:0:0:0:
406,202,201060,2,0,L|401:327,1,100
188,213,201376,5,0,0:0:0:0:
302,104,201534,1,0,0:0:0:0:
290,303,201691,1,0,0:0:0:0:
101,127,201849,1,0,0:0:0:0:
464,120,202007,1,0,0:0:0:0:
212,365,202165,1,0,0:0:0:0:
39,49,202323,1,0,0:0:0:0:
464,120,202481,1,0,0:0:0:0:
72,320,202639,5,0,0:0:0:0:
175,300,203586,6,0,L|243:287,1,50
294,159,203744,2,0,L|354:167,1,50
468,193,203902,1,0,0:0:0:0:
294,339,204060,1,0,0:0:0:0:
203,79,204218,1,0,0:0:0:0:
433,285,204376,1,0,0:0:0:0:
149,144,204534,2,0,P|129:59|147:20,2,129.999994049073
261,216,205007,6,0,L|398:188,1,129.999994049073
232,327,205323,2,0,L|87:305,1,129.999994049073
349,278,205639,2,0,P|368:178|223:123,1,259.999988098145
110,141,206112,2,0,L|42:130,1,64.9999970245363
131,220,206270,2,0,L|265:212,1,129.999994049073
405,290,206586,1,0,0:0:0:0:
402,257,206665,1,0,0:0:0:0:
399,224,206744,1,0,0:0:0:0:
181,160,206902,5,0,0:0:0:0:
376,70,207060,1,0,0:0:0:0:
324,64,207139,1,0,0:0:0:0:
272,59,207218,1,0,0:0:0:0:
479,155,207376,1,0,0:0:0:0:
377,243,207534,2,0,P|313:228|268:172,2,129.999994049073
479,223,208007,5,0,0:0:0:0:
346,343,208165,1,0,0:0:0:0:
260,115,208323,1,0,0:0:0:0:
437,329,208481,1,0,0:0:0:0:
174,299,208639,1,0,0:0:0:0:
415,146,208797,1,0,0:0:0:0:
172,87,208955,2,0,L|168:157,1,64.9999970245363
298,292,209112,2,0,L|302:222,1,64.9999970245363
317,82,209270,5,0,0:0:0:0:
129,294,209428,1,0,0:0:0:0:
398,359,209586,1,0,0:0:0:0:
131,90,209744,1,0,0:0:0:0:
283,351,209902,1,0,0:0:0:0:
448,160,210060,2,0,B|414:168|387:159|363:135|355:95|355:95|291:95|291:159|291:159|281:144|256:128,1,259.999988098145
214,46,210534,5,0,0:0:0:0:
313,232,210691,1,0,0:0:0:0:
79,182,210849,2,0,B|114:158|151:174|151:174|179:183|220:159,1,129.999994049073
306,88,211165,1,0,0:0:0:0:
283,338,211323,1,0,0:0:0:0:
74,170,211481,2,0,P|70:108|86:24,1,129.999994049073
118,301,211797,1,0,0:0:0:0:
290,191,211955,2,0,P|354:172|418:197,1,129.999994049073
198,138,212270,6,0,B|180:208|180:208|204:272,1,129.999994049073
374,311,212586,1,0,0:0:0:0:
145,338,212744,1,0,0:0:0:0:
377,227,212902,1,0,0:0:0:0:
85,238,213060,1,0,0:0:0:0:
352,133,213218,1,0,0:0:0:0:
34,124,213376,1,0,0:0:0:0:
274,260,213534,5,0,0:0:0:0:
120,45,213691,1,0,0:0:0:0:
143,312,213849,1,0,0:0:0:0:
328,185,214007,2,0,L|254:185,1,64.9999970245363
152,149,214165,2,0,L|76:150,1,64.9999970245363
404,188,214323,2,0,P|437:123|354:47,1,194.999991073609
268,93,214639,2,0,L|251:23,1,64.9999970245363
202,258,214797,2,0,L|206:186,1,64.9999970245363
281,334,214955,6,0,B|432:321|432:321|381:292,1,194.999991073609
394,299,215270,1,0,0:0:0:0:
375,110,215428,1,0,0:0:0:0:
255,246,215586,1,0,0:0:0:0:
230,59,215744,1,0,0:0:0:0:
126,258,215902,1,0,0:0:0:0:
355,239,216060,1,0,0:0:0:0:
228,116,216218,1,0,0:0:0:0:
246,283,216376,1,0,0:0:0:0:
151,340,216534,5,0,0:0:0:0:
130,124,216691,1,0,0:0:0:0:
265,172,216849,2,0,L|409:147,1,129.999994049073
213,281,217165,1,0,0:0:0:0:
82,190,217323,2,0,P|58:117|80:56,2,129.999994049073
221,287,217797,5,0,0:0:0:0:
240,88,217955,1,0,0:0:0:0:
236,304,218112,5,0,0:0:0:0:
255,105,218270,1,0,0:0:0:0:
59,179,218428,2,0,P|124:153|211:170,1,129.999994049073
433,173,218744,2,0,P|373:192|293:178,1,129.999994049073
208,117,219060,1,0,0:0:0:0:
283,326,219218,1,0,0:0:0:0:
143,162,219376,2,0,P|135:85|188:52,1,129.999994049073
364,182,219691,5,0,0:0:0:0:
144,332,219849,1,0,0:0:0:0:
340,103,220007,2,0,P|422:124|442:166,1,129.999994049073
438,262,220323,1,0,0:0:0:0:
436,42,220481,1,0,0:0:0:0:
265,164,220639,1,0,0:0:0:0:
124,65,220797,2,0,L|110:145,1,64.9999970245363
174,260,220955,2,0,B|217:236|248:248|248:248|274:258|317:247,1,129.999994049073
379,164,221270,6,0,P|389:94|367:40,1,129.999994049073
118,342,221586,1,0,0:0:0:0:
385,258,221744,1,0,0:0:0:0:
121,160,221902,1,0,0:0:0:0:
293,321,222060,1,0,0:0:0:0:
368,120,222218,1,0,0:0:0:0:
121,160,222376,1,0,0:0:0:0:
332,329,222534,1,0,0:0:0:0:
303,54,222691,5,0,0:0:0:0:
159,269,222849,1,0,0:0:0:0:
389,189,223007,1,0,0:0:0:0:
118,95,223165,1,0,0:0:0:0:
214,342,223323,1,0,0:0:0:0:
358,98,223481,1,0,0:0:0:0:
77,222,223639,1,0,0:0:0:0:
370,314,223797,1,0,0:0:0:0:
232,104,223955,1,0,0:0:0:0:
232,340,224112,5,0,0:0:0:0:
135,79,234218,6,0,L|260:68,1,104.999996795654
241,150,234534,2,0,L|366:139,1,104.999996795654
341,218,234849,2,0,L|466:207,1,104.999996795654
272,282,235165,2,0,P|242:230|266:173,1,104.999996795654
357,102,235481,2,0,L|247:98,1,100
141,92,235797,1,0,0:0:0:0:
411,168,235955,2,0,P|434:114|430:57,1,100
384,238,236270,2,0,P|462:227|477:201,1,100
276,137,236586,6,0,P|244:198|258:244,2,100
379,104,237060,1,0,0:0:0:0:
150,182,237218,1,0,0:0:0:0:
345,326,237376,2,0,L|456:313,1,100
312,227,237691,2,0,L|200:233,1,100
419,171,238007,2,0,P|439:104|433:63,1,100
306,111,238323,1,0,0:0:0:0:
200,248,238481,6,0,L|190:133,1,100
72,182,238797,2,0,L|84:78,1,100
321,235,239112,2,0,P|317:302|304:349,2,100
263,86,239586,1,0,0:0:0:0:
464,191,239744,1,0,0:0:0:0:
243,273,239902,2,0,L|134:268,1,100
172,155,240218,2,0,L|60:137,1,100
301,81,240534,2,0,P|317:148|300:185,1,100
421,100,240849,5,0,0:0:0:0:
298,266,241007,2,0,L|179:257,1,100
81,180,241323,2,0,L|188:162,1,100
349,209,241639,2,0,P|375:281|274:342,1,200
180,148,242112,2,0,L|166:38,1,100
265,205,242428,2,0,L|278:103,1,100
400,165,242744,2,0,L|389:61,1,100
233,309,243060,2,0,P|301:317|343:286,1,100
377,222,243376,5,0,0:0:0:0:
176,362,243534,2,0,P|157:302|174:264,1,100
260,204,243849,2,0,P|286:142|276:92,1,100
212,46,244165,1,0,0:0:0:0:
393,177,244323,5,0,0:0:0:0:
212,320,244481,1,0,0:0:0:0:
485,247,244639,1,0,0:0:0:0:
97,233,244797,1,0,0:0:0:0:
345,317,244955,1,0,0:0:0:0:
285,129,245112,1,0,0:0:0:0:
243,346,245270,1,0,0:0:0:0:
370,111,245428,1,0,0:0:0:0:
228,231,245586,6,0,L|123:227,1,100
405,191,245902,1,0,0:0:0:0:
172,103,246060,2,0,L|164:-5,1,100
315,234,246376,2,0,L|323:356,1,100
369,75,246691,2,0,L|478:63,1,100
216,169,247007,6,0,L|333:157,2,100
115,247,247481,1,0,0:0:0:0:
290,73,247639,1,0,0:0:0:0:
259,327,247797,1,0,0:0:0:0:
105,149,247955,1,0,0:0:0:0:
330,237,248112,2,0,L|441:219,1,100
168,300,248428,1,0,0:0:0:0:
193,145,248586,2,0,P|240:118|307:124,1,100
57,49,248902,2,0,P|115:68|173:60,1,100
379,86,249218,6,0,P|370:155|394:197,1,100
244,288,249534,2,0,P|264:224|261:188,2,100
145,346,250007,1,0,0:0:0:0:
357,242,250165,1,0,0:0:0:0:
108,173,250323,1,0,0:0:0:0:
301,72,250481,1,0,0:0:0:0:
75,269,250639,2,0,L|188:278,1,100
301,200,250955,1,0,0:0:0:0:
174,92,251112,6,0,L|163:206,1,100
392,154,251428,2,0,L|403:32,1,100
319,275,251744,2,0,L|307:394,1,100
237,168,252060,2,0,L|225:287,1,100
386,122,252376,1,0,0:0:0:0:
272,64,252534,2,0,L|166:53,1,100
423,200,252849,2,0,P|466:149|465:102,1,100
245,153,253165,5,0,0:0:0:0:
357,310,253323,1,0,0:0:0:0:
359,86,253481,1,0,0:0:0:0:
213,329,253639,1,0,0:0:0:0:
130,202,253797,2,0,L|132:75,1,100
256,235,254112,2,0,L|418:223,1,150
421,223,254428,5,0,0:0:0:0:
208,120,254586,1,0,0:0:0:0:
274,338,254744,1,0,0:0:0:0:
320,106,254902,1,0,0:0:0:0:
151,200,255060,2,0,P|111:148|109:105,1,100
368,208,255376,2,0,P|356:260|254:311,1,150
254,317,255691,1,0,0:0:0:0:
74,182,259481,5,0,0:0:0:0:
147,113,259639,1,0,0:0:0:0:
245,96,259797,1,0,0:0:0:0:
318,163,259955,1,0,0:0:0:0:
327,261,260112,1,0,0:0:0:0:
284,351,260270,1,0,0:0:0:0:
148,236,260428,2,0,P|197:183|232:177,1,100
438,162,260744,6,0,P|411:90|417:32,1,129.999994049073
348,330,261060,1,0,0:0:0:0:
207,199,261218,2,0,L|60:191,1,129.999994049073
300,56,261534,2,0,L|435:63,1,129.999994049073
173,278,261849,2,0,P|132:227|256:137,1,259.999988098145
405,189,262323,2,0,L|406:60,1,129.999994049073
457,236,262639,2,0,P|399:271|341:229,1,129.999994049073
122,153,262955,2,0,P|197:167|237:118,1,129.999994049073
343,64,263270,2,0,L|352:215,1,129.999994049073
357,308,263586,5,0,0:0:0:0:
143,215,263744,2,0,P|114:140|134:90,1,129.999994049073
264,228,264060,2,0,P|293:303|273:353,1,129.999994049073
361,170,264376,1,0,0:0:0:0:
371,152,264534,1,0,0:0:0:0:
148,292,264691,1,0,0:0:0:0:
435,350,264849,1,0,0:0:0:0:
226,171,265007,5,0,0:0:0:0:
441,244,265244,2,0,L|440:164,1,67.4999979400635
352,42,265560,2,0,L|336:188,1,134.999995880127
332,198,266112,5,0,0:0:0:0:
130,120,266744,1,0,0:0:0:0:
374,40,267376,1,0,0:0:0:0:
199,288,268007,1,0,0:0:0:0:
181,46,268639,1,0,0:0:0:0:
305,307,269270,1,0,0:0:0:0:
135,209,269586,5,0,0:0:0:0:
312,161,269744,1,0,0:0:0:0:
195,95,269902,1,0,0:0:0:0:
239,266,270060,1,0,0:0:0:0:
292,68,270218,1,0,0:0:0:0:
115,255,270376,1,0,0:0:0:0:
357,182,270534,1,0,0:0:0:0:
48,106,270691,1,0,0:0:0:0:
230,320,270849,6,0,L|334:302,1,100
115,255,271165,1,0,0:0:0:0:
189,164,271323,2,0,L|192:61,1,100
279,229,271639,2,0,L|270:114,1,100
398,48,271955,2,0,L|394:166,1,100
481,166,272270,2,0,L|494:287,1,100
242,258,272586,1,0,0:0:0:0:
327,173,272744,2,0,L|326:59,1,100
123,213,273060,2,0,L|132:329,1,100
337,261,273376,5,0,0:0:0:0:
199,58,273534,1,0,0:0:0:0:
254,324,273691,1,0,0:0:0:0:
270,94,273849,1,0,0:0:0:0:
166,244,274007,1,0,0:0:0:0:
435,316,274165,1,0,0:0:0:0:
165,351,274323,1,0,0:0:0:0:
399,202,274481,1,0,0:0:0:0:
112,139,274639,5,0,0:0:0:0:
337,104,274797,1,0,0:0:0:0:
49,273,274955,1,0,0:0:0:0:
256,265,275112,1,0,0:0:0:0:
181,71,275270,1,0,0:0:0:0:
176,304,275428,1,0,0:0:0:0:
346,166,275586,1,0,0:0:0:0:
305,313,275744,1,0,0:0:0:0:
123,197,275902,5,0,0:0:0:0:
322,71,276849,6,0,L|326:140,1,50
178,188,277007,2,0,L|165:247,1,50
317,286,277165,1,0,0:0:0:0:
201,81,277323,1,0,0:0:0:0:
130,361,277481,1,0,0:0:0:0:
437,197,277639,1,0,0:0:0:0:
104,231,277797,1,0,0:0:0:0:
311,236,277955,2,0,P|326:152|316:106,1,129.999994049073
85,66,278270,6,0,B|151:53|151:53|97:85,1,129.999994049073
222,173,278586,2,0,B|171:141|171:141|252:149,1,129.999994049073
411,145,278902,2,0,B|380:165|361:198|351:237|364:285|364:285|335:258|309:246|281:244|245:267,1,259.999988098145
135,281,279376,2,0,L|125:200,1,64.9999970245363
180,85,279534,2,0,B|356:75|356:75|251:112,1,259.999988098145
159,164,279928,1,0,0:0:0:0:
159,164,280007,1,0,0:0:0:0:
370,188,280165,1,0,0:0:0:0:
115,271,280323,6,0,L|195:251,1,64.9999970245363
316,140,280481,2,0,L|243:127,1,64.9999970245363
95,91,280639,1,0,0:0:0:0:
237,274,280797,2,0,B|288:267|305:221|305:221|340:248|340:248|382:254|382:254|426:245|426:245|459:193,1,259.999988098145
165,181,281270,1,0,0:0:0:0:
198,354,281428,1,0,0:0:0:0:
274,184,281586,2,0,L|282:111,1,64.9999970245363
109,100,281744,2,0,L|125:253,1,129.999994049073
288,295,282060,5,0,0:0:0:0:
355,83,282218,1,0,0:0:0:0:
355,83,282297,1,0,0:0:0:0:
355,83,282376,1,0,0:0:0:0:
150,252,282534,1,0,0:0:0:0:
414,298,282691,1,0,0:0:0:0:
242,113,282849,2,0,L|236:200,1,64.9999970245363
335,345,283007,2,0,L|340:275,1,64.9999970245363
375,87,283165,1,0,0:0:0:0:
321,222,283323,6,0,B|287:247|253:262|209:238|189:224|189:224|168:205|129:190|81:206|49:238,1,259.999988098145
253,169,283797,1,0,0:0:0:0:
182,350,283955,1,0,0:0:0:0:
129,78,284112,2,0,B|213:35|213:35|329:57,1,194.999991073609
401,85,284428,1,0,0:0:0:0:
214,210,284586,1,0,0:0:0:0:
361,316,284744,2,0,L|340:43,1,259.999988098145
146,378,285218,2,0,L|167:105,1,259.999988098145
401,170,285691,6,0,P|337:159|274:182,1,129.999994049073
243,262,286007,1,0,0:0:0:0:
336,71,286165,1,0,0:0:0:0:
331,319,286323,1,0,0:0:0:0:
144,195,286481,1,0,0:0:0:0:
425,118,286639,1,0,0:0:0:0:
230,328,286797,1,0,0:0:0:0:
258,46,286955,1,0,0:0:0:0:
319,265,287112,1,0,0:0:0:0:
51,189,287270,6,0,L|126:171,1,64.9999970245363
353,304,287428,2,0,L|277:288,1,64.9999970245363
214,178,287586,2,0,P|212:112|316:57,1,194.999991073609
455,131,287902,2,0,L|382:128,1,64.9999970245363
286,242,288060,2,0,L|357:238,1,64.9999970245363
184,285,288218,2,0,P|114:239|43:304,1,194.999991073609
45,328,288534,5,0,0:0:0:0:
266,354,288691,1,0,0:0:0:0:
12,182,288849,1,0,0:0:0:0:
300,95,289007,1,0,0:0:0:0:
94,53,289165,2,0,B|96:129|96:129|74:168|74:168|98:203|98:203|106:329,1,259.999988098145
296,84,289797,5,0,0:0:0:0:
279,269,289955,1,0,0:0:0:0:
411,176,290112,1,0,0:0:0:0:
136,178,290270,2,0,L|148:318,1,129.999994049073
322,152,290586,1,0,0:0:0:0:
22,106,290744,2,0,L|41:246,1,129.999994049073
193,306,291060,5,0,0:0:0:0:
410,263,291218,1,0,0:0:0:0:
248,207,291376,2,0,P|223:129|237:79,1,129.999994049073
363,175,291691,2,0,L|380:322,1,129.999994049073
425,54,292007,2,0,L|446:186,1,129.999994049073
108,331,292323,6,0,B|192:322|192:322|238:328,1,129.999994049073
374,199,292639,2,0,B|299:206|299:206|243:175,1,129.999994049073
175,48,292955,2,0,P|178:142|163:178,1,129.999994049073
50,85,293270,1,0,0:0:0:0:
332,55,293428,1,0,0:0:0:0:
188,258,293586,1,0,0:0:0:0:
119,35,293744,1,0,0:0:0:0:
335,162,293902,5,0,0:0:0:0:
274,353,294060,1,0,0:0:0:0:
168,180,294218,2,0,P|181:86|208:57,1,129.999994049073
247,232,294534,2,0,P|173:279|120:275,1,129.999994049073
352,121,294849,1,0,0:0:0:0:
276,338,295007,1,0,0:0:0:0:
143,161,295165,1,0,0:0:0:0:
458,192,295323,1,0,0:0:0:0:
101,337,295481,5,0,0:0:0:0:
414,115,295639,1,0,0:0:0:0:
323,366,295797,2,0,P|300:284|308:226,1,129.999994049073
350,142,296112,1,0,0:0:0:0:
182,274,296270,1,0,0:0:0:0:
467,306,296428,1,0,0:0:0:0:
143,159,296586,1,0,0:0:0:0:
468,232,296744,5,0,0:0:0:0:
227,52,296902,1,0,0:0:0:0:
458,240,297060,1,0,0:0:0:0:
386,81,297218,1,0,0:0:0:0:
239,306,297376,1,0,0:0:0:0:
48,112,299902,6,0,L|125:104,1,50
425,334,300218,2,0,L|366:323,1,50
312,36,300534,2,0,L|313:93,1,50
161,257,300849,2,0,L|161:203,1,50
373,318,301165,2,0,B|378:282|368:256|355:239|322:224|322:224|346:197|357:161|357:161|327:183,1,209.999993591309
329,178,301797,1,0,0:0:0:0:
