osu file format v14

[General]
AudioFilename: audio.mp3
AudioLeadIn: 0
PreviewTime: 86678
Countdown: 1
SampleSet: Normal
StackLeniency: 0.7
Mode: 0
LetterboxInBreaks: 0
WidescreenStoryboard: 0

[Editor]
Bookmarks: 35457,46886
DistanceSpacing: 1.4
BeatDivisor: 4
GridSize: 32
TimelineZoom: 2.4

[Metadata]
Title:SARABA ITOSHIKI KANASHIMI TACHIYO
TitleUnicode:サラバ、愛しき悲しみたちよ
Artist:MOMOIRO CLOVER Z
ArtistUnicode:ももいろクローバーZ
Creator:Seizure-
Version:Maid
Source:
Tags:
BeatmapID:1660123
BeatmapSetID:791278

[Difficulty]
HPDrainRate:7
CircleSize:4
OverallDifficulty:8.7
ApproachRate:9.1
SliderMultiplier:1.9
SliderTickRate:1

[Events]
//Background and Video events
0,0,"63026414_p0.jpg",0,0
//Break Periods
//Storyboard Layer 0 (Background)
//Storyboard Layer 1 (Fail)
//Storyboard Layer 2 (Pass)
//Storyboard Layer 3 (Foreground)
//Storyboard Sound Samples

[TimingPoints]
1171.73031746707,357.142857142857,4,1,1,100,1,0
3582,-66.6666666666667,4,1,1,100,0,0
4118,-100,4,1,1,100,0,0
6439,-100,4,1,1,100,0,0
6975,-100,4,1,1,100,0,0
11171,-33.3333333333333,4,1,1,100,0,0
11886,-76.9230769230769,4,1,1,100,0,0
12600,-100,4,1,1,100,0,0
22772,-50,4,1,1,100,0,0
23136,-66.6666666666667,4,1,1,100,0,0
23493,-133.333333333333,4,1,1,50,0,0
23761,-100,4,1,1,100,0,0
36975,-200,4,1,1,100,0,0
37243,-100,4,1,1,100,0,0
37600,-200,4,1,1,100,0,0
37868,-100,4,1,1,100,0,0
39028,-100,4,1,1,100,0,0
39832,-100,4,1,1,100,0,0
40903,-200,4,1,1,100,0,0
41975,-100,4,1,1,100,0,0
45457,-200,4,1,1,100,0,0
45903,-133.333333333333,4,1,1,100,0,0
46171,-66.6666666666667,4,1,1,100,0,0
46707,-125,4,1,1,100,0,0
56796,-100,4,1,1,100,0,0
57778,-76.9230769230769,4,1,1,100,0,0
58225,-100,4,1,1,100,0,0
73046,-66.6666666666667,4,1,1,100,0,0
74028,-100,4,1,1,100,0,0
75100,-90.9090909090909,4,2,1,100,0,0
86707,-90.9090909090909,4,1,1,100,0,1
108493,-100,4,1,1,100,0,0
108593,-90.9090909090909,4,1,1,100,0,1
112831,-90.9090909090909,4,1,1,100,0,0

[Colours]
Combo1 : 0,255,255
Combo2 : 248,144,53
Combo3 : 0,128,255
Combo4 : 255,255,0

[HitObjects]
277,148,1171,6,0,B|312:149|312:149|397:204,1,95
279,277,1528,2,0,B|297:297|297:297|399:308,1,95
296,133,1886,2,0,B|334:124|364:69|364:69|388:115|388:115|458:90,1,190,8|0,0:0|0:0,0:0:0:0:
128,182,2421,6,0,P|62:151|2:171,2,95
139,315,2957,2,0,B|172:297|172:297|208:324|274:299,1,142.5
310,316,3314,2,0,P|352:296|394:245,1,95,8|0,0:0|0:0,0:0:0:0:
388,135,3671,6,0,P|401:84|341:104,2,142.500005435944
368,299,4207,5,0,0:0:0:0:
402,113,4386,2,0,P|352:64|288:64,2,95,0|0|8,0:0|0:0|0:0,0:0:0:0:
471,214,5100,1,0,0:0:0:0:
391,282,5278,1,0,0:0:0:0:
203,188,5457,1,8,0:0:0:0:
67,298,5636,1,0,0:0:0:0:
145,345,5814,1,0,0:0:0:0:
332,268,5993,2,0,B|416:288|416:288|448:288,2,95
408,172,6528,6,0,B|477:87,2,95
363,236,7064,1,0,0:0:0:0:
197,143,7243,1,8,0:0:0:0:
197,143,7421,2,0,B|130:108|99:197,1,95,8|0,0:0|0:0,0:0:0:0:
283,329,7778,5,0,0:0:0:0:
265,128,7957,1,8,0:0:0:0:
265,128,8136,1,8,0:0:0:0:
204,288,8314,5,2,0:0:0:0:
301,202,8493,2,0,L|381:125,1,95,2|0,0:0|0:0,0:0:0:0:
439,69,8850,1,0,0:0:0:0:
141,108,9028,2,0,B|97:144|97:144|143:175|143:175|130:189,1,95,0|8,0:0|0:0,0:0:0:0:
294,146,9386,1,0,0:0:0:0:
409,291,9564,1,8,0:0:0:0:
256,192,9832,12,0,10993,0:0:0:0:
255,57,11350,6,2,B|281:107|281:107|397:191|319:313,1,285.000010871888,10|2,0:0|0:0,0:0:0:0:
54,85,11707,2,2,B|86:149|86:149|23:245|121:362,1,285.000010871888,10|2,0:0|0:0,0:0:0:0:
166,186,12064,2,0,P|161:266|194:169,1,308.749985866547
271,171,12600,2,0,B|310:179|346:190|346:190|367:244,1,95,0|0,0:0|0:0,0:0:0:0:
442,351,12957,1,8,0:0:0:0:
341,68,13136,1,8,0:0:0:0:
177,107,13314,1,2,0:0:0:0:
331,130,13493,6,0,P|264:178|240:172,1,95,2|0,0:0|0:0,0:0:0:0:
449,152,13850,1,0,0:0:0:0:
472,107,14028,1,8,0:0:0:0:
316,332,14207,1,8,0:0:0:0:
425,276,14386,2,0,B|412:241|412:241|348:217|312:231,1,95,2|2,0:0|0:0,0:0:0:0:
251,302,14743,1,2,0:0:0:0:
251,302,14832,1,2,0:0:0:0:
251,302,14921,6,0,B|217:282|217:282|205:228,2,95,2|0|0,0:0|0:0|0:0,0:0:0:0:
426,202,15457,1,0,0:0:0:0:
426,202,15636,1,0,0:0:0:0:
264,131,15814,1,0,0:0:0:0:
259,128,15993,2,8,B|231:109|231:109|197:23,1,95
250,306,16350,1,2,0:0:0:0:
141,186,16528,1,2,0:0:0:0:
261,77,16707,1,0,0:0:0:0:
370,197,16886,1,0,0:0:0:0:
370,197,17064,6,0,B|368:230|368:230|283:279,1,95
288,291,17421,1,8,0:0:0:0:
288,92,17600,1,8,0:0:0:0:
171,253,17778,1,2,0:0:0:0:
361,192,17957,1,4,0:0:0:0:
165,89,18136,1,0,0:0:0:0:
146,44,18225,1,0,0:0:0:0:
128,0,18314,6,0,B|55:28|55:28|15:74,1,95
77,210,18671,1,0,0:0:0:0:
77,210,18850,2,0,P|106:259|161:299,1,95
254,198,19207,1,0,0:0:0:0:
410,63,19386,1,8,0:0:0:0:
410,63,19565,2,0,B|462:75|462:75|460:139|387:200,1,190,8|2,0:0|0:0,0:0:0:0:
241,129,20100,5,2,0:0:0:0:
87,64,20278,1,0,0:0:0:0:
65,261,20457,2,0,B|90:303|90:303|163:312|249:283,1,190,4|0,0:0|0:0,0:0:0:0:
341,209,20993,1,0,0:0:0:0:
341,209,21171,1,0,0:0:0:0:
341,209,21350,2,0,P|290:189|229:204,1,95
185,291,21707,1,0,0:0:0:0:
325,248,21886,2,0,B|381:207|395:140,1,95
144,241,22243,5,0,0:0:0:0:
139,125,22421,2,0,B|160:59|220:25,1,95,0|0,0:0|0:0,0:0:0:0:
120,60,22778,2,8,B|64:104|64:104|45:180|110:246,1,190
170,101,23136,2,6,B|129:135|129:135|118:171|181:217,1,142.5
236,133,23493,6,0,B|210:149|210:149|230:177|247:200,1,71.2500027179719,8|4,0:0|0:0,0:0:0:0:
286,69,24028,5,0,0:0:0:0:
426,134,24207,1,0,0:0:0:0:
430,152,24385,2,0,B|452:215|416:258|349:277,1,142.5,8|0,0:0|0:0,0:0:0:0:
356,286,24743,2,0,P|281:287|257:271,1,95,8|0,0:0|0:0,0:0:0:0:
57,155,25100,5,0,0:0:0:0:
197,62,25278,1,0,0:0:0:0:
186,222,25457,1,0,0:0:0:0:
53,122,25636,1,0,0:0:0:0:
225,91,25814,1,0,0:0:0:0:
182,217,25993,1,8,0:0:0:0:
182,226,26171,6,0,P|268:284|378:252,2,190,8|2|0,0:0|0:0|0:0,0:0:0:0:
484,234,27064,5,0,0:0:0:0:
484,234,27243,1,0,0:0:0:0:
398,66,27421,1,0,0:0:0:0:
341,280,27600,1,0,0:0:0:0:
259,71,27778,1,0,0:0:0:0:
152,329,27957,1,0,0:0:0:0:
123,66,28136,1,8,0:0:0:0:
37,118,28314,6,0,P|25:155|54:220,1,95,8|2,0:0|0:0,0:0:0:0:
255,335,28671,1,2,0:0:0:0:
455,250,28849,1,0,0:0:0:0:
472,234,28938,1,0,0:0:0:0:
494,215,29028,2,0,P|509:118|446:80,1,142.5,0|0,0:0|0:0,0:0:0:0:
462,89,29386,5,0,0:0:0:0:
219,62,29743,1,8,0:0:0:0:
218,287,29921,1,8,0:0:0:0:
431,295,30100,2,0,P|499:218|478:136,1,190,2|0,0:0|0:0,0:0:0:0:
410,71,30636,1,0,0:0:0:0:
286,251,30815,1,0,0:0:0:0:
458,306,30993,1,0,0:0:0:0:
334,53,31172,5,0,0:0:0:0:
150,140,31351,1,0,0:0:0:0:
276,309,31529,1,0,0:0:0:0:
457,215,31707,5,0,0:0:0:0:
253,68,31886,1,0,0:0:0:0:
94,242,32064,1,4,0:0:0:0:
331,353,32243,1,2,0:0:0:0:
359,336,32332,1,2,0:0:0:0:
388,311,32421,2,0,B|479:271|461:214|461:214|405:169,1,190
158,260,32957,5,0,0:0:0:0:
257,56,33135,1,2,0:0:0:0:
314,278,33314,1,0,0:0:0:0:
130,110,33492,1,2,0:0:0:0:
380,113,33671,1,0,0:0:0:0:
391,108,33850,1,4,0:0:0:0:
401,100,34028,5,0,0:0:0:0:
434,263,34207,1,0,0:0:0:0:
441,280,34296,1,0,0:0:0:0:
450,295,34386,2,0,P|425:351|297:380,2,190
237,98,35457,5,8,0:0:0:0:
192,311,35636,1,8,0:0:0:0:
346,261,35814,1,6,0:0:0:0:
172,152,35993,2,0,B|172:117|172:117|102:59,1,95,2|0,0:0|0:0,0:0:0:0:
26,114,36350,2,0,B|17:150|17:150|66:209,1,95
268,309,36707,6,0,L|194:248,1,95
73,271,37064,2,0,L|132:244,1,47.5
425,43,37421,1,12,0:0:0:0:
67,268,37600,6,0,L|130:246,1,47.5,8|2,0:0|0:0,0:0:0:0:
474,172,37957,1,2,0:0:0:0:
474,172,38136,1,0,0:0:0:0:
417,335,38314,5,0,0:0:0:0:
244,232,38493,1,0,0:0:0:0:
348,81,38671,1,0,0:0:0:0:
511,171,38850,1,0,0:0:0:0:
472,286,39028,5,8,0:0:0:0:
472,286,39207,2,0,B|448:241|405:210|405:210|377:226,1,95
216,127,39564,5,0,0:0:0:0:
216,127,39743,2,0,B|168:100|168:100|121:98,1,95
37,146,40100,5,0,0:0:0:0:
37,146,40279,1,0,0:0:0:0:
392,311,40457,1,0,0:0:0:0:
441,38,40636,1,0,0:0:0:0:
122,247,40814,1,2,0:0:0:0:
126,252,40903,1,2,0:0:0:0:
129,258,40993,6,0,L|173:298,1,47.5,8|0,0:0|0:0,0:0:0:0:
392,311,41350,1,0,0:0:0:0:
128,43,41528,2,0,L|170:80,1,47.5
392,311,41886,1,8,0:0:0:0:
392,311,42064,6,0,B|452:291|468:216,2,95,8|0|0,0:0|0:0|0:0,0:0:0:0:
174,110,42600,1,0,0:0:0:0:
72,227,42778,1,0,0:0:0:0:
299,302,42957,1,8,0:0:0:0:
384,182,43136,1,0,0:0:0:0:
91,88,43314,2,0,P|147:128|116:153,1,95,8|0,0:0|0:0,0:0:0:0:
8,158,43671,5,8,0:0:0:0:
41,260,43850,1,0,0:0:0:0:
135,190,44028,1,8,0:0:0:0:
41,260,44207,1,0,0:0:0:0:
158,305,44386,2,0,L|274:278,1,95
405,157,44743,1,8,0:0:0:0:
368,110,44832,5,0,0:0:0:0:
321,71,44921,2,0,B|280:62|280:62|201:53,1,95,0|8,0:0|0:0,0:0:0:0:
188,153,45278,2,0,B|217:184|217:184|277:169,1,95,0|8,0:0|0:0,0:0:0:0:
94,160,45636,6,0,P|67:191|70:211,1,47.5,2|8,0:0|0:0,0:0:0:0:
158,177,45994,2,0,P|126:202|143:239,1,71.2500027179719
280,256,46351,2,0,P|191:291|275:275,1,285.000010871888
448,77,46886,5,0,0:0:0:0:
255,73,47064,1,0,0:0:0:0:
443,209,47243,1,2,0:0:0:0:
267,325,47421,1,2,0:0:0:0:
154,184,47600,5,0,0:0:0:0:
348,107,47778,1,0,0:0:0:0:
451,255,47957,1,2,0:0:0:0:
260,367,48136,1,4,0:0:0:0:
154,184,48314,6,0,B|139:151|139:151|191:106,1,76
257,51,48671,1,0,0:0:0:0:
356,119,48850,5,0,0:0:0:0:
353,282,49028,1,2,0:0:0:0:
201,154,49207,1,2,0:0:0:0:
397,69,49386,1,0,0:0:0:0:
284,291,49564,1,8,0:0:0:0:
397,69,49743,2,0,B|436:73|436:73|452:134|432:196,1,152,8|0,0:0|0:0,0:0:0:0:
383,311,50278,5,0,0:0:0:0:
119,193,50457,1,0,0:0:0:0:
284,131,50636,1,2,0:0:0:0:
359,316,50814,1,2,0:0:0:0:
130,118,50993,1,2,0:0:0:0:
344,153,51171,1,0,0:0:0:0:
139,298,51350,5,2,0:0:0:0:
303,86,51528,1,2,0:0:0:0:
379,304,51707,1,0,0:0:0:0:
147,154,51886,1,4,0:0:0:0:
381,64,52064,1,8,0:0:0:0:
121,338,52243,6,0,P|158:322|195:286,1,76,8|0,0:0|0:0,0:0:0:0:
326,145,52600,1,8,0:0:0:0:
326,145,52778,1,8,0:0:0:0:
73,344,52957,5,2,0:0:0:0:
361,174,53136,1,2,0:0:0:0:
361,174,53314,1,2,0:0:0:0:
73,344,53493,1,0,0:0:0:0:
403,229,53671,1,4,0:0:0:0:
403,229,53850,1,0,0:0:0:0:
445,326,54028,6,0,B|377:333|328:313|328:313|302:253,1,152,0|0,0:0|0:0,0:0:0:0:
223,62,54564,1,0,0:0:0:0:
83,311,54743,1,4,0:0:0:0:
329,310,54921,1,0,0:0:0:0:
63,129,55100,1,0,0:0:0:0:
389,150,55278,1,8,0:0:0:0:
389,150,55457,2,0,B|442:154|442:154|500:109|485:57,1,152,8|2,0:0|0:0,0:0:0:0:
63,53,56350,6,0,B|14:36|14:36|23:85|30:146,1,152
179,164,56886,2,6,L|138:206,1,47.5
221,229,57064,2,6,L|257:190,1,47.5
179,164,57243,2,6,L|138:206,1,47.5
221,229,57421,2,6,L|257:190,1,47.5
298,251,57600,6,6,B|337:284|337:284|426:228|464:87,1,285
368,142,58314,5,0,0:0:0:0:
140,71,58493,1,0,0:0:0:0:
140,71,58671,2,0,B|84:85|84:85|54:160|110:245,1,190
284,297,59207,1,0,0:0:0:0:
302,310,59386,6,0,B|356:346|406:288|406:288|352:198,1,190
283,71,59921,1,0,0:0:0:0:
261,59,60100,2,0,B|199:48|199:48|108:90|85:140,1,190
208,310,60636,1,0,0:0:0:0:
245,327,60814,6,0,B|334:355|386:326|386:326|417:240,1,190
377,100,61350,1,0,0:0:0:0:
200,80,61528,2,0,P|153:101|102:154,1,95
364,167,61886,1,0,0:0:0:0:
186,181,62064,2,0,B|153:227|99:227|99:227|99:258,1,95
270,309,62421,5,0,0:0:0:0:
286,311,62511,1,4,0:0:0:0:
305,315,62600,2,0,L|407:370,2,95,8|8|0,0:0|0:0|0:0,0:0:0:0:
477,213,63136,2,0,B|453:151|453:151|370:117|305:124,1,190
92,153,63671,1,0,0:0:0:0:
277,270,63850,1,8,0:0:0:0:
338,91,64028,2,0,P|269:52|190:44,1,142.5,2|2,0:0|0:0,0:0:0:0:
180,58,64386,6,0,B|121:79|121:79|128:149|57:180,1,190
114,316,64921,1,0,0:0:0:0:
302,171,65100,1,2,0:0:0:0:
368,319,65278,1,2,0:0:0:0:
368,319,65457,2,0,B|425:348|494:300|494:300|512:220,1,190
456,128,65993,5,0,0:0:0:0:
277,62,66171,1,0,0:0:0:0:
330,243,66350,1,0,0:0:0:0:
421,94,66528,2,0,B|361:58|361:58|288:66|225:124,1,190
53,208,67064,1,0,0:0:0:0:
53,208,67243,2,0,B|42:268|42:268|120:302|195:291,1,190
256,288,67778,5,0,0:0:0:0:
469,180,67957,1,0,0:0:0:0:
469,180,68136,1,2,0:0:0:0:
237,99,68314,1,2,0:0:0:0:
217,286,68493,1,2,0:0:0:0:
469,180,68671,6,0,B|517:153|495:97|495:97|459:79,1,95,0|0,0:0|0:0,0:0:0:0:
301,86,69028,2,0,B|253:97|239:152|239:152|316:233,1,190
455,275,69564,1,0,0:0:0:0:
378,83,69743,1,0,0:0:0:0:
286,286,69921,1,0,0:0:0:0:
457,169,70100,1,0,0:0:0:0:
259,64,70278,1,0,0:0:0:0:
244,329,70457,1,8,0:0:0:0:
378,187,70636,5,8,0:0:0:0:
192,101,70814,2,0,B|137:149|63:124|63:124|92:197,1,190,2|2,0:0|0:0,0:0:0:0:
118,280,71350,1,0,0:0:0:0:
335,199,71528,1,0,0:0:0:0:
123,83,71707,1,8,0:0:0:0:
170,326,71886,1,8,0:0:0:0:
303,124,72064,1,2,0:0:0:0:
61,106,72243,1,2,0:0:0:0:
232,329,72421,1,2,0:0:0:0:
217,75,72600,6,0,B|274:101|274:101|341:97|341:97|393:129,1,190,4|0,0:0|0:0,0:0:0:0:
132,217,73136,1,8,0:0:0:0:
343,311,73314,1,8,0:0:0:0:
392,128,73493,2,0,B|338:94|338:94|254:102|254:102|208:72|208:72,2,142.500005435944,8|2|2,0:0|0:0|0:0,0:0:0:0:
489,193,74028,1,0,0:0:0:0:
255,363,74207,1,0,0:0:0:0:
30,189,74386,1,4,0:0:0:0:
257,29,74564,1,8,0:0:0:0:
256,191,74743,1,8,0:0:0:0:
256,191,74921,5,8,0:0:0:0:
256,191,75100,1,2,0:0:0:0:
62,155,75278,5,4,0:0:0:0:
192,63,75457,1,2,0:0:0:0:
376,153,75636,5,0,0:0:0:0:
214,212,75814,1,0,0:0:0:0:
465,300,75993,5,0,0:0:0:0:
319,296,76171,1,0,0:0:0:0:
150,248,76350,5,0,0:0:0:0:
370,200,76528,1,0,0:0:0:0:
30,219,76707,5,8,0:0:0:0:
230,131,76886,1,8,0:0:0:0:
461,109,77064,5,0,0:0:0:0:
136,36,77243,1,2,0:0:0:0:
125,311,77421,5,0,0:0:0:0:
384,192,77600,2,0,B|448:160|448:160|384:96|299:47,1,209.000006378174,4|8,0:0|0:0,0:0:0:0:
18,187,78136,5,0,0:0:0:0:
192,31,78314,1,8,0:0:0:0:
236,257,78493,1,8,0:0:0:0:
53,40,78671,5,0,0:0:0:0:
112,291,78850,1,0,0:0:0:0:
303,88,79028,1,8,0:0:0:0:
174,144,79207,5,8,0:0:0:0:
318,345,79386,1,0,0:0:0:0:
469,192,79564,1,2,0:0:0:0:
348,36,79743,5,2,0:0:0:0:
470,323,79921,1,0,0:0:0:0:
169,263,80100,1,0,0:0:0:0:
204,96,80278,1,0,0:0:0:0:
194,104,80457,6,0,B|149:147|61:106|61:106|13:154,1,209.000006378174,4|8,0:0|0:0,0:0:0:0:
259,39,80993,5,0,0:0:0:0:
191,210,81172,1,8,0:0:0:0:
390,329,81350,1,8,0:0:0:0:
401,138,81529,1,0,0:0:0:0:
355,221,81707,5,0,0:0:0:0:
324,72,81886,1,8,0:0:0:0:
155,86,82065,1,8,0:0:0:0:
123,310,82243,1,0,0:0:0:0:
68,167,82422,5,0,0:0:0:0:
289,306,82600,1,2,0:0:0:0:
304,77,82779,1,2,0:0:0:0:
171,34,82957,1,0,0:0:0:0:
398,270,83136,5,0,0:0:0:0:
413,75,83315,1,0,0:0:0:0:
250,42,83493,1,8,0:0:0:0:
224,193,83672,1,8,0:0:0:0:
36,190,83850,5,0,0:0:0:0:
50,46,84029,1,0,0:0:0:0:
218,108,84207,1,8,0:0:0:0:
157,251,84386,1,8,0:0:0:0:
344,333,84565,5,0,0:0:0:0:
259,129,84743,1,0,0:0:0:0:
510,350,84922,1,8,0:0:0:0:
477,83,85100,1,8,0:0:0:0:
482,335,85279,5,0,0:0:0:0:
256,306,85457,1,8,0:0:0:0:
407,81,85636,1,8,0:0:0:0:
171,139,85815,1,0,0:0:0:0:
370,192,85993,5,8,0:0:0:0:
183,339,86171,1,8,0:0:0:0:
107,118,86350,1,0,0:0:0:0:
328,42,86529,1,4,0:0:0:0:
106,306,86707,5,0,0:0:0:0:
106,306,86796,1,6,0:0:0:0:
106,306,86886,2,0,B|126:244|126:244|201:202,1,104.500003189087
336,103,87243,6,0,B|383:126|383:126|402:186|378:254,1,156.750004783631,8|0,0:0|0:0,0:0:0:0:
380,249,87600,1,2,0:0:0:0:
237,161,87778,1,2,0:0:0:0:
370,51,87957,6,0,B|432:74|432:74|480:128,2,104.500003189087,8|0|0,0:0|0:0|0:0,0:0:0:0:
326,312,88493,1,0,0:0:0:0:
72,197,88671,1,8,0:0:0:0:
264,97,88850,1,0,0:0:0:0:
271,323,89028,1,0,0:0:0:0:
52,351,89207,2,0,B|24:306|28:273|28:273|83:251,1,104.500003189087,0|8,0:0|0:0,0:0:0:0:
443,160,89564,5,0,0:0:0:0:
435,190,89743,2,0,B|383:215|383:215|331:171|248:208,1,156.750004783631
254,210,90100,1,8,0:0:0:0:
349,345,90278,1,0,0:0:0:0:
412,133,90457,1,0,0:0:0:0:
176,124,90636,1,0,0:0:0:0:
172,316,90814,1,8,0:0:0:0:
357,229,90993,1,0,0:0:0:0:
225,121,91171,5,0,0:0:0:0:
212,335,91350,1,0,0:0:0:0:
64,180,91528,1,8,0:0:0:0:
125,80,91707,1,0,0:0:0:0:
345,135,91886,1,0,0:0:0:0:
148,287,92064,5,0,0:0:0:0:
148,287,92243,2,0,B|83:242|83:242|67:195,2,104.500003189087,8|2|0,0:0|0:0|0:0,0:0:0:0:
336,297,92957,5,8,0:0:0:0:
90,74,93136,1,0,0:0:0:0:
454,202,93314,1,2,0:0:0:0:
140,276,93493,1,0,0:0:0:0:
306,92,93671,1,8,0:0:0:0:
439,298,93850,5,0,0:0:0:0:
439,298,94028,2,0,B|375:289|375:289|308:324|256:259,1,156.750004783631,0|0,0:0|0:0,0:0:0:0:
263,265,94386,5,8,0:0:0:0:
106,90,94564,1,0,0:0:0:0:
105,318,94743,1,0,0:0:0:0:
346,206,94921,1,0,0:0:0:0:
346,206,95100,1,8,0:0:0:0:
66,133,95278,1,0,0:0:0:0:
66,222,95457,1,0,0:0:0:0:
354,305,95636,5,0,0:0:0:0:
305,117,95814,1,8,0:0:0:0:
135,298,95993,1,0,0:0:0:0:
214,106,96171,1,2,0:0:0:0:
399,295,96350,1,0,0:0:0:0:
284,58,96528,1,8,0:0:0:0:
83,333,96707,1,2,0:0:0:0:
147,68,96886,1,0,0:0:0:0:
359,342,97064,5,0,0:0:0:0:
343,34,97243,1,10,0:0:0:0:
133,102,97421,5,0,0:0:0:0:
413,166,97600,1,0,0:0:0:0:
150,290,97778,1,8,0:0:0:0:
150,290,97868,1,8,0:0:0:0:
150,290,97957,2,0,B|100:248|100:248|105:186|156:148,1,156.750004783631,12|0,0:0|0:0,0:0:0:0:
161,146,98314,1,0,0:0:0:0:
375,114,98493,5,0,0:0:0:0:
455,277,98671,1,8,0:0:0:0:
250,46,98850,5,0,0:0:0:0:
334,213,99028,1,0,0:0:0:0:
150,144,99207,5,0,0:0:0:0:
258,330,99386,1,8,0:0:0:0:
41,57,99564,5,0,0:0:0:0:
110,268,99743,1,0,0:0:0:0:
268,191,99921,1,0,0:0:0:0:
425,59,100100,1,8,0:0:0:0:
408,269,100278,1,0,0:0:0:0:
408,269,100457,2,0,B|394:306|394:306|289:287,1,104.500003189087
272,279,100814,5,8,0:0:0:0:
41,222,100993,1,0,0:0:0:0:
264,88,101171,5,0,0:0:0:0:
431,89,101528,2,0,B|412:144|379:173|379:173|435:193,1,156.750004783631,8|0,0:0|0:0,0:0:0:0:
452,240,101886,5,0,0:0:0:0:
223,333,102064,1,0,0:0:0:0:
270,180,102243,5,8,0:0:0:0:
50,111,102421,1,0,0:0:0:0:
211,57,102600,5,0,0:0:0:0:
441,142,102778,1,0,0:0:0:0:
290,249,102957,5,8,0:0:0:0:
6,149,103136,1,0,0:0:0:0:
175,163,103314,1,0,0:0:0:0:
175,163,103493,2,0,B|172:102|172:102|203:124|257:133,1,104.500003189087,0|8,0:0|0:0,0:0:0:0:
296,92,103850,1,0,0:0:0:0:
440,58,104028,1,0,0:0:0:0:
172,55,104386,5,8,0:0:0:0:
172,55,104564,2,0,B|101:140,1,104.500003189087
303,129,104921,2,0,B|390:213,1,104.500003189087,0|8,0:0|0:0,0:0:0:0:
165,217,105278,2,0,B|108:318,1,104.500003189087
258,335,105636,5,0,0:0:0:0:
475,233,105814,1,8,0:0:0:0:
252,289,105993,5,4,0:0:0:0:
52,175,106171,1,0,0:0:0:0:
257,253,106350,5,0,0:0:0:0:
473,162,106528,1,8,0:0:0:0:
254,219,106707,5,0,0:0:0:0:
49,101,106886,1,0,0:0:0:0:
254,115,107064,5,2,0:0:0:0:
255,310,107243,1,8,0:0:0:0:
161,88,107421,1,0,0:0:0:0:
349,295,107600,1,0,0:0:0:0:
59,97,107778,1,4,0:0:0:0:
450,255,107957,1,12,0:0:0:0:
24,193,108136,1,4,0:0:0:0:
474,189,108314,1,4,0:0:0:0:
54,296,108493,5,0,0:0:0:0:
450,110,108671,1,8,0:0:0:0:
125,346,108850,1,0,0:0:0:0:
208,296,109028,1,8,0:0:0:0:
295,232,109207,1,0,0:0:0:0:
295,232,109386,1,0,0:0:0:0:
295,232,109564,6,0,B|318:186|318:186|303:138|244:121,2,104.500003189087,0|8|0,0:0|0:0|0:0,0:0:0:0:
44,167,110100,5,0,0:0:0:0:
243,331,110278,1,0,0:0:0:0:
396,183,110457,1,8,0:0:0:0:
200,52,110636,1,0,0:0:0:0:
205,293,110814,5,0,0:0:0:0:
348,99,110993,1,0,0:0:0:0:
173,37,111171,1,8,0:0:0:0:
14,193,111350,1,0,0:0:0:0:
205,146,111528,5,0,0:0:0:0:
385,46,111707,1,0,0:0:0:0:
468,197,111886,1,8,0:0:0:0:
276,336,112064,1,0,0:0:0:0:
98,46,112243,5,0,0:0:0:0:
344,343,112421,1,0,0:0:0:0:
211,46,112600,1,8,0:0:0:0:
108,360,112778,5,0,0:0:0:0:
415,57,112957,1,0,0:0:0:0:
29,300,113136,1,0,0:0:0:0:
470,116,113314,5,12,0:0:0:0:
28,197,113493,1,8,0:0:0:0:
475,197,113672,1,2,0:0:0:0:
0,79,113850,5,4,0:0:0:0:
512,279,114029,1,10,0:0:0:0:
