osu file format v14

[General]
AudioFilename: audio.mp3
AudioLeadIn: 0
PreviewTime: 195383
Countdown: 0
SampleSet: Soft
StackLeniency: 0.6
Mode: 0
LetterboxInBreaks: 0
WidescreenStoryboard: 1

[Editor]
Bookmarks: 75472
DistanceSpacing: 2.2
BeatDivisor: 4
GridSize: 32
TimelineZoom: 3.800004

[Metadata]
Title:SARABA ITOSHIKI KANASHIMI TACHIYO
TitleUnicode:サラバ、愛しき悲しみたちよ
Artist:MOMOIRO CLOVER Z
ArtistUnicode:ももいろクローバーZ
Creator:Riana
Version:Down's Insane
Source:悪夢ちゃん
Tags:ももクロ momoclo 9th single シングル good-bye, dear sorrows あくむちゃん akumu-chan ed ending drama theme maimai GreeN 太鼓の達人 taiko no tatsujin japanese jpop j-pop pop full ver 5TH DIMENSION 岩里祐穂 iwasato yuho 布袋寅泰 hotei tomoyasu buckfro i_love_jrszz i love jrszz down
BeatmapID:3010227
BeatmapSetID:1428322

[Difficulty]
HPDrainRate:5
CircleSize:4
OverallDifficulty:8
ApproachRate:8
SliderMultiplier:1.6
SliderTickRate:1

[Events]
//Background and Video events
0,0,"4323cd5edf4e9e12720ee306ad6e9615fb396679_s2_n1.jpg",0,0
//Break Periods
//Storyboard Layer 0 (Background)
//Storyboard Layer 1 (Fail)
//Storyboard Layer 2 (Pass)
//Storyboard Layer 3 (Foreground)
//Storyboard Layer 4 (Overlay)
//Storyboard Sound Samples

[TimingPoints]
1187,357.142857142857,4,2,1,65,1,0
1187,-133.333333333333,4,2,1,65,0,0
11365,-100,4,2,1,75,0,0
12615,-100,4,2,2,85,0,0
13686,-100,4,2,3,85,0,0
14044,-100,4,2,2,85,0,0
15115,-100,4,2,3,85,0,0
15472,-100,4,2,2,85,0,0
16544,-100,4,2,3,85,0,0
16901,-100,4,2,2,85,0,0
17972,-100,4,2,3,85,0,0
18329,-100,4,2,2,85,0,0
19401,-100,4,2,3,85,0,0
19758,-100,4,2,2,85,0,0
20829,-100,4,2,3,85,0,0
21186,-100,4,2,2,85,0,0
22258,-100,4,2,3,85,0,0
22794,-100,4,2,6,85,0,0
24044,-100,4,2,4,75,0,0
24401,-100,4,2,5,75,0,0
24758,-100,4,2,4,75,0,0
27258,-100,4,2,5,75,0,0
27615,-100,4,2,4,75,0,0
30115,-100,4,2,5,75,0,0
30472,-100,4,2,4,75,0,0
32972,-100,4,2,5,75,0,0
33329,-100,4,2,4,75,0,0
35472,-100,4,2,2,85,0,0
36544,-100,4,2,3,85,0,0
36901,-100,4,2,2,85,0,0
37972,-100,4,2,3,85,0,0
38329,-100,4,2,2,85,0,0
39401,-100,4,2,3,85,0,0
39758,-100,4,2,2,85,0,0
40829,-100,4,2,3,85,0,0
41186,-100,4,2,2,85,0,0
42258,-100,4,2,3,85,0,0
42615,-100,4,2,2,85,0,0
43686,-100,4,2,3,85,0,0
44044,-100,4,2,2,85,0,0
45115,-100,4,2,3,85,0,0
45651,-100,4,2,6,85,0,0
46901,-100,4,2,4,75,0,0
47258,-100,4,2,5,75,0,0
47615,-100,4,2,4,75,0,0
50115,-100,4,2,5,75,0,0
50472,-100,4,2,4,75,0,0
52972,-100,4,2,5,75,0,0
53329,-100,4,2,4,75,0,0
56901,-100,4,2,1,75,0,0
57615,-100,4,2,1,85,0,0
57972,-100,4,2,6,75,0,0
58329,-100,4,2,4,70,0,0
59401,-100,4,2,5,70,0,0
59758,-100,4,2,4,70,0,0
60829,-100,4,2,5,70,0,0
61186,-100,4,2,4,70,0,0
61544,-100,4,2,5,70,0,0
62258,-100,4,2,4,70,0,0
62972,-100,4,2,5,70,0,0
64044,-100,4,2,4,70,0,0
64401,-100,4,2,5,70,0,0
65115,-100,4,2,4,70,0,0
65829,-100,4,2,5,70,0,0
66901,-100,4,2,4,70,0,0
67258,-100,4,2,5,70,0,0
67794,-100,4,2,4,70,0,0
67972,-100,4,2,5,70,0,0
68329,-100,4,2,4,70,0,0
68865,-100,4,2,5,70,0,0
69758,-100,4,2,4,70,0,0
70115,-100,4,2,5,70,0,0
70829,-100,4,2,4,70,0,0
71544,-100,4,2,5,70,0,0
72615,-100,4,2,4,70,0,0
72972,-100,4,2,5,70,0,0
73329,-100,4,2,4,70,0,0
73686,-100,4,2,5,70,0,0
74758,-100,4,2,4,70,0,0
75115,-100,4,2,5,70,0,0
75472,-100,4,2,7,65,0,0
75829,-100,4,2,8,65,0,0
76544,-100,4,2,7,65,0,0
76722,-100,4,2,8,65,0,0
76901,-100,4,2,7,65,0,0
77258,-100,4,2,8,65,0,0
78329,-100,4,2,7,65,0,0
78686,-100,4,2,8,65,0,0
79401,-100,4,2,7,65,0,0
79579,-100,4,2,8,65,0,0
79758,-100,4,2,7,65,0,0
80115,-100,4,2,8,65,0,0
81186,-100,4,2,7,65,0,0
81722,-100,4,2,8,65,0,0
82258,-100,4,2,7,65,0,0
83151,-100,4,2,8,65,0,0
83686,-100,4,2,7,65,0,0
84579,-100,4,2,8,65,0,0
85115,-100,4,2,7,65,0,0
86008,-100,4,2,8,65,0,0
86901,-100,4,2,10,90,0,0
87079,-100,4,2,5,90,0,0
88329,-100,4,2,9,90,0,0
88508,-100,4,2,5,90,0,0
91186,-100,4,2,9,90,0,0
91365,-100,4,2,5,90,0,0
94044,-100,4,2,9,90,0,0
94222,-100,4,2,5,90,0,0
98329,-100,4,2,10,90,0,0
98508,-100,4,2,5,90,0,0
99758,-100,4,2,9,90,0,0
99936,-100,4,2,5,90,0,0
102615,-100,4,2,9,90,0,0
102794,-100,4,2,5,90,0,0
105472,-100,4,2,9,90,0,0
105651,-100,4,2,5,90,0,0
108329,-100,4,2,9,90,0,0
108508,-100,4,2,5,90,0,0
111186,-100,4,2,9,90,0,0
111365,-100,4,2,5,90,0,0
112615,-100,4,2,9,90,0,0
112794,-100,4,2,5,90,0,0
114044,-100,4,2,10,85,0,0
115472,-133.333333333333,4,2,11,50,0,0
121186,-133.333333333333,4,2,11,55,0,0
129758,-100,4,2,5,75,0,0
131187,-100,4,2,1,55,0,0
131901,-100,4,2,1,85,0,0
132615,-100,4,2,4,70,0,0
132972,-100,4,2,5,70,0,0
133686,-100,4,2,4,70,0,0
135115,-100,4,2,5,70,0,0
135472,-100,4,2,4,70,0,0
135829,-100,4,2,5,70,0,0
136543,-100,4,2,4,70,0,0
137972,-100,4,2,5,70,0,0
138329,-100,4,2,4,70,0,0
138686,-100,4,2,5,70,0,0
139400,-100,4,2,4,70,0,0
140829,-100,4,2,5,70,0,0
141186,-100,4,2,4,70,0,0
141543,-100,4,2,5,70,0,0
142257,-100,4,2,4,70,0,0
143686,-100,4,2,5,70,0,0
144044,-100,4,2,4,70,0,0
144401,-100,4,2,5,70,0,0
145115,-100,4,2,4,70,0,0
146544,-100,4,2,5,70,0,0
146901,-100,4,2,4,70,0,0
147258,-100,4,2,5,70,0,0
147972,-100,4,2,4,70,0,0
149401,-100,4,2,5,70,0,0
149758,-100,4,2,4,70,0,0
150115,-100,4,2,5,70,0,0
150829,-100,4,2,4,70,0,0
152258,-100,4,2,5,70,0,0
152615,-100,4,2,4,70,0,0
152972,-100,4,2,5,70,0,0
153686,-100,4,2,4,70,0,0
155115,-100,4,2,5,70,0,0
155472,-83.3333333333333,4,2,7,75,0,0
156544,-83.3333333333333,4,2,8,70,0,0
157972,-83.3333333333333,4,2,7,70,0,0
159401,-83.3333333333333,4,2,8,70,0,0
160829,-83.3333333333333,4,2,7,70,0,0
162258,-83.3333333333333,4,2,8,70,0,0
163686,-83.3333333333333,4,2,7,70,0,0
165115,-83.3333333333333,4,2,8,70,0,0
166544,-83.3333333333333,4,2,7,70,0,0
166901,-83.3333333333333,4,2,7,75,0,0
167972,-83.3333333333333,4,2,8,75,0,0
168329,-83.3333333333333,4,2,7,75,0,0
170830,-83.3333333333333,4,2,8,70,0,0
171186,-83.3333333333333,4,2,7,70,0,0
172615,-83.3333333333333,4,2,7,75,0,0
173686,-83.3333333333333,4,2,8,70,0,0
175115,-83.3333333333333,4,2,7,70,0,0
175472,-83.3333333333333,4,2,7,75,0,0
177972,-83.3333333333333,4,2,7,70,0,0
178329,-133.333333333333,4,2,1,75,0,0
178686,-133.333333333333,4,2,12,75,0,0
195472,-133.333333333333,4,2,1,65,0,0
201186,-100,4,2,7,85,0,0
205115,-100,4,2,3,85,0,0
205651,-100,4,2,6,85,0,0
206186,-100,4,2,2,85,0,0
206365,-100,4,2,6,85,0,0
206901,-100,4,2,1,75,0,0
207526,-100,4,2,2,75,0,0
207794,-100,4,2,1,75,0,0
209758,-100,4,2,4,70,0,0
210829,-100,4,2,5,70,0,0
211186,-100,4,2,4,70,0,0
212258,-100,4,2,5,70,0,0
212615,-100,4,2,4,70,0,0
212972,-100,4,2,5,70,0,0
213686,-100,4,2,4,70,0,0
214401,-100,4,2,5,70,0,0
215472,-100,4,2,4,70,0,0
215829,-100,4,2,5,70,0,0
216544,-100,4,2,4,70,0,0
217258,-100,4,2,5,70,0,0
218329,-100,4,2,4,70,0,0
218686,-100,4,2,5,70,0,0
219222,-100,4,2,4,70,0,0
219401,-100,4,2,5,70,0,0
219758,-100,4,2,4,70,0,0
220294,-100,4,2,5,70,0,0
221186,-100,4,2,4,70,0,0
221544,-100,4,2,5,70,0,0
222258,-100,4,2,4,70,0,0
222972,-100,4,2,5,70,0,0
224044,-100,4,2,4,70,0,0
224401,-100,4,2,5,70,0,0
224758,-100,4,2,4,70,0,0
225115,-100,4,2,5,70,0,0
226186,-100,4,2,4,70,0,0
226544,-100,4,2,5,70,0,0
226901,-100,4,2,7,65,0,0
227258,-100,4,2,8,65,0,0
227972,-100,4,2,7,65,0,0
228151,-100,4,2,8,65,0,0
228329,-100,4,2,7,65,0,0
228686,-100,4,2,8,65,0,0
229758,-100,4,2,7,65,0,0
230115,-100,4,2,8,65,0,0
230829,-100,4,2,7,65,0,0
231008,-100,4,2,8,65,0,0
231186,-100,4,2,7,65,0,0
231544,-100,4,2,8,65,0,0
232615,-100,4,2,7,65,0,0
233151,-100,4,2,8,65,0,0
233686,-100,4,2,7,65,0,0
234579,-100,4,2,8,65,0,0
235115,-100,4,2,7,65,0,0
236008,-100,4,2,8,65,0,0
236544,-100,4,2,7,65,0,0
237436,-100,4,2,8,65,0,0
238329,-100,4,2,10,90,0,0
238508,-100,4,2,5,90,0,0
239758,-100,4,2,9,90,0,0
239936,-100,4,2,5,90,0,0
242615,-100,4,2,9,90,0,0
242794,-100,4,2,5,90,0,0
245472,-100,4,2,9,90,0,0
245651,-100,4,2,5,90,0,0
249758,-100,4,2,10,90,0,0
249936,-100,4,2,5,90,0,0
251186,-100,4,2,9,90,0,0
251365,-100,4,2,5,90,0,0
254044,-100,4,2,9,90,0,0
254222,-100,4,2,5,90,0,0
256901,-100,4,2,9,90,0,0
257079,-100,4,2,5,90,0,0
259758,-100,4,2,9,90,0,0
259936,-100,4,2,5,90,0,0
262615,-100,4,2,9,90,0,0
262794,-100,4,2,5,90,0,0
264044,-100,4,2,9,90,0,0
264222,-100,4,2,5,90,0,0
265472,-100,4,2,10,85,0,0
266901,-100,4,2,2,85,0,0
267972,-100,4,2,3,85,0,0
268329,-100,4,2,2,85,0,0
269401,-100,4,2,3,85,0,0
269758,-100,4,2,2,85,0,0
270829,-100,4,2,3,85,0,0
271186,-100,4,2,2,85,0,0
272258,-100,4,2,3,85,0,0
272615,-100,4,2,2,85,0,0
273686,-100,4,2,3,85,0,0
274044,-100,4,2,2,85,0,0
275115,-100,4,2,3,85,0,0
275472,-100,4,2,2,85,0,0
276544,-100,4,2,3,85,0,0
277079,-100,4,2,6,85,0,0
278329,-100,4,2,2,85,0,0
279400,-100,4,2,3,85,0,0
279757,-100,4,2,2,85,0,0
280829,-100,4,2,3,85,0,0
281186,-100,4,2,2,85,0,0
282257,-100,4,2,3,85,0,0
282614,-100,4,2,2,85,0,0
283686,-100,4,2,3,85,0,0
284043,-100,4,2,2,85,0,0
285114,-100,4,2,3,85,0,0
285472,-100,4,2,2,85,0,0
286543,-100,4,2,3,85,0,0
286900,-100,4,2,2,85,0,0
287972,-100,4,2,3,85,0,0
288507,-100,4,2,6,85,0,0
294044,-133.333333333333,4,2,8,85,0,0

[Colours]
Combo1 : 211,150,181
Combo2 : 150,191,211
Combo3 : 211,211,150

[HitObjects]
162,228,1187,6,0,L|178:298,2,60.0000022888184,2|2|2,0:2|0:2|0:2,0:0:0:0:
264,142,1722,1,2,0:2:0:0:
210,85,1901,2,0,P|186:79|139:54,1,60.0000022888184,2|0,0:2|0:0,0:0:0:0:
109,129,2258,2,0,P|74:148|50:170,1,60.0000022888184,2|0,0:2|0:0,0:0:0:0:
48,7,2615,6,0,P|67:40|77:71,1,60.0000022888184,2|2,0:2|0:2,0:0:0:0:
184,162,2972,1,2,0:2:0:0:
264,142,3151,2,0,P|282:86|308:21,1,120.000004577637,2|2,0:2|0:2,0:0:0:0:
441,75,3686,2,0,P|453:111|464:142,1,60.0000022888184,2|2,0:2|0:2,0:0:0:0:
378,216,4044,6,0,P|355:207|303:190,2,60.0000022888184,2|2|2,0:2|0:2|0:2,0:0:0:0:
460,131,4579,1,2,0:2:0:0:
457,209,4758,2,0,P|470:246|498:278,1,60.0000022888184,2|0,0:2|0:0,0:0:0:0:
375,313,5115,2,0,P|348:333|311:352,1,60.0000022888184,2|0,0:2|0:0,0:0:0:0:
229,231,5472,6,0,P|243:174|258:150,1,60.0000022888184,2|2,0:2|0:2,0:0:0:0:
117,311,5829,1,2,0:2:0:0:
150,240,6008,2,0,P|81:219|38:186,1,120.000004577637,2|2,0:2|0:2,0:0:0:0:
187,348,6544,2,0,P|236:327|268:326,1,60.0000022888184,2|2,0:2|0:2,0:0:0:0:
264,189,6901,6,0,P|247:123|233:49,1,120.000004577637,2|2,0:2|0:2,0:0:0:0:
364,160,7436,1,2,0:2:0:0:
332,231,7615,2,0,P|318:267|310:302,1,60.0000022888184,2|0,0:2|0:0,0:0:0:0:
507,320,7972,2,0,P|489:293|452:276,1,60.0000022888184,2|0,0:2|0:0,0:0:0:0:
483,149,8329,6,0,P|449:174|434:194,1,60.0000022888184,2|0,0:2|0:0,0:0:0:0:
327,92,8686,1,2,0:2:0:0:
386,37,8865,2,0,P|444:57|503:72,1,120.000004577637,2|2,0:2|0:2,0:0:0:0:
327,92,9401,2,0,P|292:111|257:136,1,60.0000022888184,2|2,0:2|0:2,0:0:0:0:
151,61,9758,6,0,P|110:45|75:33,2,60.0000022888184,2|2|2,0:2|0:2|0:2,0:0:0:0:
232,184,10294,1,2,0:2:0:0:
157,139,10472,2,0,P|148:175|129:210,1,60.0000022888184,2|0,0:2|0:0,0:0:0:0:
245,311,10829,6,0,P|321:286|382:280,1,120.000004577637,2|0,0:2|0:0,0:0:0:0:
501,272,11365,6,0,P|461:261|425:235,1,80,6|0,3:2|0:0,0:0:0:0:
354,131,11722,2,0,P|354:98|309:66,1,80,6|0,3:2|0:0,0:0:0:0:
196,133,12079,2,0,P|148:182|44:216,1,160,6|0,3:2|0:0,0:0:0:0:
63,214,12615,6,0,P|127:231|158:244,1,80,6|2,3:2|1:2,0:0:0:0:
227,336,12972,1,10,3:2:0:0:
307,320,13151,1,2,3:2:0:0:
372,174,13329,2,0,P|353:218|339:251,1,80,2|0,1:2|3:0,0:0:0:0:
227,336,13686,2,0,P|189:324|159:284,1,80,10|0,3:2|1:0,0:0:0:0:
101,158,14044,6,0,P|164:142|187:132,1,80,10|0,3:3|1:0,0:0:0:0:
264,214,14401,1,10,3:2:0:0:
372,174,14579,2,0,P|348:136|326:33,1,120,2|0,3:2|0:0,0:0:0:0:
311,57,14936,1,0,3:0:0:0:
424,99,15115,1,10,3:2:0:0:
270,160,15294,1,2,1:2:0:0:
423,237,15472,6,0,P|436:282|453:331,1,80,14|2,3:3|1:2,0:0:0:0:
291,343,15829,1,10,3:2:0:0:
328,274,16008,1,2,3:2:0:0:
213,213,16186,2,0,P|189:227|129:247,1,80,2|0,1:2|3:0,0:0:0:0:
4,313,16544,2,0,P|26:341|81:345,1,80,10|0,3:2|3:0,0:0:0:0:
121,170,16901,6,0,P|111:136|71:116,1,80,10|2,3:3|3:2,0:0:0:0:
12,234,17258,1,10,3:2:0:0:
140,244,17436,2,0,P|199:263|265:302,1,120,2|0,3:2|0:0,0:0:0:0:
261,309,17794,1,0,3:0:0:0:
411,374,17972,1,10,3:2:0:0:
334,264,18151,1,2,1:2:0:0:
334,264,18240,1,2,1:2:0:0:
334,264,18329,6,0,P|347:213|359:178,1,80,12|2,3:3|3:2,0:0:0:0:
214,57,18686,1,10,3:2:0:0:
287,27,18865,1,2,3:2:0:0:
236,131,19044,2,0,P|206:142|154:164,1,80,2|0,1:2|3:0,0:0:0:0:
7,19,19401,2,0,P|59:41|100:52,1,80,10|0,3:2|3:0,0:0:0:0:
82,151,19758,6,0,P|65:188|50:243,1,80,10|2,3:3|3:2,0:0:0:0:
172,300,20115,1,10,3:2:0:0:
309,257,20294,2,0,P|231:237|189:222,1,120,2|0,3:2|0:0,0:0:0:0:
183,212,20651,1,2,3:2:0:0:
286,99,20829,1,10,3:2:0:0:
394,138,21008,1,2,1:2:0:0:
445,75,21186,5,14,3:3:0:0:
512,182,21365,1,2,3:2:0:0:
411,213,21544,2,0,P|396:250|384:297,1,80,10|2,3:2|3:2,0:0:0:0:
500,317,21901,5,2,1:2:0:0:
329,345,22079,1,0,3:0:0:0:
186,232,22258,1,8,3:2:0:0:
178,213,22347,1,8,3:2:0:0:
169,195,22436,1,8,3:2:0:0:
158,178,22525,1,10,3:2:0:0:
146,163,22615,5,0,1:0:0:0:
57,14,22794,2,0,P|96:36|144:55,1,80,6|0,3:2|1:0,0:0:0:0:
223,138,23151,2,0,P|261:118|283:69,1,80,6|0,3:2|1:0,0:0:0:0:
380,36,23508,1,6,3:2:0:0:
471,101,23686,1,0,1:0:0:0:
381,229,23865,1,0,3:0:0:0:
360,225,23954,1,0,3:0:0:0:
347,208,24044,5,4,3:2:0:0:
445,173,24222,1,0,1:0:0:0:
401,307,24401,1,10,1:2:0:0:
296,270,24579,1,2,3:2:0:0:
199,209,24758,5,2,1:2:0:0:
143,291,24936,1,10,3:3:0:0:
14,234,25115,1,10,3:2:0:0:
65,294,25294,1,2,3:2:0:0:
85,125,25472,6,0,P|72:85|55:40,1,80,10|0,3:3|1:0,0:0:0:0:
218,54,25829,1,10,3:2:0:0:
218,54,26008,1,2,3:2:0:0:
169,120,26186,6,0,P|221:152|251:180,1,80,2|8,1:2|3:3,0:0:0:0:
464,120,26544,2,0,P|400:110|328:93,1,120,10|0,3:2|0:0,0:0:0:0:
332,104,26901,6,0,P|322:65|319:10,1,80,4|2,3:2|3:2,0:0:0:0:
437,34,27258,1,10,1:2:0:0:
366,182,27436,1,2,3:2:0:0:
483,241,27615,5,2,1:2:0:0:
373,321,27794,1,8,3:3:0:0:
296,225,27972,1,10,3:2:0:0:
405,250,28151,1,2,3:2:0:0:
248,287,28329,6,0,P|236:342|225:378,1,80,10|0,3:3|1:0,0:0:0:0:
322,336,28686,1,10,3:2:0:0:
164,294,28865,1,0,3:0:0:0:
154,286,28954,1,0,0:0:0:0:
149,273,29044,5,2,1:2:0:0:
234,150,29222,1,10,3:3:0:0:
94,75,29401,1,10,3:2:0:0:
148,175,29579,1,0,3:0:0:0:
214,35,29758,6,0,P|258:15|309:-10,1,80,4|2,3:2|3:2,0:0:0:0:
170,100,30115,1,10,1:2:0:0:
69,48,30294,1,2,3:2:0:0:
23,187,30472,5,2,1:2:0:0:
122,154,30651,1,10,3:3:0:0:
190,200,30829,1,10,3:2:0:0:
127,312,31008,1,2,3:2:0:0:
255,246,31186,6,0,P|266:288|289:334,1,80,10|0,3:3|1:0,0:0:0:0:
397,313,31544,1,10,3:2:0:0:
397,313,31722,1,2,3:2:0:0:
430,204,31901,6,0,P|399:224|342:241,1,80,2|8,1:2|3:3,0:0:0:0:
226,174,32258,2,0,P|248:118|269:26,1,120,10|0,3:2|0:0,0:0:0:0:
257,42,32615,6,0,P|214:58|172:79,1,80,4|2,3:2|1:2,0:0:0:0:
4,52,32972,1,10,1:2:0:0:
125,126,33151,1,2,3:2:0:0:
30,234,33329,5,2,1:2:0:0:
101,200,33508,1,8,3:3:0:0:
185,267,33686,1,10,3:2:0:0:
113,377,33865,1,2,3:2:0:0:
187,346,34044,5,10,3:3:0:0:
289,362,34222,1,2,1:2:0:0:
301,356,34311,1,0,1:0:0:0:
308,344,34401,1,10,3:2:0:0:
393,243,34579,1,10,3:3:0:0:
393,229,34668,1,0,1:0:0:0:
386,217,34758,5,2,3:2:0:0:
302,147,34936,1,8,3:3:0:0:
352,43,35115,1,10,3:2:0:0:
512,121,35294,1,0,1:0:0:0:
423,1,35472,6,0,P|437:49|444:105,1,80,6|2,3:2|1:2,0:0:0:0:
472,239,35829,1,10,3:2:0:0:
396,209,36008,1,2,3:2:0:0:
313,274,36186,2,0,P|272:312|241:348,1,80,2|0,1:2|3:0,0:0:0:0:
238,138,36544,2,0,P|217:95|197:49,1,80,10|0,3:2|1:0,0:0:0:0:
345,79,36901,6,0,P|341:126|314:148,1,80,10|0,3:3|1:0,0:0:0:0:
204,205,37258,1,10,3:2:0:0:
313,274,37436,2,0,P|378:288|437:300,1,120,2|0,3:2|0:0,0:0:0:0:
449,291,37794,1,0,3:0:0:0:
341,360,37972,1,10,3:2:0:0:
236,277,38151,1,2,1:2:0:0:
136,336,38329,6,0,P|110:343|40:363,1,80,14|2,3:3|1:2,0:0:0:0:
5,206,38686,1,10,3:2:0:0:
80,234,38865,1,2,3:2:0:0:
169,135,39044,2,0,P|142:103|119:57,1,80,2|0,1:2|3:0,0:0:0:0:
296,27,39401,2,0,P|296:72|271:104,1,80,10|0,3:2|3:0,0:0:0:0:
190,211,39758,6,0,P|205:241|222:295,1,80,10|2,3:3|3:2,0:0:0:0:
373,240,40115,1,10,3:2:0:0:
259,175,40294,2,0,P|212:167|118:141,1,120,2|0,3:2|0:0,0:0:0:0:
126,140,40651,1,0,3:0:0:0:
219,284,40829,1,10,3:2:0:0:
185,85,41008,1,2,1:2:0:0:
185,85,41097,1,2,1:2:0:0:
185,85,41186,6,0,P|165:48|133:7,1,80,12|2,3:3|3:2,0:0:0:0:
323,59,41544,1,10,3:2:0:0:
290,132,41722,1,2,3:2:0:0:
402,225,41901,2,0,P|445:211|485:207,1,80,2|0,1:2|3:0,0:0:0:0:
467,75,42258,2,0,P|432:65|398:18,1,80,10|0,3:2|3:0,0:0:0:0:
290,132,42615,6,0,P|308:162|323:206,1,80,10|2,3:3|3:2,0:0:0:0:
327,337,42972,1,10,3:2:0:0:
204,307,43151,2,0,P|174:280|125:214,1,120,2|0,3:2|0:0,0:0:0:0:
112,222,43508,1,0,3:0:0:0:
272,265,43686,1,10,3:2:0:0:
147,364,43865,1,2,1:2:0:0:
218,206,44044,6,0,P|230:165|253:108,1,80,14|2,3:3|3:2,0:0:0:0:
129,111,44401,1,10,3:2:0:0:
58,156,44579,1,2,3:2:0:0:
1,22,44758,2,0,P|50:40|84:57,1,80,2|0,1:2|3:0,0:0:0:0:
243,130,45115,1,10,3:2:0:0:
261,123,45204,1,10,3:2:0:0:
278,112,45293,1,10,3:2:0:0:
291,97,45382,1,8,3:2:0:0:
298,78,45472,5,0,1:0:0:0:
445,98,45651,2,0,P|412:91|359:44,1,80,6|0,3:2|1:0,0:0:0:0:
267,145,46008,2,0,P|297:191|293:233,1,80,6|0,3:2|1:0,0:0:0:0:
413,367,46365,1,6,3:2:0:0:
504,302,46543,1,0,1:0:0:0:
414,174,46722,1,0,1:0:0:0:
393,178,46811,1,0,1:0:0:0:
380,195,46901,5,4,3:2:0:0:
506,221,47079,1,0,1:0:0:0:
420,264,47258,1,10,1:2:0:0:
474,113,47436,1,2,3:2:0:0:
428,49,47615,5,2,1:2:0:0:
333,126,47794,1,10,3:3:0:0:
268,13,47972,1,10,3:2:0:0:
232,81,48151,1,2,3:2:0:0:
70,58,48329,5,10,3:3:0:0:
138,145,48508,1,2,1:2:0:0:
236,159,48686,1,10,3:2:0:0:
97,256,48865,1,2,3:2:0:0:
35,135,49044,5,2,1:2:0:0:
167,218,49222,1,10,3:3:0:0:
90,334,49401,1,10,3:2:0:0:
19,262,49579,1,2,1:2:0:0:
167,303,49758,6,0,P|215:327|252:338,1,80,4|2,3:2|3:2,0:0:0:0:
398,255,50115,1,10,1:2:0:0:
283,175,50294,1,2,3:2:0:0:
334,326,50472,5,2,1:2:0:0:
468,293,50651,1,10,3:3:0:0:
477,180,50829,1,10,3:2:0:0:
367,231,51008,1,2,3:2:0:0:
432,365,51186,5,10,3:3:0:0:
468,293,51365,1,2,1:2:0:0:
401,161,51544,1,10,3:2:0:0:
368,49,51722,1,2,3:2:0:0:
496,63,51901,5,2,1:2:0:0:
333,120,52079,1,10,3:3:0:0:
243,33,52258,2,0,P|232:71|208:125,1,80,10|0,3:2|3:0,0:0:0:0:
62,175,52615,6,0,P|98:216|112:246,1,80,4|2,3:2|3:2,0:0:0:0:
229,304,52972,1,10,1:2:0:0:
274,169,53151,1,2,3:2:0:0:
157,169,53329,5,2,1:2:0:0:
297,244,53508,1,10,3:3:0:0:
148,316,53686,1,10,3:2:0:0:
42,280,53865,1,2,3:2:0:0:
99,379,54044,5,10,3:3:0:0:
227,340,54222,1,2,1:2:0:0:
184,245,54401,1,10,3:2:0:0:
40,175,54579,1,2,3:2:0:0:
149,55,54758,5,2,1:2:0:0:
118,158,54936,1,8,3:3:0:0:
4,20,55115,2,0,P|24:77|32:107,1,80,10|0,3:2|1:0,0:0:0:0:
118,158,55472,5,8,1:2:0:0:
350,113,55651,1,8,1:2:0:0:
350,113,56365,2,0,P|335:147|329:202,1,80,8|0,3:2|0:0,0:0:0:0:
288,311,56722,1,8,3:2:0:0:
356,265,56901,5,2,1:3:0:0:
228,255,57079,1,2,1:3:0:0:
216,250,57169,1,0,0:0:0:0:
209,240,57258,1,2,1:3:0:0:
208,79,57436,1,2,1:3:0:0:
157,184,57615,6,0,P|106:203|21:237,1,120,4|0,3:3|0:0,0:0:0:0:
25,219,57972,1,8,1:2:0:0:
185,329,58151,1,0,1:0:0:0:
207,336,58240,1,0,1:0:0:0:
221,353,58329,6,0,P|223:272|235:201,1,120,4|0,3:2|0:0,0:0:0:0:
243,219,58686,1,2,1:2:0:0:
325,106,58865,1,0,3:0:0:0:
120,36,59044,6,0,P|136:93|147:149,1,80,2|0,1:2|3:0,0:0:0:0:
29,245,59401,2,0,P|85:223|119:219,1,80,10|0,1:2|3:0,0:0:0:0:
140,113,59758,6,0,P|89:103|9:81,1,120,10|0,3:3|0:0,0:0:0:0:
12,69,60115,1,10,1:2:0:0:
175,185,60294,1,2,3:2:0:0:
318,100,60472,2,0,P|327:64|358:6,1,80,0|2,1:0|3:2,0:0:0:0:
446,159,60829,1,8,3:2:0:0:
338,215,61008,1,0,1:0:0:0:
508,304,61186,6,0,P|476:344|457:380,1,80,10|0,3:3|3:0,0:0:0:0:
418,233,61544,1,10,1:2:0:0:
297,282,61722,2,0,P|266:284|202:263,1,80,2|0,3:2|1:0,0:0:0:0:
180,141,62079,2,0,P|166:112|133:67,1,80,2|8,3:2|3:2,0:0:0:0:
261,67,62436,1,2,3:2:0:0:
274,57,62526,1,8,3:2:0:0:
279,41,62615,5,12,3:3:0:0:
197,18,62794,1,0,3:0:0:0:
88,140,62972,1,8,1:2:0:0:
271,204,63151,2,0,P|339:145|376:128,1,120,4|0,3:2|0:0,0:0:0:0:
383,118,63508,1,0,3:0:0:0:
368,223,63686,1,8,3:2:0:0:
297,67,63865,1,0,3:0:0:0:
284,57,63955,1,0,3:0:0:0:
279,41,64044,5,4,3:2:0:0:
218,147,64222,1,0,0:0:0:0:
86,72,64401,2,0,P|54:68|-17:51,1,80,10|0,1:2|3:0,0:0:0:0:
45,202,64758,1,2,1:2:0:0:
160,249,64936,1,2,3:2:0:0:
23,343,65115,1,8,1:2:0:0:
82,274,65294,6,0,P|95:311|123:365,1,80,2|10,3:2|3:3,0:0:0:0:
289,300,65651,2,0,P|319:258|353:237,1,80,2|8,1:2|1:2,0:0:0:0:
476,309,66008,1,2,3:2:0:0:
352,353,66186,5,0,1:0:0:0:
405,189,66365,1,2,3:2:0:0:
480,222,66544,1,8,3:2:0:0:
382,114,66722,1,2,1:2:0:0:
506,87,66901,6,0,P|482:43|467:4,1,80,10|0,3:3|1:0,0:0:0:0:
326,169,67258,1,10,1:2:0:0:
336,53,67436,2,0,P|299:41|252:27,1,80,2|0,3:2|1:0,0:0:0:0:
122,135,67794,1,8,1:3:0:0:
194,81,67972,2,0,P|200:121|214:171,1,80,8|0,3:2|3:0,0:0:0:0:
210,159,68240,1,8,3:0:0:0:
210,159,68329,5,12,3:3:0:0:
142,226,68508,1,0,1:0:0:0:
26,117,68686,1,8,1:2:0:0:
222,243,68865,6,0,P|269:232|334:229,1,80,4|0,3:2|1:0,0:0:0:0:
497,183,69222,1,0,3:2:0:0:
396,93,69401,1,8,3:2:0:0:
302,154,69579,1,8,3:0:0:0:
283,150,69669,1,0,3:2:0:0:
269,137,69758,5,4,3:2:0:0:
311,44,69936,1,0,1:0:0:0:
162,53,70115,2,0,P|180:104|189:141,1,80,10|0,1:2|3:0,0:0:0:0:
151,265,70472,5,2,1:2:0:0:
246,329,70651,1,2,3:2:0:0:
114,352,70829,1,10,3:2:0:0:
277,254,71008,1,2,3:2:0:0:
118,191,71186,6,0,P|84:183|27:160,1,80,10|0,3:3|1:0,0:0:0:0:
87,35,71544,1,10,1:2:0:0:
244,83,71722,1,0,3:0:0:0:
179,23,71901,2,0,P|163:65|144:108,1,80,2|2,1:2|3:2,0:0:0:0:
190,238,72258,1,10,3:2:0:0:
322,179,72436,1,2,3:2:0:0:
333,167,72526,1,8,3:2:0:0:
336,150,72615,5,14,3:2:0:0:
425,169,72794,1,0,0:0:0:0:
499,274,72972,5,12,3:2:0:0:
382,338,73151,1,0,0:0:0:0:
240,197,73329,5,2,3:2:0:0:
373,228,73508,1,2,3:2:0:0:
471,103,73686,1,14,3:2:0:0:
391,26,73865,1,0,0:0:0:0:
316,48,74044,5,12,3:2:0:0:
352,126,74222,1,0,0:0:0:0:
218,223,74401,5,12,3:2:0:0:
241,109,74579,1,0,0:0:0:0:
103,44,74758,5,8,3:2:0:0:
173,157,74936,1,8,3:2:0:0:
352,126,75115,2,0,P|363:77|381:22,1,80,12|0,3:2|0:0,0:0:0:0:
291,180,75472,5,4,3:2:0:0:
291,180,75651,1,2,1:2:0:0:
417,220,75829,1,10,3:2:0:0:
417,220,76008,1,14,3:3:0:0:
319,343,76186,5,2,1:2:0:0:
249,307,76365,1,2,3:2:0:0:
366,282,76544,1,10,1:2:0:0:
469,350,76722,1,14,1:3:0:0:
488,261,76901,6,0,P|444:242|413:216,1,80,2|6,3:3|1:3,0:0:0:0:
341,80,77258,2,0,P|313:102|282:151,1,80,10|14,1:2|3:3,0:0:0:0:
182,222,77615,2,0,P|159:189|128:163,1,80,2|14,1:2|3:3,0:0:0:0:
26,20,77972,2,0,P|72:30|131:37,1,80,10|14,1:2|1:3,0:0:0:0:
208,124,78329,5,6,3:2:0:0:
208,124,78508,1,2,1:2:0:0:
54,192,78686,1,10,1:2:0:0:
54,192,78865,1,12,3:3:0:0:
161,313,79044,5,2,1:2:0:0:
227,241,79222,1,14,3:3:0:0:
92,276,79401,1,10,1:2:0:0:
244,369,79579,1,14,1:3:0:0:
301,282,79758,6,0,P|330:301|376:330,1,80,10|6,3:3|1:3,0:0:0:0:
456,168,80115,2,0,P|413:188|383:208,1,80,10|14,1:2|3:3,0:0:0:0:
279,145,80472,2,0,P|260:114|235:63,1,80,2|12,1:2|3:3,0:0:0:0:
240,75,80829,1,8,1:2:0:0:
475,14,81186,5,6,3:2:0:0:
475,14,81365,1,2,1:2:0:0:
360,127,81544,1,10,3:2:0:0:
360,127,81722,1,14,3:3:0:0:
343,23,81901,5,2,1:2:0:0:
468,92,82079,1,14,3:3:0:0:
424,11,82258,1,10,1:2:0:0:
432,163,82436,1,14,1:3:0:0:
295,127,82615,6,0,P|254:105|208:85,1,80,10|6,3:3|1:3,0:0:0:0:
101,26,82972,2,0,P|74:71|34:84,1,80,10|14,1:2|3:3,0:0:0:0:
30,199,83329,2,0,P|63:219|80:255,1,80,2|14,1:2|3:3,0:0:0:0:
252,320,83686,2,0,P|223:326|165:354,1,80,10|14,1:2|1:3,0:0:0:0:
39,323,84044,5,6,3:2:0:0:
39,323,84222,1,2,1:2:0:0:
206,249,84401,1,10,3:2:0:0:
206,249,84579,1,14,3:3:0:0:
87,113,84758,5,2,1:2:0:0:
203,148,84936,1,14,3:3:0:0:
76,188,85115,1,10,1:2:0:0:
219,72,85294,1,6,1:3:0:0:
206,249,85472,6,0,P|224:282|240:340,1,80,10|6,3:3|1:3,0:0:0:0:
360,130,85829,2,0,P|342:163|326:221,1,80,10|14,1:2|3:3,0:0:0:0:
212,22,86186,5,2,1:2:0:0:
329,60,86365,1,8,3:3:0:0:
225,128,86544,1,8,3:3:0:0:
78,64,86722,1,0,3:0:0:0:
62,50,86811,1,8,3:0:0:0:
59,28,86901,5,4,3:2:0:0:
43,168,87079,1,0,1:0:0:0:
225,128,87258,2,0,P|212:165|201:223,1,80,10|0,1:2|1:0,0:0:0:0:
129,319,87615,5,2,1:2:0:0:
271,255,87794,1,10,3:3:0:0:
203,357,87972,1,10,3:2:0:0:
128,241,88151,1,2,1:2:0:0:
225,128,88329,6,0,P|292:99|324:78,1,80,14|0,3:3|1:0,0:0:0:0:
435,117,88686,2,0,P|458:100|458:34,1,80,10|0,1:2|1:0,0:0:0:0:
323,21,89044,5,2,1:2:0:0:
361,149,89222,1,10,3:3:0:0:
485,206,89401,1,10,3:2:0:0:
467,284,89579,1,2,1:2:0:0:
345,351,89758,6,0,P|332:313|294:259,1,80,14|0,3:3|1:0,0:0:0:0:
221,200,90115,1,10,1:2:0:0:
106,279,90294,1,0,1:0:0:0:
6,185,90472,5,2,1:2:0:0:
142,210,90651,1,10,3:3:0:0:
186,108,90829,1,10,3:2:0:0:
67,28,91008,1,2,1:2:0:0:
5,93,91186,6,0,P|52:103|93:116,1,80,14|0,3:3|1:0,0:0:0:0:
247,60,91544,2,0,P|281:44|294:-11,1,80,10|0,1:2|1:0,0:0:0:0:
461,46,91901,1,2,1:2:0:0:
390,164,92079,1,10,3:3:0:0:
436,267,92258,1,10,3:2:0:0:
510,211,92436,1,2,1:2:0:0:
359,237,92615,6,0,P|350:280|340:323,1,80,14|0,3:3|1:0,0:0:0:0:
157,336,92972,1,10,1:2:0:0:
238,279,93151,1,0,1:0:0:0:
272,350,93329,5,2,1:2:0:0:
130,235,93508,1,10,3:3:0:0:
0,219,93686,1,10,3:2:0:0:
88,301,93865,1,2,1:2:0:0:
201,194,94044,6,0,P|241:176|268:139,1,80,14|0,3:3|1:0,0:0:0:0:
355,10,94401,2,0,P|364:38|385:95,1,80,10|0,1:2|1:0,0:0:0:0:
473,171,94758,5,2,1:2:0:0:
342,156,94936,1,10,3:3:0:0:
241,62,95115,1,10,3:2:0:0:
165,98,95294,1,2,1:2:0:0:
65,14,95472,6,0,P|73:53|95:110,1,80,12|0,3:3|1:0,0:0:0:0:
212,234,95829,2,0,P|198:277|152:298,1,80,10|0,1:2|1:0,0:0:0:0:
22,243,96186,2,0,P|1:224|10:168,1,80,10|8,3:3|3:3,0:0:0:0:
158,137,96544,2,0,P|206:153|253:161,1,80,10|0,3:2|1:0,0:0:0:0:
414,206,96901,5,14,3:3:0:0:
457,80,97079,1,8,3:3:0:0:
317,153,97258,5,8,3:2:0:0:
275,66,97436,1,0,3:0:0:0:
224,263,97615,5,0,1:0:0:0:
298,230,97794,1,8,3:3:0:0:
379,288,97972,1,8,3:2:0:0:
357,384,98151,1,8,3:2:0:0:
341,376,98240,1,8,3:2:0:0:
333,360,98329,5,4,3:2:0:0:
453,316,98508,1,0,1:0:0:0:
443,169,98686,2,0,P|403:158|351:138,1,80,10|0,1:2|1:0,0:0:0:0:
179,84,99044,5,2,1:2:0:0:
280,56,99222,1,10,3:3:0:0:
310,194,99401,1,10,3:2:0:0:
184,165,99579,1,2,1:2:0:0:
88,277,99758,6,0,P|110:318|135:374,1,80,14|0,3:3|1:0,0:0:0:0:
289,363,100115,2,0,P|310:354|300:286,1,80,10|0,1:2|1:0,0:0:0:0:
238,135,100472,5,2,1:2:0:0:
158,242,100651,1,10,3:3:0:0:
42,227,100829,1,10,3:2:0:0:
0,154,101008,1,2,1:2:0:0:
104,57,101186,6,0,P|155:73|185:78,1,80,6|0,3:3|1:0,0:0:0:0:
286,27,101544,1,10,1:2:0:0:
318,157,101722,1,0,1:0:0:0:
426,248,101901,5,2,1:2:0:0:
474,138,102079,1,10,3:3:0:0:
353,87,102258,1,10,3:2:0:0:
401,172,102436,1,2,1:2:0:0:
422,37,102615,6,0,P|468:22|511:16,1,80,6|0,3:3|1:0,0:0:0:0:
285,129,102972,2,0,P|253:119|219:82,1,80,10|0,1:2|1:0,0:0:0:0:
87,79,103329,5,2,1:2:0:0:
196,175,103508,1,10,3:3:0:0:
73,233,103686,1,10,3:2:0:0:
35,311,103865,1,2,1:2:0:0:
199,361,104044,6,0,P|187:304|184:274,1,80,6|0,3:3|1:0,0:0:0:0:
35,162,104401,1,10,1:2:0:0:
155,112,104579,1,0,1:0:0:0:
52,35,104758,5,2,1:2:0:0:
113,192,104936,1,10,3:3:0:0:
234,218,105115,1,10,3:2:0:0:
272,122,105294,1,2,1:2:0:0:
402,220,105472,6,0,P|422:258|437:296,1,80,14|0,3:3|1:0,0:0:0:0:
290,358,105829,1,10,1:2:0:0:
389,380,106008,1,0,1:0:0:0:
496,223,106186,5,2,1:2:0:0:
355,308,106365,1,10,3:3:0:0:
251,231,106544,1,10,3:2:0:0:
287,137,106722,1,2,1:2:0:0:
150,90,106901,6,0,P|113:105|48:120,1,80,14|0,3:3|1:0,0:0:0:0:
258,12,107258,2,0,P|292:26|315:65,1,80,10|0,1:2|1:0,0:0:0:0:
234,209,107615,2,0,P|211:208|174:150,1,80,2|8,1:2|3:3,0:0:0:0:
375,114,107972,2,0,P|353:174|345:206,1,80,10|0,3:2|1:0,0:0:0:0:
259,305,108329,5,6,3:3:0:0:
360,344,108508,1,0,3:0:0:0:
495,228,108686,5,8,3:2:0:0:
370,264,108865,1,0,3:0:0:0:
303,150,109044,5,0,1:0:0:0:
375,114,109222,1,8,3:3:0:0:
403,19,109401,1,10,3:2:0:0:
504,129,109579,1,2,1:2:0:0:
309,73,109758,6,0,P|262:53|228:32,1,80,6|0,3:3|1:0,0:0:0:0:
101,155,110115,1,8,1:2:0:0:
101,155,110294,1,0,1:0:0:0:
178,98,110472,2,0,P|184:135|197:195,1,80,2|8,1:2|3:3,0:0:0:0:
345,346,110829,2,0,P|357:272|382:228,1,120,10|0,3:2|0:0,0:0:0:0:
393,223,111186,6,0,P|328:204|291:177,1,80,6|0,3:3|1:0,0:0:0:0:
189,257,111544,1,8,1:2:0:0:
189,257,111722,1,2,1:2:0:0:
254,343,111901,2,0,P|265:291|283:248,1,80,0|8,1:0|3:3,0:0:0:0:
207,142,112258,1,10,3:2:0:0:
62,209,112436,1,0,1:0:0:0:
51,224,112526,1,0,0:0:0:0:
54,242,112615,5,14,3:2:0:0:
165,206,112794,1,8,3:3:0:0:
103,74,112972,5,8,3:2:0:0:
25,53,113151,1,8,3:3:0:0:
103,155,113329,5,8,3:2:0:0:
232,87,113508,1,8,3:3:0:0:
244,232,113686,5,8,3:2:0:0:
165,206,113865,1,8,3:3:0:0:
275,348,114044,5,12,3:2:0:0:
275,348,115472,6,0,P|279:306|286:272,3,60.0000022888184,6|10|2|10,1:2|1:2|1:2|1:2,0:0:0:0:
159,261,116186,2,0,P|127:273|83:280,3,60.0000022888184,6|10|2|10,1:2|1:2|1:2|1:2,0:0:0:0:
213,122,116901,6,0,P|188:96|168:77,3,60.0000022888184,6|10|2|10,1:2|1:2|1:2|1:2,0:0:0:0:
265,180,117615,2,0,P|244:212|224:243,1,60.0000022888184,6|10,1:2|1:2,0:0:0:0:
50,135,117972,2,0,P|78:166|92:191,1,60.0000022888184,2|10,1:2|1:2,0:0:0:0:
211,307,118329,6,0,P|177:321|148:342,3,60.0000022888184,6|10|2|10,1:2|1:2|1:2|1:2,0:0:0:0:
380,259,119044,2,0,P|365:244|326:227,3,60.0000022888184,6|10|2|10,1:2|1:2|1:2|1:2,0:0:0:0:
293,321,119758,6,0,P|278:360|269:390,3,60.0000022888184,6|10|2|10,1:2|1:2|1:2|1:2,0:0:0:0:
220,227,120472,2,0,P|206:193|184:158,1,60.0000022888184,6|10,1:2|1:2,0:0:0:0:
315,22,120829,2,0,P|295:43|287:87,1,60.0000022888184,2|10,1:2|1:2,0:0:0:0:
159,104,121186,6,0,P|132:96|97:80,1,60.0000022888184,4|10,3:3|1:2,0:0:0:0:
102,83,121544,1,2,1:2:0:0:
237,134,121722,1,10,1:2:0:0:
132,212,121901,2,0,P|130:244|137:276,1,60.0000022888184,6|10,1:2|1:2,0:0:0:0:
294,332,122258,2,0,P|322:295|337:280,1,60.0000022888184,2|10,1:2|1:2,0:0:0:0:
449,216,122615,6,0,P|423:208|396:190,1,60.0000022888184,4|10,1:2|1:2,0:0:0:0:
413,292,122972,1,0,1:0:0:0:
319,207,123151,1,10,1:2:0:0:
439,117,123329,6,0,P|454:85|478:48,1,60.0000022888184,6|8,1:2|1:2,0:0:0:0:
270,12,123686,2,0,P|279:34|294:70,1,60.0000022888184,2|8,1:2|1:2,0:0:0:0:
88,138,124044,6,0,P|59:129|16:119,1,60.0000022888184,4|10,1:3|1:2,0:0:0:0:
30,121,124401,1,2,1:2:0:0:
153,22,124579,1,10,1:2:0:0:
168,161,124758,6,0,P|197:193|209:213,1,60.0000022888184,6|10,1:2|1:2,0:0:0:0:
55,308,125115,2,0,P|68:271|78:250,1,60.0000022888184,0|10,1:0|1:2,0:0:0:0:
259,321,125472,5,6,1:2:0:0:
150,361,125651,1,10,1:2:0:0:
158,269,125829,1,2,1:2:0:0:
40,184,126008,1,10,1:2:0:0:
103,79,126186,6,0,P|88:51|48:28,1,60.0000022888184,6|8,1:2|1:2,0:0:0:0:
234,136,126544,2,0,P|285:149|313:163,1,60.0000022888184,2|8,1:2|1:2,0:0:0:0:
441,90,126901,6,0,P|469:59|474:23,1,60.0000022888184,4|10,1:3|1:2,0:0:0:0:
474,42,127258,1,0,1:0:0:0:
333,85,127436,1,10,1:2:0:0:
429,226,127615,6,0,P|435:239|451:285,1,60.0000022888184,6|10,1:2|1:2,0:0:0:0:
279,207,127972,2,0,P|277:178|312:136,1,60.0000022888184,2|10,1:2|1:2,0:0:0:0:
479,163,128329,5,6,1:2:0:0:
348,249,128508,1,10,1:2:0:0:
450,282,128686,1,2,1:2:0:0:
422,355,128865,1,10,1:2:0:0:
288,304,129044,6,0,P|275:340|260:374,1,60.0000022888184,4|8,1:2|1:2,0:0:0:0:
114,281,129401,2,0,P|97:262|61:240,1,60.0000022888184,2|8,1:2|1:2,0:0:0:0:
70,28,129758,6,0,P|126:49|166:54,1,80,8|8,1:2|1:2,0:0:0:0:
145,52,130651,6,0,P|183:17|224:5,1,80,8|0,3:2|0:0,0:0:0:0:
368,79,131008,1,8,3:2:0:0:
454,38,131186,5,2,1:3:0:0:
347,156,131365,1,2,1:3:0:0:
270,75,131544,1,2,1:3:0:0:
425,132,131722,1,2,1:3:0:0:
294,216,131901,6,0,P|201:198|116:168,2,160,4|0|12,3:3|0:0|3:3,0:0:0:0:
447,246,132972,2,0,P|473:291|482:340,1,80,10|0,1:2|3:0,0:0:0:0:
417,371,133329,1,2,1:2:0:0:
283,314,133508,2,0,P|252:297|203:291,1,80,10|10,3:3|1:2,0:0:0:0:
37,204,133865,6,0,P|92:190|140:171,1,80,0|8,1:0|3:3,0:0:0:0:
185,220,134222,1,2,1:2:0:0:
274,168,134401,1,10,1:2:0:0:
285,37,134579,1,2,1:2:0:0:
85,14,134758,5,2,1:2:0:0:
153,149,134936,1,10,3:3:0:0:
231,93,135115,1,10,1:2:0:0:
205,19,135294,1,2,1:2:0:0:
83,93,135472,6,0,P|38:81|-8:66,1,80,14|0,3:3|1:0,0:0:0:0:
78,220,135829,2,0,P|94:270|100:310,1,80,10|0,1:2|3:0,0:0:0:0:
254,303,136186,1,2,1:2:0:0:
159,355,136365,1,2,3:2:0:0:
6,255,136544,1,8,1:2:0:0:
135,159,136722,1,2,1:2:0:0:
199,206,136901,6,0,P|235:219|277:228,1,80,8|2,3:3|1:2,0:0:0:0:
339,182,137258,1,10,1:2:0:0:
408,75,137436,1,2,1:2:0:0:
265,14,137615,5,2,1:2:0:0:
313,106,137794,1,10,3:3:0:0:
423,178,137972,1,10,1:2:0:0:
399,259,138151,1,2,1:2:0:0:
298,302,138329,6,0,P|311:340|324:389,1,80,14|0,3:3|1:0,0:0:0:0:
494,307,138686,2,0,P|502:278|468:225,1,80,10|0,1:2|3:0,0:0:0:0:
423,178,139044,1,2,1:2:0:0:
332,36,139222,2,0,P|387:56|414:64,1,80,10|10,3:3|1:2,0:0:0:0:
486,37,139579,1,2,1:2:0:0:
352,128,139758,6,0,P|338:168|314:221,1,80,8|2,3:3|1:2,0:0:0:0:
253,234,140115,1,10,1:2:0:0:
173,167,140294,1,2,1:2:0:0:
83,47,140472,5,2,1:2:0:0:
184,9,140651,1,10,3:3:0:0:
280,93,140829,1,10,1:2:0:0:
173,167,141008,1,2,1:2:0:0:
83,47,141186,6,0,P|66:43|13:-3,1,80,14|0,3:3|1:0,0:0:0:0:
43,191,141544,2,0,P|54:219|63:285,1,80,8|0,1:2|3:0,0:0:0:0:
62,267,141811,1,0,1:0:0:0:
62,267,141901,5,0,1:0:0:0:
212,318,142079,1,10,3:3:0:0:
300,203,142258,1,8,1:2:0:0:
169,250,142436,1,2,1:2:0:0:
325,302,142615,6,0,P|352:343|396:367,1,80,10|0,3:3|1:0,0:0:0:0:
485,265,142972,1,8,1:2:0:0:
407,187,143151,1,0,1:0:0:0:
303,159,143329,5,0,1:0:0:0:
459,126,143508,1,8,3:3:0:0:
335,37,143686,2,0,P|305:62|249:99,1,80,8|0,1:2|1:0,0:0:0:0:
106,121,144044,6,0,P|80:106|41:48,1,80,12|0,3:3|1:0,0:0:0:0:
225,181,144401,2,0,P|220:216|176:252,1,80,10|0,1:2|3:0,0:0:0:0:
113,228,144758,1,2,1:2:0:0:
19,325,144936,2,0,P|69:337|108:346,1,80,10|10,3:3|1:2,0:0:0:0:
168,384,145294,1,0,1:0:0:0:
295,277,145472,6,0,P|341:292|362:324,1,80,8|2,3:3|1:2,0:0:0:0:
432,350,145829,1,10,1:2:0:0:
512,246,146008,1,2,1:2:0:0:
358,174,146186,5,2,1:2:0:0:
291,122,146365,1,10,3:3:0:0:
307,33,146544,1,10,1:2:0:0:
423,8,146722,1,2,1:2:0:0:
510,158,146901,6,0,P|481:169|428:198,1,80,14|0,3:3|1:0,0:0:0:0:
299,278,147258,2,0,P|272:271|243:205,1,80,10|0,1:2|3:0,0:0:0:0:
204,163,147615,1,2,1:2:0:0:
301,59,147794,1,2,3:2:0:0:
141,112,147972,1,8,1:2:0:0:
284,165,148151,1,2,1:2:0:0:
164,231,148329,6,0,P|127:250|84:265,1,80,8|2,3:3|1:2,0:0:0:0:
32,205,148686,1,10,1:2:0:0:
82,50,148865,1,2,1:2:0:0:
5,134,149044,5,2,1:2:0:0:
149,156,149222,1,10,3:3:0:0:
222,61,149401,1,10,1:2:0:0:
153,14,149579,1,0,1:0:0:0:
72,181,149758,6,0,P|84:207|101:269,1,80,12|0,3:3|1:0,0:0:0:0:
312,297,150115,1,8,1:2:0:0:
176,289,150294,2,0,P|203:276|256:245,1,80,2|0,3:2|1:0,0:0:0:0:
418,207,150651,1,8,3:3:0:0:
287,127,150829,2,0,P|306:161|337:185,1,80,8|0,1:2|1:0,0:0:0:0:
468,145,151186,6,0,P|491:121|512:61,1,80,8|0,3:3|1:0,0:0:0:0:
412,9,151544,1,8,1:2:0:0:
502,216,151722,1,2,1:2:0:0:
287,127,151901,5,2,1:2:0:0:
340,40,152079,1,10,3:3:0:0:
227,177,152258,1,10,1:2:0:0:
165,116,152436,1,2,1:2:0:0:
269,247,152615,6,0,P|241:275|214:342,1,80,14|0,3:3|1:0,0:0:0:0:
83,274,152972,2,0,P|48:256|19:229,1,80,8|0,1:2|3:0,0:0:0:0:
18,228,153240,1,0,1:0:0:0:
18,228,153329,1,0,1:0:0:0:
143,330,153508,1,8,3:3:0:0:
218,193,153686,1,10,1:2:0:0:
88,128,153865,1,2,1:2:0:0:
54,45,154044,5,10,3:3:0:0:
181,0,154222,1,0,1:0:0:0:
137,195,154401,1,8,1:2:0:0:
255,262,154579,1,0,1:0:0:0:
359,129,154758,5,0,1:0:0:0:
485,213,154936,1,8,3:3:0:0:
480,232,155025,1,0,3:0:0:0:
475,251,155114,1,8,3:2:0:0:
470,271,155203,1,0,3:0:0:0:
465,290,155293,1,0,3:0:0:0:
461,310,155382,1,0,3:0:0:0:
456,329,155471,5,4,3:2:0:0:
338,277,155651,1,0,0:0:0:0:
359,129,155829,2,0,P|319:142|259:167,1,95.9999970703126,8|0,1:2|3:0,0:0:0:0:
128,244,156186,5,2,1:2:0:0:
23,214,156365,1,10,3:3:0:0:
160,316,156544,1,10,1:2:0:0:
269,162,156722,6,0,P|281:120|296:56,1,95.9999970703126,2|8,1:2|3:3,0:0:0:0:
83,22,157079,2,0,P|106:83|116:127,1,95.9999970703126,0|8,1:2|1:2,0:0:0:0:
226,227,157436,1,0,1:2:0:0:
364,128,157615,5,0,1:2:0:0:
198,103,157794,1,10,3:3:0:0:
311,229,157972,1,10,1:2:0:0:
201,300,158151,1,2,1:2:0:0:
121,193,158329,5,10,3:3:0:0:
47,230,158508,1,2,1:2:0:0:
106,318,158686,2,0,P|149:309|209:297,1,95.9999970703126,10|0,1:2|3:0,0:0:0:0:
424,299,159044,2,0,P|449:329|480:382,2,95.9999970703126,0|8|8,1:2|3:3|1:2,0:0:0:0:
499,183,159579,1,0,1:0:0:0:
362,245,159758,5,8,3:3:0:0:
289,142,159936,2,0,P|332:158|399:171,1,95.9999970703126,0|8,1:2|1:2,0:0:0:0:
484,46,160294,1,0,1:2:0:0:
345,8,160472,5,0,1:2:0:0:
426,102,160651,1,8,3:3:0:0:
243,77,160829,2,0,P|161:94|73:118,1,143.999995605469,10|0,1:2|0:0,0:0:0:0:
89,100,161186,6,0,P|76:150|51:213,1,95.9999970703126,14|0,3:3|1:0,0:0:0:0:
143,325,161544,1,8,1:2:0:0:
47,271,161722,1,0,3:0:0:0:
197,139,161901,5,2,1:2:0:0:
289,200,162079,1,10,3:3:0:0:
125,251,162258,1,10,1:2:0:0:
270,278,162436,6,0,P|300:314|329:363,1,95.9999970703126,2|8,1:2|3:3,0:0:0:0:
463,295,162794,1,0,1:2:0:0:
361,167,162972,2,0,P|374:115|391:74,1,95.9999970703126,8|0,1:2|1:2,0:0:0:0:
495,171,163329,5,0,1:2:0:0:
351,246,163508,1,10,3:3:0:0:
427,364,163686,1,10,1:2:0:0:
463,295,163865,1,2,1:2:0:0:
356,324,164044,6,0,P|333:278|280:135,1,191.999994140625,14|8,3:3|1:2,0:0:0:0:
394,38,164579,1,0,3:0:0:0:
481,140,164758,2,0,P|433:129|385:116,1,95.9999970703126,2|10,1:2|3:3,0:0:0:0:
245,78,165115,1,10,1:2:0:0:
192,162,165294,6,0,P|174:117|151:75,1,95.9999970703126,2|10,1:2|3:3,0:0:0:0:
306,27,165651,1,2,1:2:0:0:
246,224,165829,1,10,1:2:0:0:
112,187,166008,1,0,1:2:0:0:
292,159,166186,5,2,1:2:0:0:
192,283,166365,1,10,3:3:0:0:
51,239,166544,1,10,1:2:0:0:
179,361,166722,1,0,1:0:0:0:
296,237,166901,6,0,P|324:284|351:333,1,95.9999970703126,14|2,3:3|1:2,0:0:0:0:
424,331,167258,1,10,1:2:0:0:
503,205,167436,1,2,3:2:0:0:
436,251,167615,5,2,1:2:0:0:
353,185,167794,1,10,3:3:0:0:
229,219,167972,1,10,1:2:0:0:
158,97,168151,1,2,1:2:0:0:
16,121,168329,5,10,3:3:0:0:
81,70,168508,1,2,1:2:0:0:
162,175,168686,6,0,P|151:202|135:255,2,63.9999980468751,10|2|2,1:2|1:2|1:2,0:0:0:0:
260,221,169044,2,0,P|249:248|233:301,2,63.9999980468751,2|2|2,1:2|1:2|1:3,0:0:0:0:
354,181,169401,5,10,1:2:0:0:
377,176,169490,1,2,1:2:0:0:
398,165,169579,1,2,1:2:0:0:
415,148,169668,1,2,1:2:0:0:
426,127,169758,6,0,P|410:218|399:291,1,143.999995605469,14|0,3:2|0:0,0:0:0:0:
388,281,170115,2,0,P|428:323|461:365,1,95.9999970703126,8|0,1:2|3:0,0:0:0:0:
485,261,170472,1,0,1:2:0:0:
331,338,170651,1,8,3:3:0:0:
223,164,170829,1,8,1:2:0:0:
396,54,171008,6,0,P|337:41|295:31,1,95.9999970703126,2|8,1:2|3:3,0:0:0:0:
160,122,171365,1,2,1:2:0:0:
268,229,171544,1,10,1:2:0:0:
389,179,171722,1,2,1:2:0:0:
238,304,171901,6,0,P|212:307|137:338,1,95.9999970703126,2|8,1:2|3:3,0:0:0:0:
97,169,172258,2,0,P|70:110|39:12,1,143.999995605469,8|0,1:2|0:0,0:0:0:0:
60,21,172615,5,14,3:3:0:0:
81,31,172704,1,2,0:2:0:0:
102,42,172793,1,2,1:2:0:0:
124,53,172882,1,2,0:2:0:0:
145,64,172972,1,10,1:2:0:0:
316,101,173151,5,2,3:2:0:0:
294,111,173240,1,2,0:2:0:0:
275,125,173329,1,2,1:2:0:0:
259,142,173418,1,2,0:2:0:0:
247,163,173508,1,2,3:2:0:0:
149,269,173686,6,0,P|127:259|75:250,2,47.9999985351563,10|2|2,1:2|0:2|1:2,0:0:0:0:
13,206,174044,5,10,3:3:0:0:
35,197,174133,1,2,0:2:0:0:
57,187,174222,1,2,1:2:0:0:
78,176,174311,1,2,0:2:0:0:
99,164,174401,1,10,1:2:0:0:
224,238,174579,5,2,3:2:0:0:
235,258,174668,1,2,0:2:0:0:
253,274,174757,1,2,1:2:0:0:
275,283,174846,1,2,0:2:0:0:
299,284,174936,1,2,3:2:0:0:
462,186,175115,6,0,P|487:177|516:171,2,47.9999985351563,10|2|2,1:2|0:2|1:2,0:0:0:0:
375,79,175472,5,10,3:2:0:0:
398,83,175561,1,2,0:2:0:0:
422,88,175650,1,2,1:2:0:0:
445,93,175739,1,2,0:2:0:0:
468,99,175829,1,10,1:2:0:0:
433,261,176008,5,2,3:2:0:0:
410,268,176097,1,2,0:2:0:0:
389,280,176186,1,2,1:2:0:0:
371,296,176275,1,2,0:2:0:0:
357,315,176365,1,2,3:2:0:0:
219,339,176544,6,0,P|200:311|181:292,2,47.9999985351563,10|2|2,1:2|0:2|3:2,0:0:0:0:
321,232,176901,5,10,3:3:0:0:
323,214,176990,1,2,0:2:0:0:
325,196,177079,1,2,1:2:0:0:
327,178,177168,1,2,0:2:0:0:
329,160,177258,1,10,1:2:0:0:
331,142,177347,1,2,0:2:0:0:
333,124,177436,1,2,1:2:0:0:
335,106,177525,1,2,0:2:0:0:
337,88,177615,5,2,1:2:0:0:
475,35,177794,1,0,3:0:0:0:
459,151,177972,1,8,3:2:0:0:
370,190,178151,1,8,3:2:0:0:
355,180,178240,1,8,3:2:0:0:
349,163,178329,6,0,P|243:183|91:223,1,240.000009155274,4|10,3:3|3:3,0:0:0:0:
115,215,179401,1,2,3:0:0:0:
59,94,179758,6,0,P|47:69|22:31,1,60.0000022888184,2|0,1:2|0:0,0:0:0:0:
190,69,180115,2,0,P|161:93|132:107,1,60.0000022888184,2|0,3:0|0:0,0:0:0:0:
268,43,180472,2,0,P|320:61|398:89,1,120.000004577637,10|0,3:2|1:0,0:0:0:0:
381,82,181186,6,0,P|396:116|405:159,1,60.0000022888184,10|0,3:3|0:0,0:0:0:0:
372,275,181544,1,8,1:3:0:0:
448,243,181722,1,8,1:2:0:0:
372,275,181901,2,0,P|333:258|310:245,1,60.0000022888184,10|10,3:2|1:3,0:0:0:0:
200,168,182258,2,0,P|166:187|137:225,1,60.0000022888184,0|0,3:0|0:0,0:0:0:0:
118,312,182615,6,0,P|127:339|138:381,1,60.0000022888184,2|0,1:2|0:0,0:0:0:0:
72,205,182972,2,0,P|63:232|52:274,1,60.0000022888184,2|0,3:2|0:0,0:0:0:0:
129,151,183329,2,0,P|115:125|46:66,1,120.000004577637,10|0,3:2|1:0,0:0:0:0:
47,66,184044,6,0,P|187:81|251:14,1,240.000009155274,14|10,3:2|3:3,0:0:0:0:
249,16,185115,1,2,3:2:0:0:
397,99,185472,6,0,P|370:117|348:158,1,60.0000022888184,2|0,1:2|0:0,0:0:0:0:
229,169,185829,2,0,P|275:180|293:192,1,60.0000022888184,2|0,3:2|0:0,0:0:0:0:
162,216,186186,2,0,P|117:205|34:176,1,120.000004577637,10|0,3:2|1:0,0:0:0:0:
47,181,186901,6,0,P|64:211|67:244,1,60.0000022888184,10|0,3:2|0:0,0:0:0:0:
126,344,187258,1,8,1:3:0:0:
50,310,187436,1,8,1:2:0:0:
126,344,187615,2,0,P|165:333|201:326,1,60.0000022888184,10|10,3:2|1:3,0:0:0:0:
309,256,187972,2,0,P|335:259|371:281,1,60.0000022888184,8|0,3:2|0:0,0:0:0:0:
494,312,188329,6,0,P|473:339|465:370,1,60.0000022888184,2|0,1:2|0:0,0:0:0:0:
418,198,188686,2,0,P|427:226|446:249,1,60.0000022888184,2|0,3:2|0:0,0:0:0:0:
362,139,189044,2,0,P|415:104|461:72,1,120.000004577637,10|0,3:2|1:0,0:0:0:0:
461,71,189758,6,0,P|360:57|215:12,1,240.000009155274,14|10,3:2|3:3,0:0:0:0:
228,17,190829,1,2,3:2:0:0:
245,193,191186,6,0,P|258:225|263:271,1,60.0000022888184,2|0,1:2|0:0,0:0:0:0:
390,340,191544,2,0,P|430:348|470:368,1,60.0000022888184,2|0,3:2|0:0,0:0:0:0:
338,281,191901,2,0,P|293:293|210:325,1,120.000004577637,10|0,3:3|1:0,0:0:0:0:
224,318,192615,6,0,P|191:310|168:292,1,60.0000022888184,14|0,3:2|3:0,0:0:0:0:
86,167,192972,1,8,3:3:0:0:
162,140,193151,1,0,1:0:0:0:
48,238,193329,6,0,P|34:223|-6:190,1,60.0000022888184,14|0,3:2|3:0,0:0:0:0:
53,32,193686,1,10,3:3:0:0:
132,59,193865,1,0,1:0:0:0:
291,26,194044,6,0,P|271:64|266:102,1,60.0000022888184,14|0,3:2|3:0,0:0:0:0:
288,204,194401,1,10,3:3:0:0:
384,146,194579,1,12,3:2:0:0:
445,201,194758,5,2,1:2:0:0:
233,150,194936,1,4,3:2:0:0:
233,150,195472,6,0,P|213:176|197:212,2,60.0000022888184,2|2|2,0:2|0:2|0:2,0:0:0:0:
380,69,196008,1,2,0:2:0:0:
299,50,196186,2,0,P|303:94|306:129,1,60.0000022888184,2|0,0:2|0:0,0:0:0:0:
413,175,196544,2,0,P|395:212|399:240,1,60.0000022888184,2|0,0:2|0:0,0:0:0:0:
284,291,196901,6,0,P|294:313|320:339,1,60.0000022888184,2|2,0:2|0:2,0:0:0:0:
460,282,197258,1,2,0:2:0:0:
396,230,197436,2,0,P|337:224|275:201,1,120.000004577637,2|2,0:2|0:2,0:0:0:0:
115,259,197972,2,0,P|83:287|75:323,1,60.0000022888184,2|2,0:2|0:2,0:0:0:0:
44,169,198329,6,0,P|29:156|4:117,2,60.0000022888184,2|2|2,0:2|0:2|0:2,0:0:0:0:
163,193,198865,1,2,0:2:0:0:
219,248,199044,2,0,P|203:281|180:324,1,60.0000022888184,2|0,0:2|0:0,0:0:0:0:
331,211,199401,2,0,P|374:213|403:215,1,60.0000022888184,2|0,0:2|0:0,0:0:0:0:
431,64,199758,6,0,P|406:71|369:105,1,60.0000022888184,2|2,0:2|0:2,0:0:0:0:
256,179,200115,1,2,0:2:0:0:
299,110,200294,2,0,P|256:98|185:33,1,120.000004577637,2|2,0:2|0:2,0:0:0:0:
116,170,200829,2,0,P|81:207|69:232,1,60.0000022888184,2|2,0:2|0:2,0:0:0:0:
141,265,201097,1,2,0:2:0:0:
141,265,201186,6,0,P|156:302|170:347,1,80,6|0,3:2|1:0,0:0:0:0:
341,265,201544,1,10,3:2:0:0:
266,242,201722,1,2,3:2:0:0:
379,146,201901,2,0,P|436:133|487:114,1,80,2|0,1:2|3:0,0:0:0:0:
263,16,202258,2,0,P|238:68|225:110,1,80,10|0,3:2|3:0,0:0:0:0:
85,87,202615,6,0,P|121:103|166:133,1,80,10|0,3:3|1:0,0:0:0:0:
324,71,202972,1,10,3:2:0:0:
201,196,203151,2,0,P|146:208|66:237,1,120,2|0,3:2|0:0,0:0:0:0:
62,223,203508,1,2,3:2:0:0:
170,284,203686,1,10,1:2:0:0:
155,124,203865,1,2,1:2:0:0:
281,219,204044,6,0,P|290:242|327:296,1,80,10|2,3:3|1:2,0:0:0:0:
474,158,204401,1,10,3:2:0:0:
436,233,204579,1,2,3:2:0:0:
487,306,204758,5,2,1:2:0:0:
364,203,204936,1,0,3:0:0:0:
441,85,205115,1,10,3:2:0:0:
421,80,205204,1,8,3:2:0:0:
402,75,205293,1,8,3:2:0:0:
383,69,205382,1,8,3:2:0:0:
364,63,205472,5,0,1:0:0:0:
233,150,205651,2,0,P|278:124|305:115,1,80,6|0,3:2|1:0,0:0:0:0:
134,29,206008,2,0,P|164:66|173:119,1,80,6|0,3:2|1:0,0:0:0:0:
201,224,206365,1,6,3:2:0:0:
80,318,206544,1,0,1:0:0:0:
78,171,206722,1,0,1:0:0:0:
87,152,206811,1,0,1:0:0:0:
106,141,206901,5,4,3:0:0:0:
3,30,207079,2,0,P|77:53|194:76,1,160,2|0,3:2|1:0,0:0:0:0:
333,171,207615,2,0,P|378:155|420:114,1,80,0|2,1:0|1:2,0:0:0:0:
286,2,207972,6,0,P|254:95|249:178,1,160,0|0,3:0|1:0,0:0:0:0:
257,325,208508,1,2,1:3:0:0:
381,240,208686,2,0,P|351:261|285:262,1,80,6|0,1:2|0:0,0:0:0:0:
180,298,209044,5,2,3:3:0:0:
62,229,209222,1,2,3:3:0:0:
128,115,209401,1,2,1:3:0:0:
201,87,209579,1,2,1:3:0:0:
76,7,209758,6,0,P|63:53|30:135,1,120,4|0,3:2|0:0,0:0:0:0:
21,129,210115,1,2,1:2:0:0:
179,180,210294,1,0,3:0:0:0:
95,267,210472,2,0,P|60:274|5:300,1,80,2|0,1:2|3:0,0:0:0:0:
223,286,210829,2,0,P|241:327|270:372,1,80,10|0,1:2|3:0,0:0:0:0:
344,263,211186,6,0,P|358:215|383:141,1,120,10|0,3:3|0:0,0:0:0:0:
364,137,211544,1,10,1:2:0:0:
485,282,211722,2,0,P|442:297|396:321,1,80,2|0,3:2|1:0,0:0:0:0:
271,224,212079,1,2,3:2:0:0:
226,343,212258,2,0,P|191:314|148:286,1,80,8|0,3:2|1:0,0:0:0:0:
57,211,212615,6,0,P|161:187|238:158,1,160,10|10,3:3|1:2,0:0:0:0:
162,294,213151,1,2,3:2:0:0:
232,248,213329,2,0,P|247:290|273:330,1,80,0|2,1:0|3:2,0:0:0:0:
402,350,213686,1,8,3:2:0:0:
457,210,213865,1,2,3:2:0:0:
469,199,213954,1,8,3:2:0:0:
474,183,214044,5,12,3:3:0:0:
375,234,214222,1,0,3:0:0:0:
478,319,214401,1,8,1:2:0:0:
315,282,214579,6,0,P|332:211|343:141,1,120,4|0,3:2|0:0,0:0:0:0:
325,154,214936,1,0,3:0:0:0:
203,87,215115,1,8,3:2:0:0:
357,22,215294,1,0,3:0:0:0:
369,33,215383,1,0,3:0:0:0:
374,49,215473,5,4,3:2:0:0:
490,23,215651,1,0,0:0:0:0:
482,138,215829,2,0,P|433:131|386:118,1,80,10|0,1:2|3:0,0:0:0:0:
211,188,216186,5,2,1:2:0:0:
341,271,216365,1,2,3:2:0:0:
419,206,216544,1,8,1:2:0:0:
260,252,216722,6,0,P|248:312|237:358,1,80,2|10,3:2|3:3,0:0:0:0:
71,221,217079,2,0,P|50:184|31:112,1,80,2|8,1:2|1:2,0:0:0:0:
88,84,217436,1,2,3:2:0:0:
5,284,217615,6,0,P|51:296|101:310,1,80,0|2,1:0|3:2,0:0:0:0:
209,186,217972,1,8,3:2:0:0:
336,309,218151,1,2,1:2:0:0:
387,175,218329,6,0,P|310:150|250:122,1,120,10|0,3:3|0:0,0:0:0:0:
262,119,218686,1,10,1:2:0:0:
308,234,218865,1,2,3:2:0:0:
404,95,219044,5,0,1:0:0:0:
350,32,219222,1,8,1:3:0:0:
512,21,219401,1,8,3:2:0:0:
468,152,219579,1,0,3:0:0:0:
472,169,219669,1,8,3:0:0:0:
481,183,219758,6,0,P|453:228|411:318,1,120,12|0,3:3|0:0,0:0:0:0:
404,298,220115,1,8,1:2:0:0:
200,230,220294,1,4,3:2:0:0:
200,230,220651,5,0,3:2:0:0:
310,170,220829,1,8,3:2:0:0:
163,114,221008,1,8,3:0:0:0:
153,100,221097,1,0,3:2:0:0:
153,83,221186,5,4,3:2:0:0:
84,151,221365,1,0,1:0:0:0:
242,81,221544,2,0,P|230:51|219:-3,1,80,10|0,1:2|3:0,0:0:0:0:
85,36,221901,5,2,1:2:0:0:
218,155,222079,1,2,3:2:0:0:
318,96,222258,1,10,3:2:0:0:
163,211,222436,1,2,3:2:0:0:
348,264,222615,6,0,P|322:272|262:290,1,80,10|0,3:3|1:0,0:0:0:0:
40,233,222972,2,0,P|78:245|109:271,1,80,10|0,1:2|3:0,0:0:0:0:
241,359,223329,5,2,1:2:0:0:
306,197,223508,1,2,3:2:0:0:
431,258,223686,1,10,3:2:0:0:
366,144,223865,1,2,3:2:0:0:
374,128,223954,1,8,3:2:0:0:
389,118,224044,5,14,3:2:0:0:
477,94,224222,1,0,0:0:0:0:
474,193,224401,5,12,3:2:0:0:
320,156,224579,1,0,0:0:0:0:
294,38,224758,5,2,3:2:0:0:
241,132,224936,1,2,3:2:0:0:
333,245,225115,1,14,3:2:0:0:
389,118,225294,1,0,0:0:0:0:
320,156,225472,5,12,3:2:0:0:
232,210,225651,1,0,0:0:0:0:
87,50,225829,5,12,3:2:0:0:
184,79,226008,1,0,0:0:0:0:
104,217,226186,5,8,3:2:0:0:
12,138,226365,1,8,3:2:0:0:
88,312,226544,2,0,P|135:292|183:273,1,80,12|0,3:2|0:0,0:0:0:0:
287,167,226901,5,4,3:2:0:0:
287,167,227079,1,2,1:2:0:0:
454,210,227258,1,10,3:2:0:0:
454,210,227436,1,14,3:3:0:0:
343,275,227615,5,2,1:2:0:0:
429,310,227794,1,2,3:2:0:0:
330,382,227972,1,10,1:2:0:0:
213,303,228151,1,14,1:3:0:0:
98,344,228329,6,0,P|49:362|4:384,1,80,2|6,3:3|1:3,0:0:0:0:
84,189,228686,2,0,P|52:180|32:124,1,80,10|14,1:2|3:3,0:0:0:0:
84,22,229044,2,0,P|138:31|156:57,1,80,2|14,1:2|3:3,0:0:0:0:
172,178,229401,2,0,P|159:222|126:274,1,80,10|14,1:2|1:3,0:0:0:0:
312,340,229758,5,6,3:2:0:0:
312,340,229936,1,2,1:2:0:0:
474,267,230115,1,10,1:2:0:0:
474,267,230294,1,12,3:3:0:0:
337,189,230472,5,2,1:2:0:0:
450,146,230651,1,14,3:3:0:0:
335,34,230829,1,10,1:2:0:0:
287,99,231008,1,14,1:3:0:0:
178,34,231186,6,0,P|134:23|78:14,1,80,10|6,3:3|1:3,0:0:0:0:
137,164,231544,2,0,P|159:202|192:218,1,80,10|14,1:2|3:3,0:0:0:0:
324,307,231901,2,0,P|366:286|379:250,1,80,2|12,1:2|3:3,0:0:0:0:
378,257,232258,1,8,1:2:0:0:
480,85,232615,5,6,3:2:0:0:
480,85,232794,1,2,1:2:0:0:
321,36,232972,1,10,3:2:0:0:
321,36,233151,1,14,3:3:0:0:
371,188,233329,5,2,1:2:0:0:
454,251,233508,1,14,3:3:0:0:
292,218,233686,1,10,1:2:0:0:
260,290,233865,1,14,1:3:0:0:
196,111,234044,6,0,P|178:77|163:19,1,80,10|6,3:3|1:3,0:0:0:0:
331,21,234401,2,0,P|308:22|259:74,1,80,10|14,1:2|3:3,0:0:0:0:
107,120,234758,2,0,P|96:149|118:194,1,80,2|14,1:2|3:3,0:0:0:0:
261,164,235115,2,0,P|309:179|343:194,1,80,10|14,1:2|1:3,0:0:0:0:
461,113,235472,5,6,3:2:0:0:
461,113,235651,1,2,1:2:0:0:
491,285,235829,1,10,3:2:0:0:
491,285,236008,1,14,3:3:0:0:
336,190,236186,5,2,1:2:0:0:
277,246,236365,1,14,3:3:0:0:
160,194,236544,1,10,1:2:0:0:
141,57,236722,1,6,1:3:0:0:
360,5,236901,6,0,P|347:48|337:93,1,80,10|6,3:3|1:3,0:0:0:0:
216,94,237258,2,0,P|229:137|239:182,1,80,10|14,1:2|3:3,0:0:0:0:
328,287,237615,1,2,1:2:0:0:
207,272,237794,1,8,3:3:0:0:
404,252,237972,1,8,3:3:0:0:
149,327,238151,1,0,3:0:0:0:
133,313,238240,1,8,3:0:0:0:
130,291,238330,5,4,3:2:0:0:
38,201,238508,1,0,1:0:0:0:
154,105,238686,2,0,P|203:123|237:140,1,80,10|0,1:2|1:0,0:0:0:0:
397,168,239044,5,2,1:2:0:0:
350,238,239222,1,10,3:3:0:0:
282,64,239401,1,10,3:2:0:0:
250,212,239579,1,2,1:2:0:0:
397,168,239758,6,0,P|439:154|484:134,1,80,14|0,3:3|1:0,0:0:0:0:
417,287,240115,2,0,P|452:319|457:356,1,80,10|0,1:2|1:0,0:0:0:0:
299,348,240472,5,2,1:2:0:0:
187,306,240651,1,10,3:3:0:0:
158,218,240829,1,10,3:2:0:0:
213,163,241008,1,2,1:2:0:0:
97,83,241186,6,0,P|64:76|6:60,1,80,14|0,3:3|1:0,0:0:0:0:
154,28,241544,1,10,1:2:0:0:
283,69,241722,1,0,1:0:0:0:
330,7,241901,5,2,1:2:0:0:
215,112,242079,1,10,3:3:0:0:
359,192,242258,1,10,3:2:0:0:
424,114,242436,1,2,1:2:0:0:
274,193,242615,6,0,P|290:241|300:279,1,80,14|0,3:3|1:0,0:0:0:0:
491,277,242972,2,0,P|454:261|431:229,1,80,10|0,1:2|1:0,0:0:0:0:
512,36,243329,5,2,1:2:0:0:
424,114,243508,1,10,3:3:0:0:
388,6,243686,1,10,3:2:0:0:
502,137,243865,1,2,1:2:0:0:
370,170,244044,6,0,P|337:161|269:136,1,80,14|0,3:3|1:0,0:0:0:0:
111,94,244401,1,10,1:2:0:0:
174,192,244579,1,0,1:0:0:0:
86,311,244758,5,2,1:2:0:0:
232,248,244936,1,10,3:3:0:0:
100,166,245115,1,10,3:2:0:0:
30,235,245294,1,2,1:2:0:0:
170,303,245472,6,0,P|188:344|207:386,1,80,14|0,3:3|1:0,0:0:0:0:
346,288,245829,2,0,P|374:303|425:289,1,80,10|0,1:2|1:0,0:0:0:0:
428,155,246186,5,2,1:2:0:0:
303,211,246365,1,10,3:3:0:0:
273,317,246544,1,10,3:2:0:0:
332,375,246722,1,2,1:2:0:0:
199,277,246901,6,0,P|166:269|92:259,1,80,14|0,3:3|1:0,0:0:0:0:
72,29,247258,2,0,P|131:57|134:66,1,80,10|0,1:2|1:0,0:0:0:0:
104,181,247615,2,0,P|69:198|17:233,1,80,10|8,3:3|3:3,0:0:0:0:
199,277,247972,2,0,P|245:301|282:308,1,80,10|0,3:2|1:0,0:0:0:0:
469,178,248329,5,14,3:3:0:0:
508,248,248508,1,8,3:3:0:0:
336,357,248686,5,8,3:2:0:0:
355,240,248865,1,0,3:0:0:0:
232,145,249044,5,0,1:0:0:0:
306,178,249223,1,8,3:3:0:0:
387,120,249401,1,8,3:2:0:0:
365,24,249580,1,8,3:2:0:0:
349,32,249669,1,8,3:2:0:0:
341,48,249758,5,4,3:2:0:0:
464,31,249936,1,0,1:0:0:0:
461,147,250115,2,0,P|425:132|371:115,1,80,10|0,1:2|1:0,0:0:0:0:
211,35,250472,5,2,1:2:0:0:
277,153,250651,1,10,3:3:0:0:
195,206,250829,1,10,3:2:0:0:
314,84,251008,1,2,1:2:0:0:
140,77,251186,6,0,P|101:63|48:36,1,80,14|0,3:3|1:0,0:0:0:0:
11,196,251544,2,0,P|27:239|36:271,1,80,10|0,1:2|1:0,0:0:0:0:
159,338,251901,5,2,1:2:0:0:
258,279,252079,1,10,3:3:0:0:
299,185,252258,1,10,3:2:0:0:
255,120,252436,1,2,1:2:0:0:
399,105,252615,6,0,P|435:119|478:127,1,80,6|0,3:3|1:0,0:0:0:0:
462,302,252972,1,10,1:2:0:0:
366,232,253151,1,0,1:0:0:0:
475,126,253329,5,2,1:2:0:0:
447,228,253508,1,10,3:3:0:0:
340,161,253686,1,10,3:2:0:0:
323,29,253865,1,2,1:2:0:0:
223,133,254044,6,0,P|175:120|112:111,1,80,6|0,3:3|1:0,0:0:0:0:
66,9,254401,2,0,P|30:34|12:83,1,80,10|0,1:2|1:0,0:0:0:0:
124,266,254758,5,2,1:2:0:0:
178,202,254936,1,10,3:3:0:0:
73,154,255115,1,10,3:2:0:0:
196,42,255294,1,2,1:2:0:0:
328,77,255472,6,0,P|337:100|364:159,1,80,6|0,3:3|1:0,0:0:0:0:
472,41,255829,1,10,1:2:0:0:
442,150,256008,1,0,1:0:0:0:
294,203,256186,5,2,1:2:0:0:
354,334,256365,1,10,3:3:0:0:
493,213,256544,1,10,3:2:0:0:
467,290,256722,1,2,1:2:0:0:
364,240,256901,6,0,P|332:220|272:196,1,80,14|0,3:3|1:0,0:0:0:0:
168,134,257258,2,0,P|124:158|129:203,1,80,10|0,1:2|1:0,0:0:0:0:
218,299,257615,5,2,1:2:0:0:
293,202,257794,1,10,3:3:0:0:
243,104,257972,1,10,3:2:0:0:
296,46,258151,1,2,1:2:0:0:
137,60,258329,6,0,P|105:55|38:47,1,80,14|0,3:3|1:0,0:0:0:0:
23,200,258686,2,0,P|50:243|78:250,1,80,10|0,1:2|1:0,0:0:0:0:
241,101,259044,2,0,P|206:109|165:142,1,80,0|8,1:0|3:3,0:0:0:0:
131,310,259401,2,0,P|166:340|207:333,1,80,10|0,3:2|1:0,0:0:0:0:
343,256,259758,5,4,3:3:0:0:
450,300,259936,1,0,3:0:0:0:
381,150,260115,5,8,3:2:0:0:
245,204,260294,1,0,3:0:0:0:
416,222,260472,5,0,1:0:0:0:
469,64,260651,1,8,3:3:0:0:
356,80,260829,1,10,3:2:0:0:
255,7,261008,1,2,1:2:0:0:
183,84,261186,6,0,P|136:96|93:113,1,80,6|0,3:3|1:0,0:0:0:0:
41,217,261544,1,8,1:2:0:0:
41,217,261722,1,2,1:2:0:0:
138,196,261901,2,0,P|123:233|111:280,1,80,0|8,1:0|3:3,0:0:0:0:
333,290,262258,2,0,P|305:247|267:168,1,120,10|0,3:2|0:0,0:0:0:0:
282,172,262615,6,0,P|241:164|187:145,1,80,6|0,3:3|1:0,0:0:0:0:
242,306,262972,1,8,1:2:0:0:
242,306,263151,1,2,1:2:0:0:
112,271,263329,2,0,P|70:284|24:302,1,80,0|8,1:0|3:3,0:0:0:0:
204,152,263686,1,10,3:2:0:0:
59,85,263864,1,0,1:0:0:0:
48,70,263954,1,0,0:0:0:0:
51,52,264043,5,6,3:2:0:0:
130,171,264222,1,8,3:3:0:0:
260,281,264401,5,8,3:2:0:0:
296,209,264579,1,8,3:3:0:0:
148,249,264758,5,8,3:2:0:0:
227,130,264937,1,8,3:3:0:0:
68,245,265115,5,8,3:2:0:0:
104,317,265293,1,8,3:3:0:0:
260,281,265472,5,12,3:2:0:0:
260,281,266901,6,0,P|311:258|360:243,1,80,6|2,3:2|1:2,0:0:0:0:
434,162,267258,1,10,3:2:0:0:
396,95,267436,1,2,3:2:0:0:
510,39,267615,2,0,P|476:35|409:16,1,80,2|0,1:2|3:0,0:0:0:0:
326,136,267972,2,0,P|278:147|251:188,1,80,10|0,3:2|1:0,0:0:0:0:
75,103,268329,6,0,P|130:113|154:114,1,80,10|2,3:3|1:2,0:0:0:0:
198,222,268686,1,10,3:2:0:0:
81,184,268865,2,0,P|68:235|36:316,1,120,2|0,3:2|0:0,0:0:0:0:
60,312,269222,1,0,3:0:0:0:
183,358,269401,1,10,3:2:0:0:
275,243,269579,1,2,1:2:0:0:
173,145,269758,6,0,P|191:201|200:228,1,80,14|2,3:3|1:2,0:0:0:0:
325,338,270115,1,10,3:2:0:0:
247,318,270294,1,2,3:2:0:0:
360,248,270472,2,0,L|451:265,1,80,2|0,1:2|3:0,0:0:0:0:
421,123,270829,2,0,P|407:95|344:62,1,80,10|0,3:2|3:0,0:0:0:0:
229,105,271186,6,0,P|182:95|141:72,1,80,10|2,3:3|3:2,0:0:0:0:
312,8,271544,1,10,3:2:0:0:
313,126,271722,2,0,P|322:179|347:260,1,120,2|0,3:2|0:0,0:0:0:0:
328,259,272079,1,2,3:2:0:0:
242,182,272258,1,10,3:2:0:0:
391,329,272436,1,2,1:2:0:0:
391,329,272526,1,2,1:2:0:0:
391,329,272615,6,0,P|339:339|288:357,1,80,12|2,3:3|3:2,0:0:0:0:
189,262,272972,1,10,3:2:0:0:
110,237,273151,1,2,3:2:0:0:
89,357,273329,2,0,P|146:342|184:334,1,80,2|0,1:2|3:0,0:0:0:0:
245,206,273686,2,0,P|243:179|205:124,1,80,10|0,3:2|3:0,0:0:0:0:
121,30,274044,6,0,P|70:64|52:87,1,80,10|2,3:3|3:2,0:0:0:0:
146,170,274401,1,10,3:2:0:0:
270,76,274579,2,0,P|334:95|404:107,1,120,2|0,3:2|0:0,0:0:0:0:
402,94,274936,1,2,3:2:0:0:
448,201,275115,1,10,3:2:0:0:
318,313,275294,1,2,1:2:0:0:
461,342,275472,5,14,3:3:0:0:
360,245,275651,1,2,3:2:0:0:
489,269,275829,2,0,P|462:233|442:182,1,80,10|2,3:2|3:2,0:0:0:0:
369,51,276186,5,2,1:2:0:0:
482,131,276365,1,0,3:0:0:0:
329,173,276544,1,8,3:2:0:0:
309,177,276633,1,8,3:2:0:0:
291,185,276722,1,8,3:2:0:0:
273,195,276811,1,10,3:2:0:0:
258,208,276901,5,0,1:0:0:0:
171,87,277079,2,0,P|122:69|89:48,1,80,6|0,3:2|1:0,0:0:0:0:
26,251,277436,2,0,P|62:233|119:237,1,80,6|0,3:2|1:0,0:0:0:0:
224,284,277794,1,6,3:2:0:0:
154,167,277972,1,0,1:0:0:0:
285,84,278151,1,0,3:0:0:0:
307,85,278240,1,0,3:0:0:0:
322,100,278329,6,0,P|340:137|351:175,1,80,6|2,3:2|1:2,0:0:0:0:
280,285,278686,1,10,3:2:0:0:
358,305,278865,1,2,3:2:0:0:
472,231,279044,2,0,P|482:194|502:131,1,80,2|0,1:2|3:0,0:0:0:0:
322,100,279401,2,0,P|301:80|270:29,1,80,10|0,3:2|1:0,0:0:0:0:
434,16,279758,6,0,P|463:56|444:105,1,80,10|2,3:3|1:2,0:0:0:0:
361,167,280115,1,10,3:2:0:0:
413,279,280294,2,0,P|370:255|302:231,1,120,2|0,3:2|0:0,0:0:0:0:
285,241,280651,1,0,3:0:0:0:
440,200,280829,1,10,3:2:0:0:
322,100,281008,1,2,1:2:0:0:
228,180,281186,6,0,P|198:166|132:149,1,80,14|2,3:3|1:2,0:0:0:0:
91,21,281544,1,10,3:2:0:0:
21,66,281722,1,2,3:2:0:0:
84,196,281901,2,0,P|100:229|121:277,1,80,2|0,1:2|3:0,0:0:0:0:
294,352,282258,2,0,P|246:345|208:344,1,80,10|0,3:2|3:0,0:0:0:0:
353,225,282615,6,0,P|379:203|396:154,1,80,10|2,3:3|3:2,0:0:0:0:
371,328,282972,1,10,3:2:0:0:
285,145,283151,2,0,P|274:212|256:281,1,120,2|0,3:2|0:0,0:0:0:0:
244,275,283508,1,2,3:2:0:0:
294,352,283686,1,10,3:2:0:0:
353,225,283865,1,2,1:2:0:0:
353,225,283954,1,0,0:0:0:0:
353,225,284044,6,0,P|360:179|367:135,1,80,12|2,3:3|3:2,0:0:0:0:
282,30,284401,1,10,3:2:0:0:
218,77,284579,1,2,3:2:0:0:
97,52,284758,2,0,P|74:31|28:-5,1,80,2|0,1:2|3:0,0:0:0:0:
123,190,285115,2,0,P|167:170|189:143,1,80,10|0,3:2|3:0,0:0:0:0:
365,145,285472,6,0,P|398:154|444:203,1,80,10|2,3:3|3:2,0:0:0:0:
482,80,285829,1,10,3:2:0:0:
327,215,286008,2,0,P|282:226|196:252,1,120,2|0,3:2|0:0,0:0:0:0:
193,238,286365,1,2,3:2:0:0:
49,175,286544,1,10,3:2:0:0:
152,308,286722,1,2,1:2:0:0:
283,337,286901,5,14,3:3:0:0:
107,373,287079,1,2,3:2:0:0:
70,251,287258,2,0,P|57:294|30:341,1,80,10|2,3:2|3:2,0:0:0:0:
152,308,287615,5,2,1:2:0:0:
247,153,287794,1,0,3:0:0:0:
136,71,287972,1,8,3:2:0:0:
116,76,288061,1,8,3:2:0:0:
97,81,288150,1,8,3:2:0:0:
77,86,288239,1,10,3:2:0:0:
58,89,288329,5,0,1:0:0:0:
191,210,288508,2,0,P|222:247|266:265,1,80,6|0,3:2|1:0,0:0:0:0:
364,349,288865,2,0,P|407:314|467:314,1,80,6|0,3:2|1:0,0:0:0:0:
457,124,289222,2,0,P|400:104|362:79,1,80,6|0,3:2|1:0,0:0:0:0:
213,33,289579,1,0,3:0:0:0:
232,43,289669,1,0,3:0:0:0:
243,61,289758,5,0,0:0:0:0:
172,214,289936,2,0,P|224:191|248:182,1,80,6|0,3:2|1:0,0:0:0:0:
9,84,290294,2,0,P|62:101|96:121,1,80,6|0,3:2|1:0,0:0:0:0:
116,273,290651,1,6,3:2:0:0:
243,316,290829,1,0,1:0:0:0:
223,325,290919,1,0,1:0:0:0:
212,343,291008,1,0,1:0:0:0:
434,259,291365,6,0,P|485:273|529:288,1,80,6|0,3:2|1:0,0:0:0:0:
325,164,291722,2,0,P|375:139|411:130,1,80,6|0,3:2|1:0,0:0:0:0:
186,183,292079,1,14,3:2:0:0:
256,192,292169,12,0,293686,0:0:0:0:
186,183,294044,6,0,P|178:212|172:246,2,60.0000022888184,2|2|2,0:2|0:2|0:2,0:0:0:0:
269,102,294579,1,2,0:2:0:0:
219,43,294758,2,0,P|189:38|147:30,1,60.0000022888184,2|0,0:2|0:0,0:0:0:0:
338,144,295115,2,0,P|368:139|410:131,1,60.0000022888184,2|0,0:2|0:0,0:0:0:0:
315,37,295472,5,10,3:2:0:0:
125,130,295651,1,10,3:2:0:0:
