osu file format v14

[General]
AudioFilename: meme.mp3
AudioLeadIn: 0
PreviewTime: 16713
Countdown: 0
SampleSet: Soft
StackLeniency: 0.7
Mode: 0
LetterboxInBreaks: 0
WidescreenStoryboard: 1

[Editor]
Bookmarks: 18134,28397,38423,48607,58634,68739,78844,90213,100318,107897,110502,115476,120529,125581,131897,152107,156607
DistanceSpacing: 0.8
BeatDivisor: 4
GridSize: 32
TimelineZoom: 3.299999

[Metadata]
Title:SANTA SAN
TitleUnicode:サンタさん
Artist:MOMOIRO CLOVER Z
ArtistUnicode:ももいろクローバーZ
Creator:Sotarks
Version:Milan-'s Insane
Source:
Tags:メリー クリスマス ココナッツ merry christmas coconuts momoclo takagi reni momota kanako ariyasu momoka tamai shiori sasaki ayaka akitoshi corinn doormat irohas mugiwarasekai kalibe kin linada milan- toybot haruto haruto_aizawa
BeatmapID:1473304
BeatmapSetID:695316

[Difficulty]
HPDrainRate:6
CircleSize:4
OverallDifficulty:8
ApproachRate:9
SliderMultiplier:1.6
SliderTickRate:1

[Events]
//Background and Video events
0,0,"exploooosion.jpg",0,0
//Break Periods
2,38623,46665
2,78844,88350
2,110465,113613
//Storyboard Layer 0 (Background)
//Storyboard Layer 1 (Fail)
//Storyboard Layer 2 (Pass)
//Storyboard Layer 3 (Foreground)
//Storyboard Sound Samples

[TimingPoints]
529,315.789473684211,4,2,0,60,1,0
17897,-200,4,2,0,60,0,0
18213,-100,4,2,0,60,0,0
18529,-83.3333333333333,4,2,0,60,0,0
18844,-71.4285714285714,4,2,0,60,0,0
19160,-200,4,2,0,60,0,0
19476,-100,4,2,0,60,0,0
19792,-83.3333333333333,4,2,0,60,0,0
20107,-71.4285714285714,4,2,0,60,0,0
20423,-200,4,2,0,60,0,0
20739,-100,4,2,0,60,0,0
21055,-83.3333333333333,4,2,0,60,0,0
21371,-71.4285714285714,4,2,0,60,0,0
21686,-62.5,4,2,0,60,0,0
22002,-166.666666666667,4,2,0,60,0,0
22318,-100,4,2,0,60,0,0
22634,-71.4285714285714,4,2,0,60,0,0
22792,-55.5555555555556,4,2,0,60,0,0
23265,-83.3333333333333,4,2,0,60,0,0
23581,-125,4,2,0,60,0,0
23897,-83.3333333333333,4,2,0,60,0,0
24213,-125,4,2,0,60,0,0
24529,-83.3333333333333,4,2,0,60,0,0
24844,-125,4,2,0,60,0,0
25160,-83.3333333333333,4,2,0,60,0,0
25476,-125,4,2,0,60,0,0
25792,-71.4285714285714,4,2,0,60,0,0
26107,-100,4,2,0,60,0,0
26423,-71.4285714285714,4,2,0,60,0,0
26739,-100,4,2,0,60,0,0
27055,-50,4,2,0,60,0,0
28002,-200,4,2,0,60,0,0
28318,-125,4,2,0,50,0,0
32423,-100,4,2,0,50,0,0
32739,-83.3333333333333,4,2,0,50,0,0
32839,-125,4,2,0,50,0,0
48213,-200,4,2,0,55,0,0
48529,-125,4,2,0,55,0,0
48844,-100,4,2,0,55,0,0
49160,-83.3333333333333,4,2,0,55,0,0
49476,-200,4,2,0,55,0,0
49792,-125,4,2,0,55,0,0
50107,-100,4,2,0,55,0,0
50423,-83.3333333333333,4,2,0,55,0,0
50739,-200,4,2,0,55,0,0
51055,-125,4,2,0,55,0,0
51371,-100,4,2,0,55,0,0
51686,-83.3333333333333,4,2,0,55,0,0
52002,-71.4285714285714,4,2,0,55,0,0
52318,-200,4,2,0,55,0,0
52634,-100,4,2,0,50,0,0
57371,-62.5,4,2,0,55,0,0
57686,-71.4285714285714,4,2,0,55,0,0
58002,-83.3333333333333,4,2,0,55,0,0
58634,-125,4,2,0,55,0,0
58949,-100,4,2,0,55,0,0
59265,-83.3333333333333,4,2,0,55,0,0
59581,-200,4,2,0,55,0,0
59897,-125,4,2,0,55,0,0
60212,-100,4,2,0,55,0,0
60528,-83.3333333333333,4,2,0,55,0,0
60844,-200,4,2,0,55,0,0
61160,-125,4,2,0,55,0,0
61476,-100,4,2,0,55,0,0
61791,-83.3333333333333,4,2,0,55,0,0
62107,-71.4285714285714,4,2,0,55,0,0
62423,-200,4,2,0,55,0,0
62739,-100,4,2,0,50,0,0
67476,-62.5,4,2,0,55,0,0
67791,-55.5555555555556,4,2,0,55,0,0
68107,-50,4,2,0,55,0,0
68423,-200,4,2,0,55,0,0
68739,-125,4,2,0,50,0,0
76318,-125,4,2,0,50,0,0
89897,-200,4,2,0,55,0,0
90213,-71.4285714285714,4,2,0,65,0,0
92107,-62.5,4,2,0,65,0,0
92423,-55.5555555555556,4,2,0,65,0,0
92739,-71.4285714285714,4,2,0,65,0,0
94634,-62.5,4,2,0,65,0,0
94950,-55.5555555555556,4,2,0,65,0,0
95265,-71.4285714285714,4,2,0,65,0,0
114213,-71.4285714285714,4,2,0,50,0,0
115160,-50,4,2,0,55,0,0
115476,-71.4285714285714,4,2,0,65,0,0
117371,-62.5,4,2,0,65,0,0
117686,-55.5555555555556,4,2,0,65,0,0
118002,-71.4285714285714,4,2,0,65,0,0
120371,-200,4,2,0,65,0,0
120844,-125,4,2,0,65,0,0
121476,-90.9090909090909,4,2,0,65,0,0
122107,-71.4285714285714,4,2,0,65,0,0
122739,-58.8235294117647,4,2,0,65,0,0
123371,-50,4,2,0,65,0,0
124002,-200,4,2,0,65,0,0
125265,-50,4,2,0,65,0,0
125581,-71.4285714285714,4,2,0,65,0,0
127476,-62.5,4,2,0,65,0,0
127792,-55.5555555555556,4,2,0,65,0,0
128107,-71.4285714285714,4,2,0,65,0,0
131581,-200,4,2,0,50,0,0
131897,-83.3333333333333,4,2,0,55,0,0
149581,-71.4285714285714,4,2,0,60,0,0
154634,-50,4,2,0,60,0,0
155897,-200,4,2,0,60,0,0

[Colours]
Combo1 : 255,234,170
Combo2 : 179,255,179
Combo3 : 172,209,255
Combo4 : 252,194,203

[HitObjects]
55,36,17897,6,0,L|64:96,1,60,10|0,0:1|0:0,0:0:0:0:
63,95,18213,6,0,P|108:56|167:51,1,120,4|0,0:0|0:0,0:0:0:0:
199,120,18529,2,0,P|243:158|334:162,1,143.999995605469,0|0,1:0|0:0,0:0:0:0:
351,93,18844,2,0,P|395:54|504:61,1,167.999994873047,0|0,1:0|0:0,0:0:0:0:
497,210,19160,6,0,L|488:270,1,60,4|0,0:0|0:0,0:0:0:0:
488,269,19476,6,0,P|443:230|384:224,1,120,0|0,1:0|0:0,0:0:0:0:
353,294,19792,2,0,P|308:332|217:336,1,143.999995605469,0|0,1:0|0:0,0:0:0:0:
201,267,20107,2,0,P|156:228|48:235,1,167.999994873047,0|0,1:0|0:0,0:0:0:0:
3,60,20423,6,0,L|72:46,1,60,4|0,0:0|0:0,0:0:0:0:
61,48,20739,6,0,P|74:113|133:113,1,120,2|0,1:0|0:0,0:0:0:0:
121,198,21055,2,0,P|164:248|236:211,1,143.999995605469,2|0,1:0|0:0,0:0:0:0:
274,291,21371,2,0,P|336:312|378:228,1,167.999994873047,2|0,1:0|0:0,0:0:0:0:
455,267,21686,2,0,P|519:254|502:144,1,192,2|0,1:0|0:0,0:0:0:0:
488,8,22002,6,0,L|445:14,1,23.9999992675781,4|0,0:0|0:0,0:0:0:0:
443,17,22160,1,2,0:0:0:0:
428,128,22318,6,0,L|352:140,1,40,4|0,0:0|0:0,0:0:0:0:
347,141,22476,1,2,0:0:0:0:
333,254,22634,6,0,L|238:270,1,55.9999982910157,4|0,0:0|0:0,0:0:0:0:
201,277,22792,2,0,L|106:293,1,71.9999978027344,4|0,0:0|0:0,0:0:0:0:
51,303,22950,1,2,0:0:0:0:
50,302,23265,6,0,P|30:236|68:177,1,143.999995605469,4|0,0:0|0:0,0:0:0:0:
114,116,23581,2,0,L|216:102,1,96,2|0,1:0|0:0,0:0:0:0:
300,0,23897,6,0,P|279:66|317:125,1,143.999995605469,4|0,0:0|0:0,0:0:0:0:
363,186,24213,2,0,L|465:200,1,96,2|0,1:0|0:0,0:0:0:0:
510,64,24529,6,0,P|460:45|376:105,1,143.999995605469,4|0,0:0|0:0,0:0:0:0:
317,125,24844,2,0,L|305:17,1,96,2|0,1:0|0:0,0:0:0:0:
33,142,25160,6,0,P|83:123|167:183,1,143.999995605469,4|0,0:0|0:0,0:0:0:0:
226,203,25476,2,0,L|238:95,1,96,2|0,1:0|0:0,0:0:0:0:
507,240,25792,6,0,P|457:221|360:297,1,167.999994873047,4|0,0:0|0:0,0:0:0:0:
307,326,26107,2,0,L|162:311,1,120,2|0,1:0|0:0,0:0:0:0:
17,126,26423,6,0,P|67:107|164:183,1,167.999994873047,4|0,0:0|0:0,0:0:0:0:
217,212,26739,2,0,L|362:197,1,120,2|0,1:0|0:0,0:0:0:0:
486,83,27055,6,0,B|447:86|424:116|424:116|366:76|366:76|331:103|261:91,1,240,4|0,0:0|0:0,0:0:0:0:
101,58,27371,2,0,B|152:77|185:51|185:51|148:145|230:182,1,240,4|0,0:0|0:0,0:0:0:0:
436,241,27686,2,0,B|371:239|336:200|336:200|307:276|235:280,1,240,4|0,0:0|0:0,0:0:0:0:
154,239,28002,6,0,L|149:299,1,60,10|0,0:1|0:0,0:0:0:0:
149,298,28318,6,0,P|92:291|10:284,1,128,6|8,0:0|0:0,0:0:0:0:
19,362,28792,2,0,P|82:367|146:375,1,128,2|0,0:0|0:0,0:0:0:0:
216,345,29265,1,8,0:0:0:0:
279,301,29423,6,0,P|276:267|268:216,1,64,2|0,0:0|0:0,0:0:0:0:
158,6,29739,2,0,P|155:40|147:91,1,64,2|8,0:0|0:0,0:0:0:0:
202,210,30055,2,0,P|215:142|230:76,1,128,2|0,0:0|0:0,0:0:0:0:
303,67,30529,1,8,0:0:0:0:
303,67,30844,6,0,P|371:64|446:57,1,128,6|8,0:0|0:0,0:0:0:0:
493,103,31318,1,0,0:0:0:0:
483,179,31476,2,0,P|419:173|355:170,1,128,6|8,0:0|0:0,0:0:0:0:
357,248,31950,6,0,P|373:307|375:322,1,64,2|0,0:0|0:0,0:0:0:0:
271,145,32265,1,0,0:0:0:0:
237,296,32423,2,0,P|249:258|259:219,1,80,10|0,0:0|0:0,0:0:0:0:
124,0,32739,2,0,P|182:74|192:169,1,191.999994140625,2|10,0:0|0:0,0:0:0:0:
192,169,33371,6,0,P|142:162|47:152,1,128,6|8,0:0|0:0,0:0:0:0:
52,229,33844,2,0,P|101:235|197:246,1,128,2|0,0:0|0:0,0:0:0:0:
233,299,34318,1,8,0:0:0:0:
286,354,34476,6,0,P|323:348|354:342,1,64,2|0,0:0|0:0,0:0:0:0:
491,180,34792,1,2,0:0:0:0:
466,252,34950,1,8,0:0:0:0:
383,128,35107,1,2,0:0:0:0:
358,56,35265,1,2,0:0:0:0:
278,185,35423,1,2,0:0:0:0:
253,257,35581,1,8,0:0:0:0:
253,256,35897,6,0,P|245:193|227:132,1,128,6|8,0:0|0:0,0:0:0:0:
145,10,36529,2,0,P|127:71|120:135,1,128,6|8,0:0|0:0,0:0:0:0:
120,135,37002,1,0,0:0:0:0:
236,52,37160,5,2,0:0:0:0:
309,73,37318,1,2,0:0:0:0:
288,267,37476,5,10,0:0:0:0:
361,246,37634,1,2,0:0:0:0:
384,27,37792,5,2,0:0:0:0:
457,48,37950,1,2,0:0:0:0:
439,297,38107,5,14,0:0:0:0:
512,276,38265,1,6,0:0:0:0:
458,221,38423,5,2,0:0:0:0:
0,48,47265,5,2,0:0:0:0:
0,48,47581,1,2,0:0:0:0:
0,48,47897,1,2,0:0:0:0:
0,48,48213,6,0,L|69:39,1,60,8|0,0:1|0:0,0:0:0:0:
59,40,48529,6,0,P|83:80|84:128,1,96,4|0,0:0|0:0,0:0:0:0:
170,84,48844,2,0,P|170:148|139:205,1,120,8|0,0:0|0:0,0:0:0:0:
249,193,49160,2,0,P|211:260|144:300,1,143.999995605469,2|0,0:0|0:0,0:0:0:0:
212,376,49476,6,0,L|281:385,1,60,12|0,0:0|0:0,0:0:0:0:
271,383,49792,6,0,P|295:342|296:294,1,96,2|0,0:0|0:0,0:0:0:0:
382,339,50107,2,0,P|382:274|351:217,1,120,8|0,0:0|0:0,0:0:0:0:
461,230,50423,2,0,P|423:162|356:122,1,143.999995605469,2|0,0:0|0:0,0:0:0:0:
424,47,50739,6,0,L|493:38,1,60,12|0,0:0|0:0,0:0:0:0:
483,39,51055,6,0,P|438:33|377:2,1,96,2|0,0:1|0:0,0:0:0:0:
325,59,51371,2,0,P|265:60|212:87,1,120,10|0,0:0|0:0,0:0:0:0:
144,42,51686,2,0,P|182:99|184:186,1,143.999995605469,2|0,0:1|0:0,0:0:0:0:
264,215,52002,2,0,P|208:280|207:366,1,167.999994873047,10|0,0:0|0:0,0:0:0:0:
313,384,52318,6,0,L|301:314,1,60,4|0,0:0|0:0,0:0:0:0:
300,311,52634,5,8,0:0:0:0:
381,323,52792,2,0,P|391:264|416:156,1,160,2|0,0:0|0:0,0:0:0:0:
294,103,53265,2,0,P|313:159|319:185,1,80,8|0,0:0|0:0,0:0:0:0:
387,83,53581,5,2,0:0:0:0:
219,168,53739,2,0,P|191:160|134:150,1,80,2|8,0:0|0:0,0:0:0:0:
259,250,54055,2,0,P|195:266|94:282,1,160,2|0,0:0|0:0,0:0:0:0:
251,343,54529,2,0,P|286:348|350:362,1,80,8|0,0:0|0:0,0:0:0:0:
475,295,54844,6,0,P|465:250|445:107,1,160,2|8,0:0|0:0,0:0:0:0:
347,242,55318,2,0,P|357:162|374:84,1,160,2|0,0:0|0:0,0:0:0:0:
256,159,55792,2,0,P|269:121|288:79,1,80,8|0,0:0|0:0,0:0:0:0:
115,23,56107,6,0,P|144:97|166:175,1,160,2|8,0:0|0:0,0:0:0:0:
85,166,56581,1,0,0:0:0:0:
210,297,56739,1,2,0:0:0:0:
130,289,56897,1,2,0:0:0:0:
336,151,57055,1,10,0:0:0:0:
256,159,57213,1,2,0:0:0:0:
386,308,57371,6,0,L|367:304,12,16,2|0|0|0|0|0|0|0|0|0|0|0|0,3:0|3:0|3:0|3:0|3:0|3:0|3:0|3:0|3:0|3:0|3:0|3:0|3:0,3:0:0:0:
440,231,57686,2,0,L|465:226,12,13.9999995727539,2|0|0|0|0|0|0|0|0|0|0|0|0,3:0|3:0|3:0|3:0|3:0|3:0|3:0|3:0|3:0|3:0|3:0|3:0|3:0,3:0:0:0:
381,165,58002,6,0,P|357:159|335:150,1,47.9999985351563,2|0,0:0|0:0,0:0:0:0:
457,124,58160,2,0,P|480:118|502:109,1,47.9999985351563,2|0,0:0|0:0,0:0:0:0:
353,41,58318,2,0,P|362:63|374:83,1,47.9999985351563,10|0,0:0|0:0,0:0:0:0:
485,0,58476,2,0,P|475:22|463:42,1,47.9999985351563,2|0,0:0|0:0,0:0:0:0:
381,165,58634,6,0,P|336:151|303:116,1,96,4|0,0:0|0:0,0:0:0:0:
268,206,58949,2,0,P|225:158|210:95,1,120,8|0,0:0|0:0,0:0:0:0:
136,178,59265,2,0,P|119:102|142:28,1,143.999995605469,2|0,0:0|0:0,0:0:0:0:
77,252,59581,6,0,L|86:317,1,60,12|0,0:0|0:0,0:0:0:0:
86,312,59897,6,0,P|131:298|164:263,1,96,4|0,0:0|0:0,0:0:0:0:
199,353,60213,2,0,P|242:305|257:242,1,120,8|0,0:0|0:0,0:0:0:0:
331,325,60528,2,0,P|348:249|325:175,1,143.999995605469,2|0,0:0|0:0,0:0:0:0:
423,354,60844,6,0,L|492:345,1,60,12|0,0:0|0:0,0:0:0:0:
482,346,61160,6,0,P|488:301|519:240,1,96,2|0,0:1|0:0,0:0:0:0:
512,174,61476,2,0,P|452:173|399:146,1,120,10|0,0:0|0:0,0:0:0:0:
331,186,61792,2,0,P|352:250|332:335,1,143.999995605469,2|0,0:1|0:0,0:0:0:0:
270,364,62107,2,0,P|184:357|122:297,1,167.999994873047,10|0,0:0|0:0,0:0:0:0:
237,192,62423,6,0,L|226:251,1,60,4|0,0:0|0:0,0:0:0:0:
224,265,62739,5,8,0:0:0:0:
150,217,62897,2,0,P|140:158|115:50,1,160,2|0,0:0|0:0,0:0:0:0:
231,3,63371,2,0,P|212:59|206:85,1,80,8|0,0:0|0:0,0:0:0:0:
55,153,63686,5,2,0:0:0:0:
229,167,63844,2,0,P|257:159|314:149,1,80,2|8,0:0|0:0,0:0:0:0:
224,265,64160,2,0,P|160:249|59:233,1,160,2|0,0:0|0:0,0:0:0:0:
96,360,64634,2,0,P|135:351|174:346,1,80,8|0,0:0|0:0,0:0:0:0:
382,263,64950,5,2,0:0:0:0:
300,384,65107,2,0,P|301:347|306:300,1,80,2|8,0:0|0:0,0:0:0:0:
459,204,65423,2,0,P|475:282|485:361,1,160,2|0,0:0|0:0,0:0:0:0:
377,170,65897,2,0,P|343:167|285:154,1,80,8|0,0:0|0:0,0:0:0:0:
235,15,66213,6,0,P|218:93|208:172,1,160,2|8,0:0|0:0,0:0:0:0:
25,298,66686,2,0,P|102:277|180:262,1,160,2|0,0:0|0:0,0:0:0:0:
73,193,67160,2,0,P|49:121|45:94,1,80,8|0,0:0|0:0,0:0:0:0:
306,141,67476,6,0,B|282:135|267:106|267:106|201:170|112:107,1,192,4|0,0:0|0:0,0:0:0:0:
346,73,67792,2,0,B|403:120|373:186|373:186|411:147|480:147,1,215.999993408203,4|0,0:0|0:0,0:0:0:0:
430,343,68107,2,0,B|408:276|448:232|448:232|375:310|301:246,1,240,4|0,0:0|0:0,0:0:0:0:
243,216,68423,6,0,L|256:286,1,60,8|0,0:1|0:0,0:0:0:0:
253,274,68739,6,0,P|225:270|178:267,1,64,4|0,0:0|0:0,0:0:0:0:
116,290,69055,1,10,0:0:0:0:
211,130,69213,1,0,0:0:0:0:
25,129,69371,2,0,P|33:182|46:278,1,128,2|10,0:0|0:0,0:0:0:0:
116,290,69844,1,0,0:0:0:0:
314,301,70002,5,2,0:0:0:0:
238,314,70160,1,2,0:0:0:0:
376,121,70318,1,10,0:0:0:0:
300,108,70476,1,2,0:0:0:0:
384,336,70634,2,0,P|448:342|515:347,1,128,2|10,0:0|0:0,0:0:0:0:
511,346,71265,6,0,P|499:271|491:215,1,128,4|10,0:0|0:0,0:0:0:0:
422,185,71739,1,0,0:0:0:0:
307,326,71897,2,0,P|300:289|293:250,1,64,2|0,0:0|0:0,0:0:0:0:
235,214,72213,1,10,0:0:0:0:
352,149,72371,6,0,P|320:153|289:160,1,64,2|0,0:0|0:0,0:0:0:0:
168,4,72686,1,2,0:0:0:0:
97,34,72844,2,0,P|65:30|33:23,1,64,2|0,0:0|0:0,0:0:0:0:
156,221,73160,1,2,0:0:0:0:
247,25,73318,1,2,0:0:0:0:
441,119,73476,1,10,0:0:0:0:
441,119,73792,6,0,P|387:111|294:101,1,128,4|10,0:0|0:0,0:0:0:0:
255,153,74265,1,2,0:0:0:0:
355,314,74423,2,0,P|301:321|208:332,1,128,4|10,0:0|0:0,0:0:0:0:
169,279,74897,6,0,P|135:278|97:273,1,64,2|0,0:0|0:0,0:0:0:0:
187,39,75213,1,2,0:0:0:0:
130,90,75371,2,0,P|96:90|58:96,1,64,10|0,0:0|0:0,0:0:0:0:
11,197,75686,2,0,L|152:187,1,128,2|10,0:0|0:0,0:0:0:0:
138,187,76318,6,0,L|152:261,1,64,4|0,0:0|0:0,0:0:0:0:
300,339,76634,1,10,0:0:0:0:
149,249,76792,1,0,0:0:0:0:
279,205,76950,1,2,0:0:0:0:
235,281,77265,5,10,0:0:0:0:
380,347,77581,5,6,0:0:0:0:
397,272,77739,1,2,0:0:0:0:
138,187,77897,5,6,0:0:0:0:
121,112,78055,1,2,0:0:0:0:
414,197,78213,5,6,0:0:0:0:
431,122,78529,5,10,0:0:0:0:
474,113,88950,5,2,0:0:0:0:
474,113,89266,1,2,0:0:0:0:
474,113,89582,1,2,0:0:0:0:
474,113,89897,6,0,L|460:43,1,60,10|0,0:1|0:0,0:0:0:0:
463,55,90213,6,0,P|440:131|361:139,1,167.999994873047,4|0,0:0|0:0,0:0:0:0:
380,67,90529,2,0,P|413:82|440:120,1,55.9999982910157,10|0,0:0|0:0,0:0:0:0:
303,83,90686,6,0,P|295:43|221:34,1,111.999996582031,4|0,0:0|0:0,0:0:0:0:
326,302,91002,2,0,P|365:315|410:255,1,111.999996582031,4|10,0:0|0:0,0:0:0:0:
126,212,91318,2,0,P|95:239|124:308,1,111.999996582031,4|0,0:0|0:0,0:0:0:0:
303,83,91634,6,0,P|296:115|236:122,1,55.9999982910157,2|0,0:0|0:0,0:0:0:0:
326,302,91792,2,0,P|301:280|325:224,1,55.9999982910157,10|0,0:0|0:0,0:0:0:0:
126,212,91950,2,0,P|157:202|194:250,1,55.9999982910157,2|0,0:0|0:0,0:0:0:0:
253,197,92107,6,0,P|267:111|212:151,1,192,4|0,0:0|0:0,0:0:0:0:
253,197,92423,6,0,P|286:112|205:142,1,215.999993408203,4|0,0:0|0:0,0:0:0:0:
127,117,92739,6,0,P|87:122|27:18,1,167.999994873047,4|0,0:0|0:0,0:0:0:0:
96,26,93055,2,0,P|91:56|45:93,1,55.9999982910157,10|0,0:0|0:0,0:0:0:0:
7,244,93213,6,0,P|63:181|110:200,1,111.999996582031,4|0,0:0|0:0,0:0:0:0:
287,0,93529,2,0,P|313:79|273:111,1,111.999996582031,4|10,0:0|0:0,0:0:0:0:
350,363,93844,2,0,P|267:346|260:295,1,111.999996582031,4|0,0:0|0:0,0:0:0:0:
81,182,94160,6,0,P|104:194|144:183,1,55.9999982910157,2|0,0:0|0:0,0:0:0:0:
302,94,94318,2,0,P|280:107|269:148,1,55.9999982910157,10|0,0:0|0:0,0:0:0:0:
259,329,94476,2,0,P|257:303|228:273,1,55.9999982910157,2|0,0:0|0:0,0:0:0:0:
216,198,94634,6,0,P|304:205|246:140,1,192,4|0,0:0|0:0,0:0:0:0:
185,116,94950,6,0,P|107:66|179:7,1,215.999993408203,4|0,0:0|0:0,0:0:0:0:
276,42,95265,6,0,P|312:96|419:77,1,167.999994873047,4|0,0:0|0:0,0:0:0:0:
365,28,95581,2,0,P|339:65|338:98,1,55.9999982910157,10|0,0:0|0:0,0:0:0:0:
470,141,95739,6,0,P|415:138|374:175,1,111.999996582031,4|0,0:0|0:0,0:0:0:0:
201,384,96055,2,0,P|230:338|219:284,1,111.999996582031,4|10,0:0|0:0,0:0:0:0:
200,33,96371,2,0,P|191:59|174:81,1,55.9999982910157,4|0,0:0|0:0,0:0:0:0:
126,27,96529,6,0,P|156:82|260:92,1,167.999994873047,2|0,0:0|0:0,0:0:0:0:
213,173,96844,2,0,P|174:135|173:80,1,111.999996582031,10|0,0:0|0:0,0:0:0:0:
257,241,97160,2,0,P|204:256|156:229,1,111.999996582031,2|0,0:0|0:0,0:0:0:0:
337,238,97476,2,0,P|323:291|277:319,1,111.999996582031,10|0,0:0|0:0,0:0:0:0:
297,172,97792,6,0,P|347:79|428:105,1,167.999994873047,4|0,0:0|0:0,0:0:0:0:
370,147,98107,2,0,P|345:129|325:89,1,55.9999982910157,10|0,0:0|0:0,0:0:0:0:
447,135,98265,2,0,P|472:89|441:25,1,111.999996582031,2|0,0:0|0:0,0:0:0:0:
414,238,98581,2,0,P|466:236|506:177,2,111.999996582031,2|10|0,0:0|0:0|0:0,0:0:0:0:
192,77,99055,6,0,P|199:103|218:124,1,55.9999982910157,4|0,0:0|0:0,0:0:0:0:
186,148,99213,2,0,P|212:154|239:148,1,55.9999982910157,2|0,0:0|0:0,0:0:0:0:
419,91,99371,6,0,P|392:84|365:90,1,55.9999982910157,10|0,0:0|0:0,0:0:0:0:
412,163,99529,2,0,P|404:136|385:115,1,55.9999982910157,2|0,0:0|0:0,0:0:0:0:
330,239,99686,6,0,P|336:212|330:185,1,55.9999982910157,4|0,0:0|0:0,0:0:0:0:
255,231,99844,2,0,P|281:223|302:204,1,55.9999982910157,2|0,0:0|0:0,0:0:0:0:
347,7,100002,6,0,P|320:14|299:33,1,55.9999982910157,10|0,0:0|0:0,0:0:0:0:
275,0,100160,2,0,P|268:26|274:53,1,55.9999982910157,2|0,0:0|0:0,0:0:0:0:
303,120,100318,6,0,P|220:119|158:65,1,167.999994873047,4|0,0:0|0:0,0:0:0:0:
90,101,100634,2,0,P|81:74|82:47,1,55.9999982910157,10|0,0:0|0:0,0:0:0:0:
142,159,100792,6,0,P|91:179|25:139,1,111.999996582031,4|0,0:0|0:0,0:0:0:0:
243,103,101107,2,0,P|223:52|263:-14,1,111.999996582031,4|10,0:0|0:0,0:0:0:0:
311,235,101423,2,0,P|362:215|428:255,1,111.999996582031,4|0,0:0|0:0,0:0:0:0:
203,282,101739,2,0,P|223:333|183:399,2,111.999996582031,4|10|2,0:0|0:0|0:0,0:0:0:0:
89,148,102213,6,0,P|116:145|141:158,1,55.9999982910157,4|0,0:0|0:0,0:0:0:0:
253,50,102371,2,0,P|255:77|242:102,1,55.9999982910157,2|0,0:0|0:0,0:0:0:0:
364,246,102529,2,0,P|336:248|311:235,1,55.9999982910157,10|0,0:0|0:0,0:0:0:0:
192,334,102686,2,0,P|189:306|202:281,1,55.9999982910157,2|0,0:0|0:0,0:0:0:0:
229,193,102844,6,0,P|310:193|363:103,1,167.999994873047,4|0,0:0|0:0,0:0:0:0:
433,95,103160,2,0,P|442:122|441:149,1,55.9999982910157,10|0,0:0|0:0,0:0:0:0:
365,54,103318,6,0,P|384:18|475:13,1,111.999996582031,4|0,0:0|0:0,0:0:0:0:
418,245,103634,2,0,P|454:264|459:355,1,111.999996582031,4|10,0:0|0:0,0:0:0:0:
219,283,103950,2,0,P|200:319|109:324,1,111.999996582031,4|0,0:0|0:0,0:0:0:0:
166,92,104265,2,0,P|130:73|125:-18,2,111.999996582031,4|10|2,0:0|0:0|0:0,0:0:0:0:
365,54,104739,6,0,P|354:79|307:96,1,55.9999982910157,4|0,0:0|0:0,0:0:0:0:
418,245,104897,2,0,P|393:234|376:187,1,55.9999982910157,2|0,0:0|0:0,0:0:0:0:
219,283,105055,2,0,P|230:258|277:241,1,55.9999982910157,10|0,0:0|0:0,0:0:0:0:
166,92,105213,2,0,P|191:103|208:149,1,55.9999982910157,2|0,0:0|0:0,0:0:0:0:
292,168,105371,6,0,P|228:219|148:203,1,167.999994873047,4|0,0:0|0:0,0:0:0:0:
77,178,105686,2,0,P|72:206|84:242,1,55.9999982910157,10|0,0:0|0:0,0:0:0:0:
23,304,105844,6,0,P|92:280|134:325,1,111.999996582031,4|0,0:0|0:0,0:0:0:0:
365,384,106160,2,0,P|317:328|258:346,1,111.999996582031,4|10,0:0|0:0,0:0:0:0:
119,82,106476,6,0,P|190:95|204:155,1,111.999996582031,4|0,0:0|0:0,0:0:0:0:
389,173,106792,2,0,P|320:148|278:194,1,111.999996582031,4|10,0:0|0:0,0:0:0:0:
210,366,107107,2,0,P|204:354|205:300,1,55.9999982910157,4|0,0:0|0:0,0:0:0:0:
283,330,107265,6,0,P|337:337|365:384,1,111.999996582031,2|0,0:0|0:0,0:0:0:0:
120,298,107581,2,0,P|70:277|23:304,1,111.999996582031,10|0,0:0|0:0,0:0:0:0:
219,233,107897,6,0,P|236:205|233:155,1,55.9999982910157,4|0,0:0|0:0,0:0:0:0:
183,118,108055,2,0,P|198:146|243:169,1,55.9999982910157,2|0,0:0|0:0,0:0:0:0:
301,145,108213,2,0,P|268:144|226:171,1,55.9999982910157,10|0,0:0|0:0,0:0:0:0:
319,152,108529,6,0,P|306:176|285:194,1,55.9999982910157,4|0,0:0|0:0,0:0:0:0:
181,101,108686,2,0,P|208:99|234:109,1,55.9999982910157,2|0,0:0|0:0,0:0:0:0:
208,250,108844,2,0,P|192:226|187:199,1,55.9999982910157,10|0,0:0|0:0,0:0:0:0:
226,260,109160,6,0,P|220:287|205:310,1,55.9999982910157,4|0,0:0|0:0,0:0:0:0:
162,103,109318,2,0,P|141:85|128:60,1,55.9999982910157,10|0,0:0|0:0,0:0:0:0:
338,137,109476,2,0,P|363:127|391:129,1,55.9999982910157,10|0,0:0|0:0,0:0:0:0:
402,143,109792,6,0,P|389:167|368:186,1,55.9999982910157,4|0,0:0|0:0,0:0:0:0:
190,317,109950,6,0,P|174:293|169:266,1,55.9999982910157,12|0,0:0|0:0,0:0:0:0:
132,44,110107,6,0,P|159:42|186:51,1,55.9999982910157,12|0,0:0|0:0,0:0:0:0:
236,170,110265,5,12,0:0:0:0:
455,169,114213,5,2,0:0:0:0:
455,169,114371,1,2,0:0:0:0:
370,202,114529,1,2,0:0:0:0:
370,202,114687,1,2,0:0:0:0:
287,239,114844,1,2,0:0:0:0:
287,239,115002,1,2,0:0:0:0:
119,206,115160,6,0,P|114:171|155:124,1,80,10|0,0:1|0:0,0:0:0:0:
211,154,115318,2,0,P|216:189|175:236,1,80,10|0,0:1|0:0,0:0:0:0:
49,329,115476,6,0,P|72:253|151:245,1,167.999994873047,4|0,0:0|0:0,0:0:0:0:
132,317,115792,2,0,P|99:302|72:264,1,55.9999982910157,10|0,0:0|0:0,0:0:0:0:
209,301,115949,6,0,P|217:341|291:350,1,111.999996582031,4|0,0:0|0:0,0:0:0:0:
186,82,116265,2,0,P|147:69|102:129,1,111.999996582031,4|10,0:0|0:0,0:0:0:0:
386,172,116581,2,0,P|417:145|388:76,1,111.999996582031,4|0,0:0|0:0,0:0:0:0:
209,301,116897,6,0,P|216:269|276:262,1,55.9999982910157,2|0,0:0|0:0,0:0:0:0:
186,82,117055,2,0,P|211:104|187:160,1,55.9999982910157,10|0,0:0|0:0,0:0:0:0:
386,172,117213,2,0,P|355:182|318:134,1,55.9999982910157,2|0,0:0|0:0,0:0:0:0:
259,186,117371,6,0,P|236:124|191:202,1,192,4|0,0:0|0:0,0:0:0:0:
259,186,117686,6,0,P|216:117|179:206,1,215.999993408203,4|0,0:0|0:0,0:0:0:0:
103,250,118002,6,0,P|63:255|3:151,1,167.999994873047,4|0,0:0|0:0,0:0:0:0:
72,159,118318,2,0,P|67:189|21:226,1,55.9999982910157,10|0,0:0|0:0,0:0:0:0:
0,364,118476,6,0,P|70:317|110:348,1,111.999996582031,4|0,0:0|0:0,0:0:0:0:
193,68,118792,2,0,P|197:152|151:171,1,111.999996582031,4|0,0:0|0:0,0:0:0:0:
353,380,119107,2,0,P|327:383|284:354,1,55.9999982910157,4|0,0:0|0:0,0:0:0:0:
212,335,119265,6,0,P|192:315|178:255,1,55.9999982910157,4|0,0:0|0:0,0:0:0:0:
157,303,119423,2,0,P|169:277|188:258,1,55.9999982910157,2|0,0:0|0:0,0:0:0:0:
182,163,119581,6,0,P|209:155|268:173,1,55.9999982910157,4|0,0:0|0:0,0:0:0:0:
237,130,119739,2,0,P|252:153|259:179,1,55.9999982910157,2|0,0:0|0:0,0:0:0:0:
338,223,119897,6,0,P|330:250|285:292,1,55.9999982910157,4|0,0:0|0:0,0:0:0:0:
339,287,120055,2,0,P|311:289|284:281,1,55.9999982910157,2|0,0:0|0:0,0:0:0:0:
212,335,120213,6,0,P|192:315|178:255,1,55.9999982910157,4|0,0:0|0:0,0:0:0:0:
346,71,120371,6,0,P|378:99|383:170,1,100,4|0,0:0|0:0,0:0:0:0:
239,104,120844,6,0,P|360:66|401:141,1,224,4|0,0:0|0:0,0:0:0:0:
209,177,121476,6,0,P|294:44|423:117,1,308.000009399414,4|0,0:0|0:0,0:0:0:0:
231,251,122107,6,0,P|206:101|433:97,1,391.99998803711,4|0,0:0|0:0,0:0:0:0:
300,307,122739,6,0,P|189:104|409:48,1,476.00000907898,4|0,0:0|0:0,0:0:0:0:
381,329,123371,6,0,P|189:257|339:-2,1,560,4|0,0:0|0:0,0:0:0:0:
489,99,124002,6,0,L|477:158,1,60,12|0,0:0|0:0,0:0:0:0:
456,244,124318,5,4,0:0:0:0:
367,106,124476,1,4,0:0:0:0:
309,311,124634,5,4,0:0:0:0:
270,98,124792,1,4,0:0:0:0:
150,316,124950,5,4,0:0:0:0:
184,61,125107,1,4,0:0:0:0:
6,253,125265,6,0,P|31:229|80:223,1,80,12|0,0:0|0:0,0:0:0:0:
97,34,125423,2,0,P|57:29|28:2,1,80,12|0,0:0|0:0,0:0:0:0:
117,115,125581,6,0,P|196:117|224:191,1,167.999994873047,4|0,0:0|0:0,0:0:0:0:
150,192,125897,2,0,P|155:156|185:120,1,55.9999982910157,10|0,0:0|0:0,0:0:0:0:
188,256,126055,6,0,P|165:289|211:348,1,111.999996582031,4|0,0:0|0:0,0:0:0:0:
326,84,126371,2,0,P|307:47|233:57,1,111.999996582031,4|10,0:0|0:0,0:0:0:0:
404,289,126686,2,0,P|445:291|473:222,1,111.999996582031,4|0,0:0|0:0,0:0:0:0:
188,256,127002,6,0,P|215:238|262:275,1,55.9999982910157,2|0,0:0|0:0,0:0:0:0:
326,84,127160,2,0,P|328:117|271:139,1,55.9999982910157,10|0,0:0|0:0,0:0:0:0:
404,289,127318,2,0,P|375:274|382:214,1,55.9999982910157,2|0,0:0|0:0,0:0:0:0:
304,210,127476,6,0,P|331:149|244:173,1,192,4|0,0:0|0:0,0:0:0:0:
304,210,127792,6,0,P|322:130|233:167,1,215.999993408203,4|0,0:0|0:0,0:0:0:0:
157,175,128107,6,0,P|97:215|1:154,1,167.999994873047,4|0,0:0|0:0,0:0:0:0:
65,130,128423,2,0,P|87:200|51:244,1,111.999996582031,14|0,0:0|0:0,0:0:0:0:
225,87,128739,6,0,P|285:47|381:108,1,167.999994873047,4|0,0:0|0:0,0:0:0:0:
317,132,129055,2,0,P|295:62|331:18,1,111.999996582031,14|0,0:0|0:0,0:0:0:0:
151,270,129371,6,0,P|128:301|90:316,1,55.9999982910157,4|0,0:0|0:0,0:0:0:0:
146,326,129529,2,0,P|123:336|90:335,1,55.9999982910157,2|0,0:0|0:0,0:0:0:0:
220,226,129686,6,0,P|204:190|210:150,1,55.9999982910157,4|0,0:0|0:0,0:0:0:0:
174,193,129844,2,0,P|176:168|194:140,1,55.9999982910157,2|0,0:0|0:0,0:0:0:0:
226,309,130002,6,0,P|264:313|296:338,1,55.9999982910157,4|0,0:0|0:0,0:0:0:0:
277,285,130160,2,0,P|297:299|312:328,1,55.9999982910157,2|0,0:0|0:0,0:0:0:0:
151,270,130318,6,0,P|128:301|90:316,1,55.9999982910157,4|0,0:0|0:0,0:0:0:0:
295,176,130476,2,0,P|322:175|348:185,1,55.9999982910157,2|0,0:0|0:0,0:0:0:0:
446,28,131581,6,0,L|439:92,1,60,10|0,0:1|0:0,0:0:0:0:
439,87,131897,6,0,P|392:82|352:56,1,95.9999970703126,4|0,0:0|0:0,0:0:0:0:
327,176,132213,2,0,P|279:180|240:207,1,95.9999970703126,10|0,0:0|0:0,0:0:0:0:
201,92,132529,2,0,P|153:87|114:60,2,95.9999970703126,2|0|10,0:0|0:0|0:0,0:0:0:0:
114,183,133002,6,0,P|66:187|27:214,1,95.9999970703126,2|0,0:0|0:0,0:0:0:0:
197,372,133318,2,0,P|216:328|213:281,2,95.9999970703126,2|10|0,0:0|0:0|0:0,0:0:0:0:
13,299,133792,6,0,L|64:304,1,47.9999985351563,4|0,0:0|0:0,0:0:0:0:
136,309,133950,1,2,0:0:0:0:
155,64,134107,2,0,L|104:69,1,47.9999985351563,4|0,0:0|0:0,0:0:0:0:
32,74,134265,1,2,0:0:0:0:
114,183,134423,6,0,P|171:179|261:67,1,191.999994140625,4|10,0:0|0:0,0:0:0:0:
399,158,134897,1,0,0:0:0:0:
320,145,135055,1,2,0:0:0:0:
344,217,135213,1,2,0:0:0:0:
508,162,135371,1,10,0:0:0:0:
490,334,135529,6,0,B|387:281|408:363|292:320,1,191.999994140625,2|2,0:0|0:0,0:0:0:0:
175,210,136002,2,0,P|202:224|218:266,1,47.9999985351563,10|0,0:0|0:0,0:0:0:0:
221,212,136160,2,0,P|236:230|242:253,1,47.9999985351563,2|0,0:0|0:0,0:0:0:0:
178,324,136318,6,0,L|116:312,1,47.9999985351563,4|0,0:0|0:0,0:0:0:0:
56,301,136476,1,2,0:0:0:0:
175,100,136634,2,0,L|237:88,1,47.9999985351563,4|0,0:0|0:0,0:0:0:0:
297,77,136792,1,2,0:0:0:0:
81,191,136950,6,0,P|53:153|52:106,2,95.9999970703126,4|0|10,0:0|0:0|0:0,0:0:0:0:
122,45,137423,1,2,0:0:0:0:
175,100,137581,1,2,0:0:0:0:
196,26,137739,1,2,0:0:0:0:
81,191,137897,1,10,0:0:0:0:
270,250,138055,6,0,B|373:197|352:279|468:236,1,191.999994140625,4|2,0:0|0:0,0:0:0:0:
444,77,138529,2,0,P|406:131|421:191,1,95.9999970703126,10|0,0:0|0:0,0:0:0:0:
487,148,138844,1,2,0:0:0:0:
487,148,139160,1,10,0:0:0:0:
348,31,139318,1,2,0:0:0:0:
246,179,139476,6,0,B|218:174|201:162|201:162|121:219|57:142,1,191.999994140625,4|10,0:0|0:0,0:0:0:0:
246,34,139950,2,0,B|188:95|108:78|108:78|147:97|141:121,1,191.999994140625,4|2,0:0|0:0,0:0:0:0:
27,84,140423,2,0,P|34:42|104:2,1,95.9999970703126,10|2,0:0|0:0,0:0:0:0:
71,157,140739,6,0,L|66:218,1,47.9999985351563,4|0,0:0|0:0,0:0:0:0:
62,282,140897,1,2,0:0:0:0:
152,188,141055,2,0,L|147:249,1,47.9999985351563,4|0,0:0|0:0,0:0:0:0:
143,313,141213,1,2,0:0:0:0:
257,121,141371,6,0,L|262:182,1,47.9999985351563,4|0,0:0|0:0,0:0:0:0:
266,246,141529,1,2,0:0:0:0:
339,97,141686,2,0,L|344:158,1,47.9999985351563,4|0,0:0|0:0,0:0:0:0:
348,222,141844,1,2,0:0:0:0:
483,108,142002,6,0,P|442:132|420:174,2,95.9999970703126,4|0|10,0:0|0:0|0:0,0:0:0:0:
230,33,142634,2,0,P|231:80|256:120,2,95.9999970703126,4|0|10,0:0|0:0|0:0,0:0:0:0:
82,254,143265,6,0,P|123:276|170:275,1,95.9999970703126,4|0,0:0|0:0,0:0:0:0:
230,33,143581,2,0,P|231:80|256:120,1,95.9999970703126,12|0,0:0|0:0,0:0:0:0:
483,108,143897,2,0,P|442:132|420:174,1,95.9999970703126,4|0,0:0|0:0,0:0:0:0:
256,120,144213,1,12,0:0:0:0:
170,275,144371,1,2,0:0:0:0:
338,330,144529,6,0,P|340:252|237:211,1,191.999994140625,4|10,0:0|0:0,0:0:0:0:
105,238,145002,1,2,0:0:0:0:
170,275,145160,1,2,0:0:0:0:
170,197,145318,1,2,0:0:0:0:
100,366,145476,2,0,P|135:348|190:368,1,95.9999970703126,10|0,0:0|0:0,0:0:0:0:
338,330,145792,6,0,L|279:318,1,47.9999985351563,4|0,0:0|0:0,0:0:0:0:
330,248,145950,1,2,0:0:0:0:
369,175,146107,2,0,L|322:166,1,47.9999985351563,4|0,0:0|0:0,0:0:0:0:
330,248,146265,1,2,0:0:0:0:
170,197,146423,6,0,L|229:185,1,47.9999985351563,4|0,0:0|0:0,0:0:0:0:
178,115,146581,1,2,0:0:0:0:
138,42,146739,2,0,L|185:32,1,47.9999985351563,4|0,0:0|0:0,0:0:0:0:
178,115,146896,1,2,0:0:0:0:
398,17,147055,6,2,P|292:37|269:120,2,191.999994140625,4|10|2,0:0|0:0|0:0,0:0:0:0:
451,72,147844,1,0,0:0:0:0:
360,192,148002,1,10,0:0:0:0:
468,156,148160,2,0,L|391:141,1,47.9999985351563,4|0,0:0|0:0,0:0:0:0:
306,30,148318,6,0,P|345:92|334:139,1,95.9999970703126,2|0,0:0|0:0,0:0:0:0:
133,226,148634,2,0,P|139:179|171:144,1,95.9999970703126,10|0,0:0|0:0,0:0:0:0:
364,275,148950,2,0,B|254:247|291:325|180:295,1,191.999994140625,2|8,0:0|0:0,0:0:0:0:
180,295,149581,6,0,P|171:316|183:360,1,55.9999982910157,4|0,0:0|0:0,0:0:0:0:
170,273,149739,2,0,P|151:286|140:330,1,55.9999982910157,2|0,0:0|0:0,0:0:0:0:
128,177,149897,6,0,P|106:180|74:212,1,55.9999982910157,4|0,0:0|0:0,0:0:0:0:
142,158,150055,2,0,P|121:149|77:161,1,55.9999982910157,2|0,0:0|0:0,0:0:0:0:
204,74,150213,6,0,P|191:56|147:44,1,55.9999982910157,4|0,0:0|0:0,0:0:0:0:
228,77,150371,2,0,P|226:54|193:22,1,55.9999982910157,2|0,0:0|0:0,0:0:0:0:
332,88,150529,6,0,P|341:68|329:24,1,55.9999982910157,4|0,0:0|0:0,0:0:0:0:
342,110,150687,2,0,P|360:97|371:53,1,55.9999982910157,2|0,0:0|0:0,0:0:0:0:
383,206,150844,5,4,0:0:0:0:
268,165,151002,1,4,0:0:0:0:
235,310,151160,5,4,0:0:0:0:
417,280,151318,1,4,0:0:0:0:
335,270,151476,5,4,0:0:0:0:
259,88,151634,1,4,0:0:0:0:
111,234,151792,5,4,0:0:0:0:
187,52,151950,1,4,0:0:0:0:
269,204,154634,6,0,P|193:271|38:196,1,240,4|0,0:0|0:0,0:0:0:0:
243,180,154950,2,0,P|319:113|474:187,1,240,4|0,0:0|0:0,0:0:0:0:
244,205,155265,2,0,P|177:129|252:-26,1,240,4|0,0:0|0:0,0:0:0:0:
268,179,155581,2,0,P|335:255|260:410,1,240,4|0,0:0|0:0,0:0:0:0:
213,383,155897,6,0,B|172:314|172:314|258:303,1,160,4|2,0:0|0:0,0:0:0:0:
