osu file format v14

[General]
AudioFilename: meme.mp3
AudioLeadIn: 0
PreviewTime: 16713
Countdown: 0
SampleSet: Soft
StackLeniency: 0.6
Mode: 0
LetterboxInBreaks: 0
WidescreenStoryboard: 1

[Editor]
DistanceSpacing: 1
BeatDivisor: 4
GridSize: 8
TimelineZoom: 2.1

[Metadata]
Title:SANTA SAN
TitleUnicode:サンタさん
Artist:MOMOIRO CLOVER Z
ArtistUnicode:ももいろクローバーZ
Creator:Sotarks
Version:Linada's Extra
Source:
Tags:メリー クリスマス ココナッツ merry christmas coconuts momoclo takagi reni momota kanako ariyasu momoka tamai shiori sasaki ayaka akitoshi corinn doormat irohas mugiwarasekai kalibe kin linada milan- toybot haruto haruto_aizawa
BeatmapID:1487821
BeatmapSetID:695316

[Difficulty]
HPDrainRate:6
CircleSize:3.7
OverallDifficulty:9
ApproachRate:9.3
SliderMultiplier:1.72
SliderTickRate:1

[Events]
//Background and Video events
0,0,"BGLinada.jpg",0,0
//Break Periods
2,110622,113659
2,152307,154080
//Storyboard Layer 0 (Background)
//Storyboard Layer 1 (Fail)
//Storyboard Layer 2 (Pass)
//Storyboard Layer 3 (Foreground)
//Storyboard Sound Samples

[TimingPoints]
529,315.789473684211,4,2,22,72,1,0
17897,-61.7283950617284,4,2,22,72,0,0
18213,-89.2857142857143,4,2,22,72,0,0
28002,-138.888888888889,4,2,22,72,0,0
28318,-108.695652173913,4,2,22,62,0,0
38423,-138.888888888889,4,2,22,52,0,0
42213,-98.0392156862745,4,2,22,52,0,0
43634,-138.888888888889,4,2,22,52,0,0
47265,-98.0392156862745,4,2,22,52,0,0
48213,-138.888888888889,4,2,22,72,0,0
48529,-98.0392156862745,4,2,22,72,0,0
68739,-108.695652173913,4,2,22,72,0,0
71265,-98.0392156862745,4,2,22,72,0,0
77581,-108.695652173913,4,2,22,72,0,0
78844,-192.307692307692,4,2,22,42,0,0
89897,-61.7283950617284,4,2,22,72,0,0
90213,-81.9672131147541,4,2,22,82,0,1
99686,-81.9672131147541,4,2,22,92,0,1
100318,-81.9672131147541,4,2,22,82,0,1
110423,-81.9672131147541,4,2,22,82,0,0
114213,-81.9672131147541,4,2,22,52,0,0
114529,-81.9672131147541,4,2,22,62,0,0
114844,-81.9672131147541,4,2,22,72,0,0
115160,-81.9672131147541,4,2,22,82,0,0
115476,-81.9672131147541,4,2,22,82,0,1
120529,-161.290322580645,4,2,22,42,0,0
120844,-81.9672131147541,4,2,22,72,0,1
121160,-161.290322580645,4,2,22,42,0,0
121476,-81.9672131147541,4,2,22,72,0,1
121792,-161.290322580645,4,2,22,42,0,0
122107,-81.9672131147541,4,2,22,72,0,1
122423,-161.290322580645,4,2,22,42,0,0
122739,-81.9672131147541,4,2,22,72,0,1
123055,-161.290322580645,4,2,22,42,0,0
123371,-81.9672131147541,4,2,22,72,0,1
123686,-161.290322580645,4,2,22,42,0,0
124002,-81.9672131147541,4,2,22,72,0,1
124318,-81.9672131147541,4,2,22,72,0,0
125581,-81.9672131147541,4,2,22,82,0,1
130634,-833.333333333333,4,2,22,82,0,0
131581,-81.9672131147541,4,2,22,82,0,0
154634,-75.7575757575758,4,2,22,72,0,0
155897,-138.888888888889,4,2,22,72,0,0

[Colours]
Combo1 : 192,130,255
Combo2 : 91,173,255
Combo3 : 255,91,91
Combo4 : 255,155,255
Combo5 : 94,255,94
Combo6 : 255,255,72

[HitObjects]
38,307,17897,6,0,B|92:343|162:320|162:320|115:303|102:258,1,208.980005102051,8|0,0:0|0:0,0:0:0:0:
197,142,18213,6,0,L|186:237,1,96.3200011757813,6|0,1:0|0:0,0:0:0:0:
242,350,18529,1,10,0:0:0:0:
374,191,18686,1,0,0:0:0:0:
374,191,18765,1,0,0:0:0:0:
374,191,18844,2,0,L|278:201,1,96.3200011757813,2|0,1:0|0:0,0:0:0:0:
381,67,19160,2,0,L|476:77,1,96.3200011757813,8|0,0:0|0:0,0:0:0:0:
306,277,19476,6,0,P|259:281|218:257,1,96.3200011757813,2|0,1:0|0:0,0:0:0:0:
143,156,19792,1,10,0:0:0:0:
289,105,19950,1,0,0:0:0:0:
289,105,20029,1,0,0:0:0:0:
289,105,20107,2,0,L|278:200,1,96.3200011757813,2|2,1:0|0:0,0:0:0:0:
138,339,20423,2,0,L|127:243,1,96.3200011757813,8|0,0:0|0:0,0:0:0:0:
309,78,20739,6,0,P|380:82|452:70,1,144.480001763672,2|0,1:0|0:0,0:0:0:0:
479,62,21055,1,10,0:0:0:0:
445,244,21213,1,0,0:0:0:0:
382,124,21371,1,2,1:0:0:0:
360,306,21529,1,0,0:0:0:0:
503,154,21686,2,0,P|494:107|479:62,1,96.3200011757813,10|0,0:0|0:0,0:0:0:0:
305,215,22002,5,14,0:0:0:0:
445,244,22160,1,0,1:0:0:0:
190,255,22318,5,10,0:0:0:0:
408,154,22476,1,0,1:0:0:0:
143,156,22634,5,14,0:0:0:0:
366,317,22792,1,0,1:0:0:0:
315,19,22950,2,0,L|299:114,1,96.3200011757813,14|0,0:0|0:0,0:0:0:0:
189,336,23265,6,0,B|151:328|127:336|127:336|106:322|106:322|74:325|38:314,1,144.480001763672,2|0,1:0|0:0,0:0:0:0:
20,314,23581,1,10,0:0:0:0:
228,248,23739,1,0,0:0:0:0:
93,142,23897,2,0,L|85:238,1,96.3200011757813,2|0,1:0|0:0,0:0:0:0:
220,344,24213,2,0,L|227:247,1,96.3200011757813,10|0,0:0|0:0,0:0:0:0:
276,53,24529,6,0,L|419:36,1,144.480001763672,2|0,1:0|0:0,0:0:0:0:
450,32,24844,1,10,0:0:0:0:
286,188,25002,1,0,0:0:0:0:
495,237,25160,2,0,L|482:141,1,96.3200011757813,2|0,1:0|0:0,0:0:0:0:
353,78,25476,2,0,L|365:173,1,96.3200011757813,10|0,0:0|0:0,0:0:0:0:
220,344,25792,6,0,L|315:353,1,96.3200011757813,2|0,1:0|0:0,0:0:0:0:
124,213,26107,1,10,0:0:0:0:
365,173,26265,1,0,0:0:0:0:
134,308,26423,2,0,L|124:212,1,96.3200011757813,2|0,1:0|0:0,0:0:0:0:
112,86,26739,1,10,0:0:0:0:
109,67,27055,5,14,0:0:0:0:
365,173,27371,1,10,0:0:0:0:
48,318,27686,1,14,0:0:0:0:
161,172,28002,6,0,L|68:182,1,92.8800022675782,8|0,0:0|0:0,0:0:0:0:
32,160,28318,6,0,L|48:318,1,158.239994687988,6|8,1:0|0:0,0:0:0:0:
47,317,28792,1,2,1:0:0:0:
230,224,28950,1,2,0:0:0:0:
158,362,29107,2,0,L|150:283,1,79.1199973439942,2|8,1:0|0:0,0:0:0:0:
231,70,29423,6,0,B|200:147|253:147|230:225,1,158.239994687988,2|2,0:0|1:0,0:0:0:0:
151,189,29897,1,10,0:0:0:0:
306,114,30055,1,2,1:0:0:0:
245,302,30213,2,0,L|230:224,1,79.1199973439942,2|0,0:0|1:0,0:0:0:0:
321,36,30529,2,0,L|306:113,1,79.1199973439942,10|0,0:0|0:0,0:0:0:0:
156,289,30844,6,0,L|37:279,1,118.679996015991,2|0,1:0|0:0,0:0:0:0:
9,277,31160,1,10,0:0:0:0:
151,189,31318,1,0,1:0:0:0:
267,333,31476,6,0,L|386:323,1,118.679996015991,2|0,0:0|0:0,0:0:0:0:
413,320,31792,1,10,0:0:0:0:
321,36,31950,6,0,B|331:74|322:104|322:104|338:128|338:128|325:157|334:193,1,158.239994687988,2|2,0:0|1:0,0:0:0:0:
282,320,32423,1,10,0:0:0:0:
413,163,32581,1,0,1:0:0:0:
267,333,32739,2,0,L|188:326,1,79.1199973439942,2|0,0:0|1:0,0:0:0:0:
168,81,33055,2,0,L|247:74,1,79.1199973439942,8|0,0:0|1:0,0:0:0:0:
340,325,33371,6,0,L|182:310,1,158.239994687988,2|8,1:0|0:0,0:0:0:0:
182,310,33844,1,0,1:0:0:0:
415,227,34002,1,0,0:0:0:0:
323,104,34160,2,0,L|330:183,1,79.1199973439942,0|8,1:0|0:0,0:0:0:0:
55,152,34476,6,0,L|212:137,1,158.239994687988,0|0,1:0|1:0,0:0:0:0:
329,182,34950,1,8,0:0:0:0:
158,268,35107,1,0,1:0:0:0:
365,285,35265,1,0,0:0:0:0:
162,142,35423,1,0,1:0:0:0:
435,43,35581,2,0,L|429:121,1,79.1199973439942,8|0,0:0|1:0,0:0:0:0:
404,381,35897,5,0,1:0:0:0:
66,250,36213,1,8,0:0:0:0:
365,285,36529,1,0,1:0:0:0:
155,320,36844,1,8,0:0:0:0:
271,225,37002,1,0,0:0:0:0:
66,250,37160,5,8,0:0:0:0:
365,285,37318,1,0,1:0:0:0:
141,127,37476,5,8,0:0:0:0:
225,379,37634,1,0,1:0:0:0:
265,75,37792,5,8,0:0:0:0:
155,320,37950,1,0,1:0:0:0:
444,201,38107,5,12,0:0:0:0:
313,351,38265,1,0,1:0:0:0:
229,167,38423,6,0,L|291:170,1,61.9200015117188,2|2,1:0|0:0,0:0:0:0:
415,207,38739,6,0,P|404:235|399:266,1,61.9200015117188,2|0,3:0|0:0,0:0:0:0:
297,292,39055,2,0,P|308:322|313:352,1,61.9200015117188,2|2,1:0|0:0,0:0:0:0:
394,175,39371,6,0,P|383:203|378:234,1,61.9200015117188,2|0,3:0|0:0,0:0:0:0:
261,275,39686,2,0,P|272:305|277:335,1,61.9200015117188,2|2,1:0|1:0,0:0:0:0:
373,143,40002,6,0,P|362:171|357:202,1,61.9200015117188,2|0,3:0|0:0,0:0:0:0:
226,259,40318,2,0,P|236:287|241:318,1,61.9200015117188,2|0,1:0|1:0,0:0:0:0:
265,172,40634,5,2,3:0:0:0:
90,291,40792,2,0,P|119:302|150:307,1,61.9200015117188,0|2,0:0|1:0,0:0:0:0:
226,259,41107,5,2,0:0:0:0:
119,139,41265,2,0,P|109:167|104:198,1,61.9200015117188,2|0,3:0|0:0,0:0:0:0:
75,232,41502,1,0,0:0:0:0:
75,232,41581,2,0,P|85:260|90:291,1,61.9200015117188,2|2,1:0|0:0,0:0:0:0:
153,384,41897,2,0,P|181:374|212:369,1,61.9200015117188,0|0,3:0|0:0,0:0:0:0:
304,311,42213,6,0,P|346:323|390:318,1,87.7200005354004,2|2,1:0|1:0,0:0:0:0:
302,146,42529,2,0,P|270:176|253:216,1,87.7200005354004,2|0,3:0|0:0,0:0:0:0:
444,227,42844,2,0,P|434:184|408:149,1,87.7200005354004,2|2,1:0|0:0,0:0:0:0:
220,48,43160,6,0,B|149:60|149:60|107:49|107:49|47:59,1,175.440001070801,2|0,3:0|0:0,0:0:0:0:
38,341,43634,5,2,1:0:0:0:
59,231,43792,2,0,L|69:169,2,61.9200015117188,2|0|2,1:0|0:0|3:0,0:0:0:0:
54,352,44265,5,2,0:0:0:0:
152,243,44423,2,0,P|182:242|212:249,1,61.9200015117188,2|0,1:0|0:0,0:0:0:0:
293,333,44739,2,0,P|262:332|232:339,1,61.9200015117188,2|2,3:0|1:0,0:0:0:0:
311,175,45055,2,0,L|307:237,1,61.9200015117188,0|2,0:0|3:0,0:0:0:0:
405,104,45371,2,0,L|409:165,1,61.9200015117188,2|0,1:0|1:0,0:0:0:0:
508,253,45686,1,2,3:0:0:0:
508,253,45844,2,0,L|512:191,1,61.9200015117188,2|2,0:0|1:0,0:0:0:0:
413,323,46160,6,0,P|361:294|303:311,1,123.840003023438,2|2,3:0|0:0,0:0:0:0:
353,372,46634,1,2,1:0:0:0:
277,224,46792,2,0,L|154:209,1,123.840003023438,2|2,3:0|0:0,0:0:0:0:
65,258,47265,5,2,1:0:0:0:
207,128,47423,1,2,0:0:0:0:
207,128,47502,1,2,0:0:0:0:
207,128,47581,2,0,L|213:215,1,87.7200005354004,2|0,1:0|0:0,0:0:0:0:
91,365,47897,2,0,L|97:277,1,87.7200005354004,2|0,1:0|0:0,0:0:0:0:
226,103,48213,6,0,L|318:114,1,92.8800022675782,8|0,0:0|0:0,0:0:0:0:
354,120,48529,6,0,P|363:162|354:205,1,87.7200005354004,6|0,1:0|0:0,0:0:0:0:
272,355,48844,2,0,P|263:313|272:270,1,87.7200005354004,10|0,0:0|1:0,0:0:0:0:
432,302,49160,2,0,L|322:315,1,87.7200005354004,2|0,0:0|1:0,0:0:0:0:
196,154,49476,2,0,L|283:164,1,87.7200005354004,8|0,0:0|0:0,0:0:0:0:
273,270,49792,6,0,L|186:260,1,87.7200005354004,2|0,1:0|0:0,0:0:0:0:
36,121,50108,2,0,L|124:111,1,87.7200005354004,10|0,0:0|1:0,0:0:0:0:
114,303,50424,2,0,P|105:260|115:218,1,87.7200005354004,2|0,0:0|1:0,0:0:0:0:
196,68,50739,2,0,P|205:111|196:154,1,87.7200005354004,8|0,0:0|0:0,0:0:0:0:
98,311,51055,6,0,P|89:268|99:226,1,87.7200005354004,2|0,1:0|0:0,0:0:0:0:
212,77,51371,2,0,L|299:88,1,87.7200005354004,10|0,0:0|1:0,0:0:0:0:
419,184,51686,2,0,L|331:195,1,87.7200005354004,2|0,0:0|1:0,0:0:0:0:
180,271,52002,2,0,L|267:282,1,87.7200005354004,10|0,0:0|0:0,0:0:0:0:
361,375,52318,1,2,1:0:0:0:
167,184,52634,6,0,L|180:271,1,87.7200005354004,10|0,0:0|1:0,0:0:0:0:
77,112,52950,2,0,L|65:199,1,87.7200005354004,2|0,0:0|1:0,0:0:0:0:
14,29,53265,1,10,0:0:0:0:
180,271,53581,5,2,1:0:0:0:
0,324,53739,2,0,L|96:298,1,87.7200005354004,2|8,0:0|0:0,0:0:0:0:
171,361,54055,2,0,L|0:324,1,175.440001070801,2|2,1:0|1:0,0:0:0:0:
193,184,54529,2,0,L|180:270,1,87.7200005354004,10|0,0:0|0:0,0:0:0:0:
333,147,54844,6,0,P|274:206|193:184,1,175.440001070801,2|8,1:0|0:0,0:0:0:0:
364,58,55318,2,0,L|377:232,1,175.440001070801,2|0,1:0|1:0,0:0:0:0:
498,130,55792,2,0,L|410:123,1,87.7200005354004,10|0,0:0|0:0,0:0:0:0:
166,97,56107,5,2,1:0:0:0:
193,184,56265,1,0,0:0:0:0:
81,68,56423,5,10,0:0:0:0:
47,206,56581,1,0,0:0:0:0:
239,41,56739,5,10,0:0:0:0:
264,252,56897,1,0,1:0:0:0:
71,53,57055,5,10,0:0:0:0:
23,295,57213,1,0,1:0:0:0:
136,163,57371,6,0,L|223:170,1,87.7200005354004,6|0,3:0|0:0,0:0:0:0:
351,245,57686,2,0,L|263:252,1,87.7200005354004,10|0,3:0|0:0,0:0:0:0:
86,243,58002,5,6,3:0:0:0:
223,170,58160,1,10,0:0:0:0:
173,250,58318,1,10,0:0:0:0:
136,163,58476,1,10,0:0:0:0:
264,252,58634,6,0,L|255:339,1,87.7200005354004,6|0,1:0|0:0,0:0:0:0:
351,245,58950,2,0,L|342:158,1,87.7200005354004,8|0,0:0|1:0,0:0:0:0:
168,330,59265,2,0,L|255:339,1,87.7200005354004,2|0,0:0|1:0,0:0:0:0:
429,149,59581,2,0,L|342:158,1,87.7200005354004,8|0,0:0|0:0,0:0:0:0:
177,243,59897,6,0,L|264:252,1,87.7200005354004,2|0,1:0|0:0,0:0:0:0:
89,62,60213,2,0,L|2:71,1,87.7200005354004,8|0,0:0|1:0,0:0:0:0:
177,243,60528,2,0,L|186:156,1,87.7200005354004,2|0,0:0|1:0,0:0:0:0:
2,71,60844,2,0,L|11:158,1,87.7200005354004,8|0,0:0|0:0,0:0:0:0:
190,259,61160,6,0,L|199:172,1,87.7200005354004,2|0,1:0|0:0,0:0:0:0:
372,63,61476,2,0,P|415:58|458:67,1,87.7200005354004,10|0,0:0|1:0,0:0:0:0:
273,152,61792,2,0,P|229:147|186:156,1,87.7200005354004,2|0,0:0|1:0,0:0:0:0:
374,256,62107,2,0,P|417:251|460:260,1,87.7200005354004,10|0,0:0|0:0,0:0:0:0:
274,345,62423,1,2,1:0:0:0:
384,149,62739,6,0,L|372:63,1,87.7200005354004,10|0,0:0|1:0,0:0:0:0:
273,152,63055,2,0,L|260:238,1,87.7200005354004,2|0,0:0|1:0,0:0:0:0:
411,339,63371,1,10,0:0:0:0:
372,63,63686,5,2,1:0:0:0:
186,164,63844,2,0,L|272:151,1,87.7200005354004,2|8,0:0|0:0,0:0:0:0:
141,231,64160,6,0,P|105:155|156:88,1,175.440001070801,2|2,1:0|1:0,0:0:0:0:
272,176,64634,2,0,L|185:163,1,87.7200005354004,10|0,0:0|0:0,0:0:0:0:
287,66,64950,5,2,1:0:0:0:
259,262,65107,2,0,L|272:176,1,87.7200005354004,2|8,0:0|0:0,0:0:0:0:
416,162,65423,6,0,P|348:211|272:176,1,175.440001070801,2|0,1:0|1:0,0:0:0:0:
327,40,65897,2,0,L|340:126,1,87.7200005354004,10|0,0:0|0:0,0:0:0:0:
256,280,66213,5,2,1:0:0:0:
272,176,66371,1,0,0:0:0:0:
296,355,66529,5,10,0:0:0:0:
244,84,66686,1,0,0:0:0:0:
174,334,66844,5,10,0:0:0:0:
340,126,67002,1,0,1:0:0:0:
304,373,67160,5,10,0:0:0:0:
238,68,67318,1,0,1:0:0:0:
168,358,67476,5,6,1:0:0:0:
328,28,67792,1,6,1:0:0:0:
392,263,68107,1,6,1:0:0:0:
256,196,68423,1,8,0:0:0:0:
256,196,68739,6,0,L|177:201,1,79.1199973439942,2|0,1:0|0:0,0:0:0:0:
70,204,69055,1,10,0:0:0:0:
255,291,69213,1,10,0:0:0:0:
64,125,69371,6,0,L|69:203,1,79.1199973439942,2|0,1:0|0:0,0:0:0:0:
73,309,69686,1,10,0:0:0:0:
267,105,69844,6,0,L|262:183,1,79.1199973439942,2|0,0:0|0:0,0:0:0:0:
255,291,70159,1,2,1:0:0:0:
69,203,70318,6,0,L|147:208,1,79.1199973439942,10|0,0:0|0:0,0:0:0:0:
346,100,70634,2,0,L|268:105,1,79.1199973439942,2|0,1:0|0:0,0:0:0:0:
58,226,70950,1,10,0:0:0:0:
58,226,71265,6,0,L|240:234,1,175.440001070801,2|10,1:0|0:0,0:0:0:0:
331,232,71739,1,10,0:0:0:0:
277,384,71897,2,0,P|265:342|276:299,1,87.7200005354004,2|0,1:0|0:0,0:0:0:0:
389,166,72213,1,10,0:0:0:0:
461,349,72371,6,0,B|403:364|343:341|343:341|381:333|398:307,1,175.440001070801,2|0,0:0|1:0,0:0:0:0:
450,248,72844,5,10,0:0:0:0:
233,233,73002,1,0,1:0:0:0:
380,154,73160,5,2,1:0:0:0:
277,384,73318,1,10,0:0:0:0:
204,95,73476,1,10,0:0:0:0:
204,94,73792,6,0,P|124:119|65:60,1,175.440001070801,2|10,1:0|0:0,0:0:0:0:
143,40,74265,1,10,0:0:0:0:
54,174,74423,2,0,L|34:0,1,175.440001070801,2|8,1:0|0:0,0:0:0:0:
204,94,74897,6,0,P|245:105|288:98,1,87.7200005354004,2|0,0:0|1:0,0:0:0:0:
411,2,75213,2,0,P|368:-5|326:6,1,87.7200005354004,2|8,1:0|0:0,0:0:0:0:
214,193,75529,1,2,1:0:0:0:
404,255,75686,2,0,L|373:82,1,175.440001070801,2|10,1:0|0:0,0:0:0:0:
191,372,76318,5,2,1:0:0:0:
214,193,76476,1,2,0:0:0:0:
255,288,76634,1,10,0:0:0:0:
152,276,76792,1,10,0:0:0:0:
309,208,76950,2,0,P|353:206|396:216,1,87.7200005354004,2|0,1:0|0:0,0:0:0:0:
249,105,77265,2,0,P|205:103|162:113,1,87.7200005354004,10|0,0:0|0:0,0:0:0:0:
152,276,77581,5,10,1:2:0:0:
373,121,77739,1,2,1:0:0:0:
318,365,77897,1,10,1:2:0:0:
214,193,78055,1,0,0:0:0:0:
414,58,78213,6,0,L|395:217,1,158.239994687988,2|8,1:0|0:0,0:0:0:0:
106,354,78844,5,2,0:0:0:0:
152,276,79160,1,2,0:0:0:0:
141,187,79476,1,0,3:0:0:0:
76,124,79792,1,2,0:0:0:0:
106,354,80107,5,2,0:0:0:0:
152,276,80423,1,2,0:0:0:0:
229,231,80739,1,2,3:0:0:0:
317,246,81055,1,2,0:0:0:0:
106,354,81371,5,2,0:0:0:0:
76,124,81686,1,2,0:0:0:0:
229,231,82002,1,2,3:0:0:0:
259,1,82317,1,2,0:0:0:0:
405,250,82634,6,0,P|360:254|317:246,1,89.4399994541016,2|0,0:0|0:0,0:0:0:0:
157,187,83265,2,0,P|201:191|245:182,1,89.4399994541016,0|0,0:0|0:0,0:0:0:0:
316,127,83897,5,2,0:0:0:0:
278,45,84213,1,2,0:0:0:0:
360,7,84529,1,2,3:0:0:0:
398,89,84844,1,2,0:0:0:0:
308,228,85160,5,2,0:0:0:0:
316,127,85476,1,2,0:0:0:0:
416,136,85792,1,2,3:0:0:0:
407,236,86107,1,2,0:0:0:0:
274,312,86423,6,0,L|184:318,1,89.4399994541016,2|0,0:0|0:0,0:0:0:0:
33,222,87055,2,0,L|122:228,1,89.4399994541016,2|0,3:0|0:0,0:0:0:0:
264,183,87686,5,2,0:0:0:0:
158,121,88002,1,0,0:0:0:0:
341,47,88318,1,0,0:0:0:0:
185,318,88634,1,0,0:0:0:0:
258,68,88950,5,2,1:0:0:0:
258,68,89265,1,2,1:0:0:0:
258,68,89581,1,2,1:0:0:0:
258,68,89897,6,0,B|331:105|395:58|395:58|357:32|308:50,1,208.980005102051,12|0,0:0|0:0,0:0:0:0:
233,91,90213,6,0,L|249:195,1,104.919995677429,6|0,1:0|0:0,0:0:0:0:
276,350,90529,1,10,0:0:0:0:
365,178,90686,1,2,0:0:0:0:
365,178,90765,1,0,0:0:0:0:
365,178,90844,1,0,1:0:0:0:
177,249,91002,1,2,0:0:0:0:
359,300,91160,1,8,0:0:0:0:
172,384,91318,2,0,L|161:279,1,104.919995677429,2|0,0:0|1:0,0:0:0:0:
139,64,91634,5,2,0:0:0:0:
384,174,91792,1,10,0:0:0:0:
150,307,91950,1,2,0:0:0:0:
291,61,92107,6,0,L|395:53,1,104.919995677429,2|0,1:0|0:0,0:0:0:0:
250,179,92423,2,0,L|146:172,1,104.919995677429,10|0,0:0|0:0,0:0:0:0:
352,369,92739,6,0,P|367:319|352:270,1,104.919995677429,2|0,1:0|0:0,0:0:0:0:
238,159,93055,1,10,0:0:0:0:
286,322,93213,1,2,0:0:0:0:
286,322,93292,1,0,0:0:0:0:
286,322,93371,1,0,1:0:0:0:
133,155,93529,1,2,0:0:0:0:
365,257,93686,1,8,0:0:0:0:
169,364,93844,2,0,L|186:260,1,104.919995677429,2|0,0:0|1:0,0:0:0:0:
221,37,94160,5,2,0:0:0:0:
286,322,94318,1,10,0:0:0:0:
362,104,94476,1,2,0:0:0:0:
83,243,94634,6,0,L|187:260,1,104.919995677429,2|0,1:0|0:0,0:0:0:0:
465,87,94950,2,0,L|361:104,1,104.919995677429,10|0,0:0|0:0,0:0:0:0:
180,141,95265,5,6,1:0:0:0:
370,255,95423,1,0,0:0:0:0:
158,325,95581,1,10,0:0:0:0:
354,131,95739,6,0,L|458:114,1,104.919995677429,2|0,0:0|1:0,0:0:0:0:
181,245,96055,1,2,0:0:0:0:
291,270,96213,1,8,0:0:0:0:
129,65,96371,6,0,B|130:114|110:145|110:145|112:163|116:182|116:182|87:218|96:266,1,209.839991354859,6|0,0:0|0:0,0:0:0:0:
230,94,96844,5,10,0:0:0:0:
291,270,97002,1,0,0:0:0:0:
302,46,97160,5,10,1:2:0:0:
200,272,97318,1,0,0:0:0:0:
219,10,97476,5,10,0:0:0:0:
281,287,97634,1,0,0:0:0:0:
454,119,97792,6,0,B|389:153|316:123|316:123|350:120|371:88,1,209.839991354859,6|10,1:0|0:0,0:0:0:0:
196,53,98265,2,0,L|301:45,1,104.919995677429,2|0,0:0|1:0,0:0:0:0:
221,174,98581,2,0,L|116:166,1,104.919995677429,2|8,0:0|0:0,0:0:0:0:
50,96,98897,1,2,0:0:0:0:
213,303,99055,5,10,1:2:0:0:
370,88,99213,1,2,1:0:0:0:
116,166,99371,1,10,0:0:0:0:
367,252,99529,1,2,1:0:0:0:
215,35,99686,5,10,1:2:0:0:
205,314,99844,1,10,1:2:0:0:
381,79,100002,1,10,0:2:0:0:
101,167,100160,1,10,1:2:0:0:
377,260,100318,6,0,P|428:268|478:255,1,104.919995677429,6|0,1:0|0:0,0:0:0:0:
425,178,100634,1,10,0:0:0:0:
253,270,100792,1,2,0:0:0:0:
253,270,100871,1,0,0:0:0:0:
253,270,100950,2,0,L|266:374,1,104.919995677429,0|2,1:0|0:0,0:0:0:0:
377,260,101265,1,8,0:0:0:0:
292,112,101423,6,0,L|83:136,1,209.839991354859,2|2,0:0|0:0,0:0:0:0:
0,149,101897,1,8,0:0:0:0:
136,326,102055,1,2,0:0:0:0:
136,326,102134,1,0,0:0:0:0:
136,325,102213,2,0,P|147:274|132:224,1,104.919995677429,2|2,1:0|0:0,0:0:0:0:
30,69,102529,1,10,0:0:0:0:
60,282,102686,1,2,0:0:0:0:
289,168,102844,6,0,L|184:155,1,104.919995677429,6|0,1:0|0:0,0:0:0:0:
254,61,103160,1,10,0:0:0:0:
377,249,103318,1,2,0:0:0:0:
377,249,103397,1,0,0:0:0:0:
377,249,103476,2,0,L|389:144,1,104.919995677429,0|2,1:0|0:0,0:0:0:0:
400,39,103792,1,8,0:0:0:0:
279,298,103950,6,0,L|487:273,1,209.839991354859,6|2,0:0|0:0,0:0:0:0:
285,131,104423,2,0,L|390:144,1,104.919995677429,8|2,0:0|0:0,0:0:0:0:
186,309,104739,5,2,1:0:0:0:
204,83,104897,1,2,0:0:0:0:
308,215,105055,1,10,3:2:0:0:
270,0,105213,1,2,3:0:0:0:
117,120,105371,6,0,P|109:68|130:21,1,104.919995677429,6|0,1:0|0:0,0:0:0:0:
204,83,105686,1,10,0:0:0:0:
118,225,105844,1,2,0:0:0:0:
118,225,105923,1,0,0:0:0:0:
118,225,106002,1,0,1:0:0:0:
285,131,106160,2,0,L|390:144,1,104.919995677429,2|8,0:0|0:0,0:0:0:0:
222,237,106476,2,0,L|117:224,1,104.919995677429,2|0,0:0|1:0,0:0:0:0:
320,50,106792,5,2,0:0:0:0:
320,50,106871,1,0,0:0:0:0:
320,50,106950,1,8,0:0:0:0:
352,244,107107,1,2,0:0:0:0:
181,144,107265,2,0,L|286:131,1,104.919995677429,2|0,1:0|0:0,0:0:0:0:
456,256,107581,2,0,L|351:243,1,104.919995677429,10|0,0:0|0:0,0:0:0:0:
153,112,107897,5,10,1:2:0:0:
210,363,108055,1,2,1:0:0:0:
301,75,108213,5,10,0:0:0:0:
111,244,108371,1,2,0:0:0:0:
196,0,108529,5,10,1:2:0:0:
263,249,108686,1,2,1:0:0:0:
28,128,108844,1,10,0:0:0:0:
59,123,108922,1,2,0:0:0:0:
90,119,109001,1,2,0:0:0:0:
121,116,109080,1,2,0:0:0:0:
153,112,109159,5,10,1:2:0:0:
373,180,109318,1,10,0:0:0:0:
108,307,109476,5,10,1:2:0:0:
302,75,109634,1,10,0:0:0:0:
324,321,109792,5,10,1:2:0:0:
153,112,109950,1,10,0:0:0:0:
393,24,110107,1,10,0:0:0:0:
388,55,110185,1,2,0:0:0:0:
384,86,110264,1,2,0:0:0:0:
381,117,110343,1,2,0:0:0:0:
377,149,110422,5,0,0:0:0:0:
245,268,114213,5,2,1:0:0:0:
273,187,114371,1,0,1:0:0:0:
298,330,114529,5,2,1:0:0:0:
228,115,114686,1,0,1:0:0:0:
164,280,114844,5,2,1:0:0:0:
383,318,115002,1,0,1:0:0:0:
320,114,115160,5,14,0:0:0:0:
214,344,115318,1,14,0:0:0:0:
81,182,115476,6,0,L|185:192,1,104.919995677429,2|0,1:0|0:0,0:0:0:0:
290,202,115792,1,10,0:0:0:0:
128,358,115950,1,2,0:0:0:0:
128,358,116029,1,0,0:0:0:0:
128,358,116107,1,0,1:0:0:0:
185,190,116265,1,2,0:0:0:0:
214,344,116423,1,8,0:0:0:0:
71,153,116581,6,0,L|279:133,1,209.839991354859,6|0,0:0|0:0,0:0:0:0:
453,78,117055,5,10,0:0:0:0:
427,203,117213,1,0,0:0:0:0:
348,61,117371,5,10,0:2:0:0:
359,280,117529,1,0,0:0:0:0:
235,62,117686,5,10,0:0:0:0:
295,343,117844,1,0,0:0:0:0:
53,281,118002,6,0,B|92:280|129:264|129:264|174:277|174:277|212:261|258:261,1,209.839991354859,6|10,1:0|0:0,0:0:0:0:
63,192,118476,1,2,0:0:0:0:
63,192,118555,1,0,0:0:0:0:
63,192,118634,1,2,1:0:0:0:
132,353,118792,1,2,0:0:0:0:
256,261,118950,1,8,0:0:0:0:
53,281,119107,1,2,0:0:0:0:
140,121,119265,5,10,0:0:0:0:
172,276,119423,1,0,1:0:0:0:
225,69,119581,5,10,0:0:0:0:
256,261,119739,1,0,1:0:0:0:
295,11,119897,5,10,0:0:0:0:
339,246,120055,1,0,1:0:0:0:
225,69,120213,5,10,0:0:0:0:
312,327,120371,1,8,0:0:0:0:
440,231,120529,6,0,L|360:223,1,79.9799968269655,2|0,0:0|0:0,0:0:0:0:
336,203,120844,2,0,L|159:218,1,157.379993516144,12|0,0:0|0:0,0:0:0:0:
145,314,121160,6,0,P|157:276|152:237,1,79.9799968269655,2|0,0:0|0:0,0:0:0:0:
137,208,121476,2,0,P|117:133|157:67,1,157.379993516144,12|0,0:0|0:0,0:0:0:0:
256,34,121792,6,0,L|335:46,1,79.9799968269655,2|0,0:0|0:0,0:0:0:0:
355,70,122107,2,0,L|510:46,1,157.379993516144,12|0,0:0|0:0,0:0:0:0:
467,141,122423,6,0,L|387:153,1,79.9799968269655,2|0,0:0|0:0,0:0:0:0:
368,177,122739,2,0,L|212:153,1,157.379993516144,12|0,0:0|0:0,0:0:0:0:
186,74,123055,6,0,P|174:112|179:151,1,79.9799968269655,2|0,0:0|0:0,0:0:0:0:
191,179,123371,2,0,P|217:252|182:320,1,157.379993516144,12|0,0:0|0:0,0:0:0:0:
85,346,123686,6,0,L|164:351,1,79.9799968269655,2|0,0:0|0:0,0:0:0:0:
182,320,124002,2,0,L|340:311,1,157.379993516144,12|0,0:0|0:0,0:0:0:0:
364,291,124318,5,0,1:0:0:0:
191,179,124476,1,0,1:0:0:0:
182,320,124634,1,8,0:0:0:0:
374,172,124792,1,0,1:0:0:0:
380,310,124950,5,8,0:0:0:0:
186,74,125107,1,8,0:0:0:0:
174,337,125265,5,8,0:0:0:0:
375,68,125423,1,8,0:0:0:0:
173,203,125581,6,0,P|121:207|72:188,1,104.919995677429,2|0,1:0|0:0,0:0:0:0:
26,93,125897,1,10,0:0:0:0:
84,287,126055,1,2,0:0:0:0:
84,287,126134,1,0,0:0:0:0:
84,287,126213,1,0,1:0:0:0:
137,123,126371,1,2,0:0:0:0:
0,242,126529,1,8,0:0:0:0:
203,298,126686,6,0,P|200:246|172:202,1,104.919995677429,2|0,0:0|1:0,0:0:0:0:
344,163,127002,2,0,P|346:111|374:67,1,104.919995677429,2|8,0:0|0:0,0:0:0:0:
508,148,127318,1,2,0:0:0:0:
420,272,127476,6,0,L|315:258,1,104.919995677429,2|0,1:0|0:0,0:0:0:0:
137,123,127792,2,0,L|241:109,1,104.919995677429,10|0,0:0|0:0,0:0:0:0:
423,138,128107,5,2,1:0:0:0:
316,259,128265,1,2,1:0:0:0:
254,85,128423,5,10,0:0:0:0:
231,291,128581,1,2,0:0:0:0:
116,99,128739,5,2,1:0:0:0:
162,364,128897,1,2,1:0:0:0:
1,201,129055,6,0,L|105:210,1,104.919995677429,10|2,0:0|0:0,0:0:0:0:
305,343,129371,5,2,1:0:0:0:
240,109,129529,2,0,L|229:160,1,52.4599978387147,10|0,0:0|3:0,0:0:0:0:
293,314,129686,1,10,0:0:0:0:
362,69,129844,1,0,0:0:0:0:
88,190,130002,5,2,1:0:0:0:
337,276,130160,2,0,L|285:286,1,52.4599978387147,10|0,0:0|0:0,0:0:0:0:
162,364,130318,1,2,1:0:0:0:
183,41,130476,1,10,0:0:0:0:
223,195,130634,6,0,P|219:216|213:236,1,41.2800010078125,2|2,0:0|0:0,0:0:0:0:
180,326,131581,6,0,P|191:250|140:194,1,157.379993516144,10|0,0:0|0:0,0:0:0:0:
107,187,131897,5,6,1:0:0:0:
314,131,132055,1,2,0:0:0:0:
160,102,132213,1,10,0:0:0:0:
324,224,132371,1,2,0:0:0:0:
109,276,132529,1,2,1:0:0:0:
325,108,132686,2,0,P|321:56|311:5,1,104.919995677429,2|8,0:0|0:0,0:0:0:0:
76,78,133002,6,0,B|135:42|216:74|216:74|162:83|131:138,1,209.839991354859,2|2,0:0|0:0,0:0:0:0:
0,190,133476,1,8,0:0:0:0:
109,276,133634,2,0,L|95:171,1,104.919995677429,2|0,0:0|1:0,0:0:0:0:
149,27,133950,1,2,0:0:0:0:
228,180,134107,1,10,0:0:0:0:
404,117,134265,1,2,0:0:0:0:
404,117,134344,1,0,0:0:0:0:
403,117,134423,6,0,P|352:130|300:127,1,104.919995677429,4|2,1:0|0:0,0:0:0:0:
182,56,134739,1,10,0:0:0:0:
249,262,134897,1,2,0:0:0:0:
301,128,135055,1,2,1:0:0:0:
140,297,135213,2,0,L|244:284,1,104.919995677429,2|8,0:0|0:0,0:0:0:0:
95,371,135529,6,0,P|57:280|130:213,1,209.839991354859,2|0,0:0|0:0,0:0:0:0:
185,381,136002,1,8,0:0:0:0:
352,283,136160,1,2,0:0:0:0:
352,283,136239,1,2,0:0:0:0:
352,283,136318,5,2,1:0:0:0:
130,213,136476,1,2,0:0:0:0:
377,167,136634,1,8,0:0:0:0:
185,381,136792,1,2,0:0:0:0:
256,149,136950,6,0,P|252:96|231:49,1,104.919995677429,2|2,1:0|0:0,0:0:0:0:
231,49,137186,1,0,0:0:0:0:
231,49,137265,1,10,0:0:0:0:
216,245,137423,1,2,0:0:0:0:
69,142,137581,1,2,1:0:0:0:
140,297,137739,1,2,0:0:0:0:
143,85,137897,1,10,0:0:0:0:
4,315,138055,6,0,L|214:327,1,209.839991354859,6|2,0:0|0:0,0:0:0:0:
329,337,138529,1,10,0:0:0:0:
130,213,138686,1,2,0:0:0:0:
130,213,138765,1,0,0:0:0:0:
130,213,138844,5,2,1:0:0:0:
213,327,139002,1,2,0:0:0:0:
254,101,139160,1,10,0:0:0:0:
229,349,139318,1,2,0:0:0:0:
478,217,139476,6,0,B|424:247|362:219|362:219|380:215|395:202,1,157.379993516144,6|0,1:0|0:0,0:0:0:0:
340,146,139792,1,10,0:0:0:0:
413,371,139950,2,0,L|426:266,1,104.919995677429,2|0,0:0|1:0,0:0:0:0:
327,42,140265,2,0,L|340:146,1,104.919995677429,2|8,0:0|0:0,0:0:0:0:
229,349,140581,1,2,0:0:0:0:
229,349,140660,1,0,0:0:0:0:
229,349,140739,5,2,1:0:0:0:
363,220,140897,1,2,1:0:0:0:
153,221,141055,5,10,0:0:0:0:
320,312,141213,1,2,0:0:0:0:
135,315,141371,5,2,1:0:0:0:
363,220,141529,1,2,1:0:0:0:
102,146,141686,5,10,0:0:0:0:
320,312,141844,1,2,1:0:0:0:
62,376,142002,6,0,L|53:271,1,104.919995677429,6|2,1:0|0:0,0:0:0:0:
242,159,142318,2,0,L|233:263,1,104.919995677429,10|0,0:0|0:0,0:0:0:0:
90,54,142634,5,2,1:0:0:0:
288,41,142792,1,2,0:0:0:0:
205,183,142950,2,0,L|196:78,1,104.919995677429,10|0,0:0|0:0,0:0:0:0:
378,30,143265,5,2,1:0:0:0:
233,263,143423,1,2,0:0:0:0:
288,41,143581,1,10,0:0:0:0:
370,213,143739,1,2,0:0:0:0:
196,78,143897,2,0,P|144:72|93:85,1,104.919995677429,2|0,1:0|0:0,0:0:0:0:
105,286,144213,2,0,P|156:291|207:278,1,104.919995677429,8|0,0:0|0:0,0:0:0:0:
344,206,144529,6,0,B|390:106|304:107|339:3,1,209.839991354859,6|10,1:0|0:0,0:0:0:0:
276,150,145002,1,2,0:0:0:0:
276,150,145081,1,0,0:0:0:0:
276,149,145160,2,0,P|224:152|177:129,1,104.919995677429,0|2,1:0|0:0,0:0:0:0:
414,51,145476,2,0,P|465:47|512:70,1,104.919995677429,10|0,0:0|0:0,0:0:0:0:
269,241,145792,5,2,1:0:0:0:
448,133,145950,1,0,0:0:0:0:
388,332,146107,2,0,L|374:227,1,104.919995677429,8|0,0:0|0:0,0:0:0:0:
304,70,146423,6,0,P|247:85|288:43,1,157.379993516144,2|0,1:0|0:0,0:0:0:0:
289,44,146739,2,0,L|275:148,1,104.919995677429,10|0,0:0|0:0,0:0:0:0:
253,304,147055,6,0,B|188:349|129:339|129:339|97:298|48:292,2,209.839991354859,6|8|0,1:0|0:0|1:0,0:0:0:0:
324,246,147844,1,0,0:0:0:0:
124,171,148002,5,10,0:0:0:0:
53,380,148160,1,2,0:0:0:0:
173,255,148318,5,2,1:0:0:0:
190,374,148476,1,2,0:0:0:0:
232,173,148634,5,10,0:0:0:0:
66,295,148792,1,2,0:0:0:0:
308,219,148950,6,0,P|321:168|303:120,1,104.919995677429,0|0,1:0|0:0,0:0:0:0:
61,196,149265,2,0,P|48:246|66:295,1,104.919995677429,8|0,0:0|0:0,0:0:0:0:
232,173,149581,5,2,1:0:0:0:
206,168,149659,1,0,3:0:0:0:
180,164,149738,1,2,1:0:0:0:
154,160,149817,1,0,3:0:0:0:
122,155,149897,1,10,0:0:0:0:
167,146,149975,1,0,0:0:0:0:
212,137,150054,1,2,0:0:0:0:
257,128,150133,1,0,0:0:0:0:
302,120,150213,6,0,L|353:133,1,52.4599978387147,2|0,1:0|3:0,0:0:0:0:
322,218,150371,2,0,L|372:230,1,52.4599978387147,2|0,1:0|3:0,0:0:0:0:
341,315,150529,2,0,L|391:327,3,52.4599978387147,10|0|0|0,0:0|0:0|0:0|0:0,0:0:0:0:
272,358,150844,5,2,1:0:0:0:
257,308,150922,1,0,3:0:0:0:
276,260,151001,1,10,0:0:0:0:
319,233,151080,1,0,3:0:0:0:
357,195,151160,1,10,0:0:0:0:
371,145,151238,1,0,0:0:0:0:
356,94,151317,1,2,0:0:0:0:
319,56,151396,1,0,0:0:0:0:
267,43,151476,1,2,1:0:0:0:
222,70,151555,1,0,3:0:0:0:
172,87,151634,1,8,0:0:0:0:
120,76,151713,1,0,0:0:0:0:
78,43,151792,2,0,P|52:37|26:39,4,52.4599978387147,8|0|0|0|2,1:2|3:0|0:0|0:0|0:0,0:0:0:0:
41,326,154634,6,0,L|153:339,1,113.519999653564,10|0,1:2|0:0,0:0:0:0:
68,242,154950,2,0,L|180:255,1,113.519999653564,10|0,1:2|0:0,0:0:0:0:
466,205,155265,6,0,L|353:218,1,113.519999653564,10|0,1:2|0:0,0:0:0:0:
439,121,155581,2,0,L|326:134,1,113.519999653564,10|0,1:2|0:0,0:0:0:0:
256,313,155897,6,0,B|300:189|206:189|256:65,1,247.680006046875,14|2,0:0|1:0,0:0:0:0:
