osu file format v14

[General]
AudioFilename: meme.mp3
AudioLeadIn: 0
PreviewTime: 16713
Countdown: 0
SampleSet: Soft
StackLeniency: 0.4
Mode: 0
LetterboxInBreaks: 0
WidescreenStoryboard: 1

[Editor]
Bookmarks: 18213,28318,38423,48529,58634,68739,78844,80107,81371,82634,83897,85160,86423,87686,88950,90213,99055,100318,107897,110423,114213,115476,120529,124318,128107,130634,131897,142002
DistanceSpacing: 3
BeatDivisor: 4
GridSize: 8
TimelineZoom: 2.2

[Metadata]
Title:SANTA SAN
TitleUnicode:サンタさん
Artist:MOMOIRO CLOVER Z
ArtistUnicode:ももいろクローバーZ
Creator:Sotarks
Version:Kalibe's Extra
Source:
Tags:メリー クリスマス ココナッツ merry christmas coconuts momoclo takagi reni momota kanako ariyasu momoka tamai shiori sasaki ayaka akitoshi corinn doormat irohas mugiwarasekai kalibe kin linada milan- toybot haruto haruto_aizawa
BeatmapID:1480395
BeatmapSetID:695316

[Difficulty]
HPDrainRate:6
CircleSize:4.2
OverallDifficulty:8.5
ApproachRate:9.2
SliderMultiplier:1.64
SliderTickRate:1

[Events]
//Background and Video events
0,0,"kaleebe.jpg",0,0
//Break Periods
//Storyboard Layer 0 (Background)
//Storyboard Layer 1 (Fail)
//Storyboard Layer 2 (Pass)
//Storyboard Layer 3 (Foreground)
//Storyboard Sound Samples

[TimingPoints]
529,315.789473684211,4,2,22,72,1,0
17897,-66.6666666666667,4,2,22,72,0,0
18213,-100,4,2,22,72,0,0
22950,-200,4,2,22,72,0,0
23186,-200,4,2,22,72,0,0
23265,-100,4,2,22,72,0,0
28002,-66.6666666666667,4,2,22,72,0,0
28239,-66.6666666666667,4,2,22,72,0,0
28318,-111.111111111111,4,2,22,62,0,0
33055,-71.4285714285714,4,2,22,62,0,0
33371,-111.111111111111,4,2,22,62,0,0
38107,-66.6666666666667,4,2,22,62,0,0
38423,-125,4,2,22,52,0,0
48213,-66.6666666666667,4,2,22,72,0,0
48450,-66.6666666666667,4,2,22,72,0,0
48529,-100,4,2,22,72,0,0
67476,-83.3333333333333,4,2,22,72,0,0
68739,-111.111111111111,4,2,22,62,0,0
71186,-111.111111111111,4,2,22,62,0,0
71265,-111.111111111111,4,2,22,62,0,0
73713,-111.111111111111,4,2,22,62,0,0
73792,-111.111111111111,4,2,22,62,0,0
77581,-90.9090909090909,4,2,22,72,0,0
78844,-200,4,2,22,42,0,0
88950,-133.333333333333,4,2,22,42,0,0
89581,-200,4,2,22,42,0,0
89897,-66.6666666666667,4,2,22,72,0,0
90213,-90.9090909090909,4,2,22,82,0,1
99686,-90.9090909090909,4,2,22,92,0,1
100318,-90.9090909090909,4,2,22,82,0,1
110423,-166.666666666667,4,2,22,82,0,0
114213,-100,4,2,22,52,0,0
114529,-100,4,2,22,62,0,0
114844,-100,4,2,22,72,0,0
115160,-66.6666666666667,4,2,22,82,0,0
115476,-90.9090909090909,4,2,22,82,0,1
120529,-50,4,2,22,42,0,0
120844,-50,4,2,22,72,0,0
121160,-50,4,2,22,42,0,0
121476,-50,4,2,22,72,0,0
121792,-50,4,2,22,42,0,0
122107,-50,4,2,22,72,0,0
122423,-50,4,2,22,42,0,0
122739,-50,4,2,22,72,0,0
123055,-50,4,2,22,42,0,0
123371,-50,4,2,22,72,0,0
123686,-50,4,2,22,42,0,0
124002,-50,4,2,22,72,0,0
124318,-100,4,2,22,72,0,0
125265,-66.6666666666667,4,2,22,72,0,0
125581,-90.9090909090909,4,2,22,82,0,1
130634,-166.666666666667,4,2,22,82,0,0
131581,-66.6666666666667,4,2,22,82,0,0
131818,-66.6666666666667,4,2,22,82,0,0
131897,-100,4,2,22,82,0,0
152107,-333.333333333334,4,2,22,42,0,0
154634,-83.3333333333333,4,2,22,72,0,0
155897,-333.333333333333,4,2,22,72,0,0
156450,-333.333333333333,4,2,22,5,0,0
156529,-333.333333333333,4,2,22,72,0,0

[Colours]
Combo1 : 210,188,187
Combo2 : 244,162,162
Combo3 : 189,207,253
Combo4 : 165,245,158
SliderBorder : 255,168,168
SliderTrackOverride : 20,0,0

[HitObjects]
413,279,17897,5,8,0:0:0:0:
402,270,18213,6,0,P|357:280|297:293,1,82,6|0,1:0|0:0,0:0:0:0:
160,152,18529,2,0,P|200:160|240:169,1,82,10|0,0:0|0:0,0:0:0:0:
320,128,18844,5,2,1:0:0:0:
168,264,19002,1,0,0:0:0:0:
80,208,19160,2,0,P|52:237|48:280,1,82,8|0,0:0|0:0,0:0:0:0:
139,369,19476,6,0,L|165:282,1,82,2|0,1:0|0:0,0:0:0:0:
378,191,19792,2,0,L|404:278,1,82,10|0,0:0|0:0,0:0:0:0:
344,360,20107,5,2,1:0:0:0:
480,208,20265,1,2,0:0:0:0:
400,104,20423,1,8,0:0:0:0:
288,160,20581,1,8,0:0:0:0:
401,269,20739,5,2,1:0:0:0:
504,80,20897,1,0,0:0:0:0:
504,80,20976,1,0,0:0:0:0:
504,80,21055,2,0,P|461:90|404:101,1,82,10|0,0:0|0:0,0:0:0:0:
272,184,21371,2,0,P|232:174|191:166,1,82,2|0,1:0|0:0,0:0:0:0:
48,72,21686,2,0,P|0:112|8:184,1,123,10|0,0:0|0:0,0:0:0:0:
16,176,22002,5,14,0:0:0:0:
112,240,22160,1,0,1:0:0:0:
48,328,22318,5,10,0:0:0:0:
191,166,22476,1,0,1:0:0:0:
128,80,22634,5,14,0:0:0:0:
280,224,22792,1,0,1:0:0:0:
384,160,22950,6,0,L|449:170,1,61.5,14|0,0:0|0:0,0:0:0:0:
458,159,23265,6,0,P|463:201|474:255,1,82,2|0,1:0|0:0,0:0:0:0:
264,338,23581,2,0,P|271:297|276:257,1,82,10|0,0:0|0:0,0:0:0:0:
360,376,23897,5,2,1:0:0:0:
184,288,24055,1,0,0:0:0:0:
64,344,24213,2,0,P|44:309|52:266,1,82,10|0,0:0|0:0,0:0:0:0:
191,166,24529,6,0,P|236:173|288:182,1,82,2|0,1:0|0:0,0:0:0:0:
104,56,24844,2,0,P|63:62|23:69,1,82,10|0,0:0|0:0,0:0:0:0:
120,216,25160,5,2,1:0:0:0:
296,160,25318,1,0,0:0:0:0:
192,128,25476,1,10,0:0:0:0:
288,304,25634,1,0,0:0:0:0:
192,384,25792,5,2,1:0:0:0:
192,384,25950,1,0,0:0:0:0:
368,240,26107,2,0,P|402:289|384:358,1,123,10|0,0:0|0:0,0:0:0:0:
371,368,26423,5,2,1:0:0:0:
272,288,26581,1,0,0:0:0:0:
376,216,26739,5,10,0:0:0:0:
240,112,26897,1,0,0:0:0:0:
320,24,27055,5,12,0:0:0:0:
504,136,27371,5,12,0:0:0:0:
347,251,27686,5,12,0:0:0:0:
419,365,28002,5,8,0:0:0:0:
504,136,28318,6,0,B|442:118|426:177|354:155,1,147.599995495606,6|8,1:0|0:0,0:0:0:0:
245,125,28792,2,0,P|255:160|264:207,1,73.7999977478028,2|2,1:0|0:0,0:0:0:0:
461,307,29107,2,0,P|468:270|478:235,1,73.7999977478028,2|8,1:0|0:0,0:0:0:0:
382,176,29423,5,2,0:0:0:0:
272,288,29581,2,0,P|235:286|203:268,1,73.7999977478028,0|2,1:0|1:0,0:0:0:0:
64,144,29897,5,10,0:0:0:0:
168,200,30055,1,2,1:0:0:0:
24,336,30213,1,2,0:0:0:0:
80,224,30371,5,0,1:0:0:0:
192,384,30529,1,10,0:0:0:0:
272,157,30844,6,0,L|387:176,1,110.699996621704,2|0,1:0|0:0,0:0:0:0:
393,193,31160,1,10,0:0:0:0:
304,256,31318,5,0,1:0:0:0:
416,88,31476,1,2,0:0:0:0:
504,155,31634,2,0,P|515:191|505:234,1,73.7999977478028,0|10,1:0|0:0,0:0:0:0:
440,312,31950,5,2,0:0:0:0:
288,176,32107,1,0,1:0:0:0:
400,72,32265,1,2,1:0:0:0:
296,0,32423,6,0,P|302:36|311:79,1,73.7999977478028,10|0,0:0|1:0,0:0:0:0:
88,240,32739,2,0,P|100:186|109:139,1,73.7999977478028,2|0,0:0|1:0,0:0:0:0:
194,62,33055,5,8,0:0:0:0:
272,304,33213,1,0,1:0:0:0:
368,232,33371,6,0,P|304:179|236:193,1,147.599995495606,2|8,1:0|0:0,0:0:0:0:
178,325,33844,2,0,L|259:308,1,73.7999977478028,0|0,1:0|0:0,0:0:0:0:
416,128,34160,2,0,L|335:145,1,73.7999977478028,0|8,1:0|0:0,0:0:0:0:
240,216,34476,5,0,1:0:0:0:
392,384,34634,1,0,1:0:0:0:
512,296,34792,1,0,1:0:0:0:
432,160,34950,5,8,0:0:0:0:
336,192,35107,1,0,1:0:0:0:
264,304,35265,5,0,0:0:0:0:
96,248,35423,1,0,1:0:0:0:
144,344,35581,5,8,0:0:0:0:
344,224,35739,1,0,1:0:0:0:
256,168,35897,6,0,P|218:158|181:143,1,73.7999977478028,0|0,1:0|0:0,0:0:0:0:
354,315,36213,2,0,P|406:295|469:289,1,110.699996621704,8|0,0:0|0:0,0:0:0:0:
487,300,36529,6,0,P|495:262|507:222,1,73.7999977478028,0|0,1:0|0:0,0:0:0:0:
264,64,36844,2,0,P|274:99|281:135,1,73.7999977478028,8|0,0:0|0:0,0:0:0:0:
232,256,37160,5,8,0:0:0:0:
384,144,37318,1,0,1:0:0:0:
280,56,37476,5,8,0:0:0:0:
392,248,37634,1,0,1:0:0:0:
232,368,37792,5,8,0:0:0:0:
308,154,37950,1,0,1:0:0:0:
304,276,38107,5,12,0:0:0:0:
232,256,38265,1,0,1:0:0:0:
160,237,38423,1,2,1:0:0:0:
0,216,38739,6,0,P|55:255|120:248,1,131.2,2|2,3:0|1:0,0:0:0:0:
208,179,39213,1,2,0:0:0:0:
296,312,39371,2,0,L|272:400,1,65.6,2|0,3:0|0:0,0:0:0:0:
200,320,39686,5,2,1:0:0:0:
400,256,39844,1,2,1:0:0:0:
493,309,40002,2,0,P|505:276|506:245,1,65.6,2|0,3:0|0:0,0:0:0:0:
368,368,40318,5,2,1:0:0:0:
264,224,40476,1,0,1:0:0:0:
352,144,40634,2,0,L|432:160,1,65.6,2|0,3:0|0:0,0:0:0:0:
491,218,40950,5,2,1:0:0:0:
399,53,41107,1,2,0:0:0:0:
269,115,41265,1,2,3:0:0:0:
184,76,41423,5,0,0:0:0:0:
350,172,41581,1,2,1:0:0:0:
197,250,41739,1,2,0:0:0:0:
204,349,41897,5,0,3:0:0:0:
129,173,42055,1,0,0:0:0:0:
40,264,42213,6,0,P|34:299|24:344,1,65.6,2|2,1:0|1:0,0:0:0:0:
201,257,42529,2,0,L|303:275,1,98.4,2|0,3:0|0:0,0:0:0:0:
309,290,42844,1,2,1:0:0:0:
440,208,43002,6,0,P|408:214|373:232,1,65.6,2|2,0:0|3:0,0:0:0:0:
232,360,43318,1,0,0:0:0:0:
232,360,43634,5,2,1:0:0:0:
144,312,43792,2,0,P|125:339|120:384,1,65.6,2|0,1:0|0:0,0:0:0:0:
320,304,44107,5,2,3:0:0:0:
216,224,44265,1,2,0:0:0:0:
344,64,44423,1,2,1:0:0:0:
216,112,44581,5,0,0:0:0:0:
320,184,44739,1,2,3:0:0:0:
144,312,44897,1,2,1:0:0:0:
224,216,45055,5,0,0:0:0:0:
320,384,45213,1,2,3:0:0:0:
232,312,45371,5,0,0:0:0:0:
400,240,45529,1,0,0:0:0:0:
400,240,45607,1,0,0:0:0:0:
400,240,45686,1,2,3:0:0:0:
309,128,45844,1,2,0:0:0:0:
129,199,46002,5,2,1:0:0:0:
288,32,46160,2,0,P|297:66|304:105,1,65.6,2|0,3:0|0:0,0:0:0:0:
240,184,46476,1,2,0:0:0:0:
320,296,46634,5,2,1:0:0:0:
144,136,46792,2,0,P|135:170|128:209,1,65.6,2|0,3:0|0:0,0:0:0:0:
190,289,47107,1,2,0:0:0:0:
256,208,47265,5,2,1:0:0:0:
48,352,47423,1,2,0:0:0:0:
48,352,47502,1,2,0:0:0:0:
48,352,47581,2,0,P|26:283|59:231,1,131.2,2|2,1:0|1:0,0:0:0:0:
70,224,48213,1,8,0:0:0:0:
304,371,48529,6,0,P|343:362|392:358,1,82,6|0,1:0|0:0,0:0:0:0:
480,184,48844,2,0,P|440:174|401:159,1,82,10|0,0:0|1:0,0:0:0:0:
210,208,49160,6,0,B|286:202|292:269|369:259,1,164,2|8,0:0|0:0,0:0:0:0:
486,204,49634,1,0,0:0:0:0:
356,89,49792,6,0,P|364:126|372:172,1,82,2|0,1:0|0:0,0:0:0:0:
208,378,50107,2,0,P|214:337|223:297,1,82,10|0,0:0|1:0,0:0:0:0:
361,259,50423,5,2,0:0:0:0:
208,200,50581,1,0,1:0:0:0:
95,269,50739,2,0,P|77:232|76:191,1,82,8|0,0:0|0:0,0:0:0:0:
192,48,51055,6,0,P|235:56|288:64,1,82,2|0,1:0|0:0,0:0:0:0:
264,288,51371,2,0,P|223:281|183:274,1,82,10|0,0:0|1:0,0:0:0:0:
329,163,51686,2,0,B|402:142|413:222|487:195,1,164,2|10,0:0|0:0,0:0:0:0:
348,258,52160,1,0,0:0:0:0:
464,104,52318,5,2,1:0:0:0:
316,171,52476,1,0,0:0:0:0:
435,284,52634,2,0,P|424:321|410:373,1,82,10|0,0:0|1:0,0:0:0:0:
505,351,52950,5,2,0:0:0:0:
348,258,53107,1,0,1:0:0:0:
472,200,53265,1,10,0:0:0:0:
320,360,53423,1,0,0:0:0:0:
435,284,53581,5,2,1:0:0:0:
316,171,53739,2,0,P|320:128|344:91,1,82,2|8,0:0|0:0,0:0:0:0:
208,248,54055,2,0,P|121:294|54:274,1,164,2|2,1:0|1:0,0:0:0:0:
16,176,54529,2,0,L|110:194,1,82,10|0,0:0|0:0,0:0:0:0:
240,352,54844,5,2,1:0:0:0:
336,272,55002,1,0,0:0:0:0:
216,152,55160,5,8,0:0:0:0:
340,277,55318,2,0,P|440:285|495:238,1,164,2|0,1:0|1:0,0:0:0:0:
400,64,55792,2,0,P|359:98|365:171,1,123,10|0,0:0|0:0,0:0:0:0:
376,176,56107,5,2,1:0:0:0:
256,136,56265,1,0,0:0:0:0:
152,192,56423,5,10,0:0:0:0:
288,24,56581,1,0,0:0:0:0:
184,72,56739,5,10,0:0:0:0:
272,248,56897,1,0,1:0:0:0:
168,304,57055,5,10,0:0:0:0:
360,163,57213,1,0,1:0:0:0:
384,296,57371,5,6,3:0:0:0:
272,248,57529,1,0,0:0:0:0:
72,360,57686,1,10,3:0:0:0:
168,272,57844,1,0,0:0:0:0:
288,384,58002,5,6,3:0:0:0:
168,272,58160,1,10,0:0:0:0:
336,176,58318,1,10,0:0:0:0:
256,104,58476,1,10,0:0:0:0:
321,40,58634,6,0,P|360:56|406:61,1,82,6|0,1:0|0:0,0:0:0:0:
512,208,58950,2,0,P|471:213|433:229,1,82,8|0,0:0|1:0,0:0:0:0:
182,333,59265,6,0,P|246:373|334:349,1,164,2|8,0:0|0:0,0:0:0:0:
407,264,59739,1,0,0:0:0:0:
464,368,59897,5,2,1:0:0:0:
288,272,60055,1,0,0:0:0:0:
165,345,60213,2,0,P|149:308|150:262,1,82,8|0,0:0|1:0,0:0:0:0:
224,160,60529,5,2,0:0:0:0:
48,296,60686,1,0,1:0:0:0:
104,200,60844,5,8,0:0:0:0:
264,296,61002,1,0,0:0:0:0:
376,240,61160,6,0,P|408:168|371:84,1,164,2|10,1:0|0:0,0:0:0:0:
272,24,61634,1,0,1:0:0:0:
388,97,61792,6,0,P|434:83|481:73,1,82,2|0,0:0|1:0,0:0:0:0:
272,224,62107,2,0,P|225:210|179:200,1,82,10|0,0:0|0:0,0:0:0:0:
272,112,62423,5,2,1:0:0:0:
368,264,62581,1,0,0:0:0:0:
488,176,62739,2,0,P|506:214|501:262,1,82,10|0,0:0|1:0,0:0:0:0:
432,344,63055,5,2,0:0:0:0:
352,184,63213,1,0,1:0:0:0:
456,104,63371,5,10,0:0:0:0:
363,268,63529,1,0,0:0:0:0:
488,176,63686,5,2,1:0:0:0:
361,77,63844,2,0,P|338:111|335:152,1,82,2|8,0:0|0:0,0:0:0:0:
425,333,64160,2,0,P|354:281|281:299,1,164,2|2,1:0|1:0,0:0:0:0:
128,176,64634,2,0,P|184:208|240:200,1,123,10|0,0:0|0:0,0:0:0:0:
248,192,64950,5,2,1:0:0:0:
176,368,65107,1,2,0:0:0:0:
280,288,65265,5,8,0:0:0:0:
128,160,65423,1,2,1:0:0:0:
224,88,65581,1,0,0:0:0:0:
136,40,65739,5,0,1:0:0:0:
230,91,65897,2,0,P|266:71|308:66,1,82,10|0,0:0|0:0,0:0:0:0:
512,200,66213,6,0,P|425:225|358:176,1,164,2|10,1:0|0:0,0:0:0:0:
304,104,66686,1,0,0:0:0:0:
408,64,66844,5,10,0:0:0:0:
272,240,67002,1,0,1:0:0:0:
296,344,67160,5,10,0:0:0:0:
216,168,67318,1,0,1:0:0:0:
104,256,67476,5,6,1:0:0:0:
104,256,67792,1,6,1:0:0:0:
232,80,68107,5,6,1:0:0:0:
288,360,68423,1,8,0:0:0:0:
303,347,68739,6,0,B|337:365|337:365|377:359,1,73.7999977478028,2|0,1:0|0:0,0:0:0:0:
512,208,69055,2,0,B|477:202|477:202|443:220,1,73.7999977478028,10|10,0:0|0:0,0:0:0:0:
360,280,69371,2,0,L|507:310,1,147.599995495606,2|10,1:0|0:0,0:0:0:0:
435,212,69844,5,2,0:0:0:0:
248,288,70002,1,0,1:0:0:0:
371,359,70160,1,2,1:0:0:0:
296,200,70318,5,10,0:0:0:0:
128,344,70476,1,0,1:0:0:0:
256,296,70634,5,2,1:0:0:0:
136,240,70792,1,0,0:0:0:0:
48,296,70950,5,10,0:0:0:0:
136,144,71107,1,0,0:0:0:0:
80,80,71265,6,0,P|160:120|216:104,1,147.599995495606,2|10,1:0|0:0,0:0:0:0:
352,24,71739,1,10,0:0:0:0:
408,104,71897,6,0,L|389:182,1,73.7999977478028,2|0,1:0|0:0,0:0:0:0:
256,272,72213,2,0,L|275:350,1,73.7999977478028,10|2,0:0|0:0,0:0:0:0:
360,384,72529,5,0,1:0:0:0:
168,320,72686,1,0,1:0:0:0:
312,208,72844,1,10,0:0:0:0:
224,160,73002,5,0,1:0:0:0:
352,288,73160,1,2,1:0:0:0:
256,360,73318,5,10,0:0:0:0:
400,200,73476,1,10,0:0:0:0:
320,112,73634,1,0,0:0:0:0:
480,64,73792,6,0,P|409:79|324:96,1,147.599995495606,2|10,1:0|0:0,0:0:0:0:
248,24,74265,1,10,0:0:0:0:
417,125,74423,6,0,P|454:205|428:264,1,147.599995495606,2|8,1:0|0:0,0:0:0:0:
320,344,74897,1,2,0:0:0:0:
424,256,75055,5,0,1:0:0:0:
256,176,75213,1,2,1:0:0:0:
136,248,75371,1,8,0:0:0:0:
184,344,75529,5,2,1:0:0:0:
328,240,75686,1,2,1:0:0:0:
232,168,75844,5,2,0:0:0:0:
304,368,76002,1,10,0:0:0:0:
304,368,76160,1,2,0:0:0:0:
232,259,76318,6,0,P|189:250|158:240,1,73.7999977478028,2|2,1:0|0:0,0:0:0:0:
0,368,76634,2,0,P|19:327|32:288,1,73.7999977478028,10|10,0:0|0:0,0:0:0:0:
64,168,76950,2,0,P|84:235|112:328,1,147.599995495606,2|10,1:0|0:0,0:0:0:0:
120,328,77581,5,10,1:2:0:0:
240,256,77739,1,2,1:0:0:0:
360,376,77897,1,10,1:2:0:0:
360,376,78055,1,0,0:0:0:0:
264,336,78213,5,2,1:0:0:0:
408,216,78371,1,0,0:0:0:0:
304,120,78529,1,8,0:0:0:0:
304,120,78844,6,0,L|210:136,1,82,2|2,0:0|0:0,0:0:0:0:
154,98,79476,1,0,3:0:0:0:
343,260,79792,1,2,0:0:0:0:
408,216,80107,6,0,P|423:253|414:293,1,82,2|2,0:0|0:0,0:0:0:0:
343,260,80739,1,2,3:0:0:0:
128,384,81055,1,2,0:0:0:0:
224,344,81371,5,2,0:0:0:0:
160,296,81686,1,2,0:0:0:0:
80,288,82002,1,2,3:0:0:0:
7,321,82318,1,2,0:0:0:0:
64,378,82634,2,0,P|103:310|65:238,1,164,2|0,0:0|0:0,0:0:0:0:
0,195,83581,1,0,0:0:0:0:
224,344,83897,6,0,P|273:312|341:318,1,123,2|2,0:0|0:0,0:0:0:0:
424,376,84529,2,0,L|441:321,1,41
502,260,84844,2,0,L|489:210,1,41
416,144,85160,5,0,0:0:0:0:
312,232,85476,1,0,0:0:0:0:
188,176,85792,1,2,3:0:0:0:
35,234,86107,1,2,0:0:0:0:
330,213,86423,6,0,L|197:194,1,123,2|2,0:0|0:0,0:0:0:0:
93,169,87055,6,0,P|138:214|205:201,1,123,2|2,3:0|0:0,0:0:0:0:
283,262,87686,6,0,P|203:254|139:302,1,164,2|0,0:0|0:0,0:0:0:0:
139,301,88634,1,0,0:0:0:0:
193,208,88950,5,2,1:0:0:0:
283,262,89265,1,2,1:0:0:0:
408,214,89581,1,2,1:0:0:0:
412,220,89897,6,0,B|404:277|376:345|376:345|406:322|433:304,1,184.500007038117,8|0,0:0|0:0,0:0:0:0:
496,256,90213,6,0,B|424:227|401:294|317:264,1,180.400005505371,6|10,1:0|0:0,0:0:0:0:
200,200,90686,2,0,P|177:238|180:284,1,90.2000027526856,2|0,0:0|1:0,0:0:0:0:
376,384,91002,2,0,P|399:346|395:299,1,90.2000027526856,2|8,0:0|0:0,0:0:0:0:
307,232,91318,5,2,0:0:0:0:
496,304,91476,1,0,1:0:0:0:
416,216,91634,5,2,0:0:0:0:
280,360,91792,1,10,0:0:0:0:
179,282,91950,1,2,0:0:0:0:
80,352,92107,6,0,P|67:308|64:256,1,90.2000027526856,2|0,1:0|0:0,0:0:0:0:
296,112,92423,2,0,P|308:155|312:208,1,90.2000027526856,10|0,0:0|0:0,0:0:0:0:
256,288,92739,6,0,P|352:224|408:240,1,180.400005505371,2|10,1:0|0:0,0:0:0:0:
512,120,93213,2,0,L|408:144,1,90.2000027526856,2|0,0:0|1:0,0:0:0:0:
344,320,93529,2,0,L|256:299,1,90.2000027526856,2|8,0:0|0:0,0:0:0:0:
184,200,93844,5,2,0:0:0:0:
280,8,94002,1,0,1:0:0:0:
352,96,94160,5,2,0:0:0:0:
184,192,94318,1,10,0:0:0:0:
88,112,94476,1,2,0:0:0:0:
192,40,94634,6,0,P|232:24|280:21,1,90.2000027526856,2|0,1:0|0:0,0:0:0:0:
408,216,94950,2,0,P|363:213|321:196,1,90.2000027526856,10|0,0:0|0:0,0:0:0:0:
254,104,95265,6,0,P|273:186|293:285,1,180.400005505371,2|10,1:0|0:0,0:0:0:0:
408,184,95739,1,2,0:0:0:0:
320,376,95897,1,0,1:0:0:0:
440,320,96055,5,2,0:0:0:0:
304,208,96213,1,8,0:0:0:0:
200,328,96371,2,0,P|128:368|24:336,1,180.400005505371,6|0,0:0|0:0,0:0:0:0:
0,240,96844,5,10,0:0:0:0:
184,144,97002,1,0,0:0:0:0:
80,80,97160,5,2,1:0:0:0:
168,240,97318,1,0,0:0:0:0:
289,102,97476,2,0,P|244:110|201:133,1,90.2000027526856,10|0,0:0|0:0,0:0:0:0:
82,258,97792,5,6,1:0:0:0:
232,360,97950,1,0,0:0:0:0:
376,192,98107,1,10,0:0:0:0:
236,271,98265,6,0,B|309:261|309:261|349:284|349:284|432:273,1,180.400005505371,2|2,0:0|0:0,0:0:0:0:
512,200,98739,1,8,0:0:0:0:
368,104,98897,1,2,0:0:0:0:
480,40,99055,5,10,1:2:0:0:
400,248,99213,1,2,1:0:0:0:
320,176,99371,5,10,0:0:0:0:
416,384,99529,1,2,1:0:0:0:
496,304,99686,5,10,1:2:0:0:
280,384,99844,1,2,1:0:0:0:
208,304,100002,5,10,0:0:0:0:
408,376,100160,1,2,1:0:0:0:
285,256,100318,6,0,B|210:247|197:320|109:310,1,180.400005505371,6|10,1:0|0:0,0:0:0:0:
269,163,100792,2,0,P|313:165|352:188,1,90.2000027526856,2|0,0:0|1:0,0:0:0:0:
496,304,101107,2,0,P|457:326|412:329,1,90.2000027526856,2|8,0:0|0:0,0:0:0:0:
285,256,101423,6,0,L|301:355,1,90.2000027526856,2|0,0:0|1:0,0:0:0:0:
488,208,101739,2,0,L|473:118,1,90.2000027526856,2|8,0:0|0:0,0:0:0:0:
322,10,102055,2,0,L|354:202,1,180.400005505371,2|2,0:0|0:0,0:0:0:0:
448,104,102529,5,10,0:0:0:0:
256,248,102686,1,2,0:0:0:0:
160,136,102844,6,0,P|206:147|254:159,1,90.2000027526856,4|0,0:0|0:0,0:0:0:0:
376,320,103160,1,10,0:0:0:0:
432,240,103318,5,2,0:0:0:0:
432,240,103397,1,0,0:0:0:0:
432,240,103476,1,0,1:0:0:0:
304,376,103634,1,2,0:0:0:0:
224,176,103792,1,8,0:0:0:0:
128,256,103950,6,0,P|90:205|123:98,1,180.400005505371,6|2,0:0|0:0,0:0:0:0:
216,29,104423,1,8,0:0:0:0:
104,96,104581,5,2,0:0:0:0:
215,279,104739,1,2,1:0:0:0:
280,160,104897,5,2,0:0:0:0:
112,264,105055,1,10,3:2:0:0:
216,384,105213,1,2,3:0:0:0:
60,334,105371,6,0,P|129:276|221:282,1,180.400005505371,6|10,1:0|0:0,0:0:0:0:
320,360,105844,2,0,B|363:377|363:377|416:366,1,90.2000027526856,2|0,0:0|1:0,0:0:0:0:
512,192,106160,2,0,B|469:175|469:175|416:186,1,90.2000027526856,2|8,0:0|0:0,0:0:0:0:
312,256,106476,5,2,0:0:0:0:
432,96,106634,1,0,1:0:0:0:
336,24,106792,5,2,0:0:0:0:
425,183,106950,1,8,0:0:0:0:
304,280,107107,1,2,0:0:0:0:
304,280,107186,1,0,0:0:0:0:
304,280,107265,1,2,1:0:0:0:
408,352,107423,5,0,0:0:0:0:
236,208,107581,2,0,P|206:243|201:292,1,90.2000027526856,10|0,0:0|0:0,0:0:0:0:
255,364,107897,5,2,1:0:0:0:
464,264,108055,1,2,1:0:0:0:
512,368,108213,5,10,0:0:0:0:
304,280,108371,1,2,0:0:0:0:
384,208,108529,5,2,1:0:0:0:
304,80,108686,1,2,1:0:0:0:
224,160,108844,5,10,0:0:0:0:
440,48,109002,1,0,0:0:0:0:
304,72,109160,5,2,1:0:0:0:
504,208,109318,1,10,0:0:0:0:
392,304,109476,5,2,1:0:0:0:
504,112,109634,1,10,0:0:0:0:
368,176,109792,5,2,1:0:0:0:
144,112,109950,1,10,0:0:0:0:
224,21,110107,6,0,L|238:87,1,45.1000013763428,10|0,0:0|0:0,0:0:0:0:
64,216,110265,2,0,L|82:137,1,45.1000013763428,8|0,0:0|0:0,0:0:0:0:
149,116,110423,6,0,P|188:93|253:102,1,98.3999969970704,2|0,0:0|0:0,0:0:0:0:
320,48,110897,2,0,P|343:87|334:152,1,98.3999969970704,2|2,0:0|0:0,0:0:0:0:
400,211,111371,1,0,0:0:0:0:
400,211,111529,2,0,P|361:234|296:225,2,98.3999969970704,2|0|0,0:0|0:0|0:0,0:0:0:0:
480,136,112318,2,0,P|488:186|501:242,1,98.3999969970704,2|0,0:0|0:0,0:0:0:0:
280,352,112950,6,0,P|290:304|298:255,1,98.3999969970704,2|0,0:0|0:0,0:0:0:0:
256,192,113423,1,2,0:0:0:0:
408,312,113739,1,2,0:0:0:0:
264,184,114055,1,0,0:0:0:0:
152,256,114213,5,2,1:0:0:0:
248,56,114371,1,0,1:0:0:0:
136,152,114529,5,2,1:0:0:0:
272,336,114686,1,0,1:0:0:0:
128,376,114844,5,2,1:0:0:0:
336,224,115002,1,0,1:0:0:0:
440,336,115160,6,0,P|468:349|504:357,1,61.5000023460389,14|0,0:0|0:0,0:0:0:0:
408,184,115318,2,0,P|378:191|350:204,1,61.5000023460389,14|0,0:0|0:0,0:0:0:0:
232,328,115476,6,0,B|132:355|156:285|53:306,1,180.400005505371,2|10,1:0|0:0,0:0:0:0:
200,224,115950,1,2,0:0:0:0:
48,312,116107,1,0,1:0:0:0:
96,192,116265,5,2,0:0:0:0:
152,368,116423,1,8,0:0:0:0:
304,267,116581,2,0,P|325:301|319:357,1,90.2000027526856,6|0,0:0|0:0,0:0:0:0:
192,256,116897,1,0,0:0:0:0:
320,176,117055,2,0,B|407:161|410:239|496:210,1,180.400005505371,10|2,0:0|1:0,0:0:0:0:
362,299,117529,5,0,0:0:0:0:
486,131,117686,2,0,P|440:133|397:160,1,90.2000027526856,10|0,0:0|0:0,0:0:0:0:
301,353,118002,6,0,P|339:374|384:376,1,90.2000027526856,2|0,1:0|0:0,0:0:0:0:
504,288,118318,1,10,0:0:0:0:
328,216,118476,2,0,L|134:257,1,180.400005505371,2|2,0:0|0:0,0:0:0:0:
48,336,118950,5,8,0:0:0:0:
192,152,119107,1,2,0:0:0:0:
88,88,119265,5,10,0:0:0:0:
176,280,119423,1,0,1:0:0:0:
188,142,119581,5,10,0:0:0:0:
16,256,119739,1,0,1:0:0:0:
160,360,119897,5,10,0:0:0:0:
328,216,120055,1,0,1:0:0:0:
192,128,120213,1,10,0:0:0:0:
312,88,120371,6,0,L|296:160,1,45.1000013763428,8|0,0:0|0:0,0:0:0:0:
264,296,120529,1,2,0:0:0:0:
264,296,120844,6,0,P|282:236|273:313,1,328,12|2,0:0|0:0,0:0:0:0:
317,280,121476,6,0,P|335:220|326:297,1,328,12|2,0:0|0:0,0:0:0:0:
370,264,122107,6,0,P|310:246|387:255,1,328,12|2,0:0|0:0,0:0:0:0:
354,212,122739,6,0,P|294:194|371:203,1,328,12|2,0:0|0:0,0:0:0:0:
337,159,123371,6,0,P|395:66|353:167,1,328,12|2,0:0|0:0,0:0:0:0:
369,115,124002,6,0,P|218:176|144:139,1,246,12|0,0:0|0:0,0:0:0:0:
88,88,124318,5,0,1:0:0:0:
256,224,124476,1,0,1:0:0:0:
152,296,124634,5,8,0:0:0:0:
344,112,124792,1,0,1:0:0:0:
256,40,124950,5,8,0:0:0:0:
376,256,125107,1,8,0:0:0:0:
472,88,125265,6,0,P|466:117|461:152,1,61.5000023460389,8|0,0:0|0:0,0:0:0:0:
268,284,125423,2,0,P|262:253|254:220,1,61.5000023460389,8|0,0:0|0:0,0:0:0:0:
176,155,125581,6,0,P|273:181|335:135,1,180.400005505371,2|10,1:0|0:0,0:0:0:0:
480,240,126055,2,0,P|440:261|386:263,1,90.2000027526856,2|0,0:0|1:0,0:0:0:0:
267,62,126371,2,0,P|306:41|351:37,1,90.2000027526856,2|8,0:0|0:0,0:0:0:0:
439,121,126686,5,2,0:0:0:0:
255,223,126844,1,0,1:0:0:0:
384,304,127002,5,2,0:0:0:0:
261,218,127160,1,8,0:0:0:0:
144,384,127318,1,2,0:0:0:0:
40,320,127476,6,0,P|23:280|33:234,1,90.2000027526856,2|0,1:0|0:0,0:0:0:0:
247,138,127792,2,0,P|264:179|254:222,1,90.2000027526856,10|0,0:0|0:0,0:0:0:0:
176,280,128107,5,2,1:0:0:0:
72,216,128265,1,2,1:0:0:0:
168,64,128423,5,10,0:0:0:0:
280,240,128581,1,2,0:0:0:0:
384,160,128739,5,2,1:0:0:0:
312,376,128897,1,2,1:0:0:0:
424,296,129055,5,10,0:0:0:0:
192,184,129213,1,2,0:0:0:0:
256,288,129371,5,2,1:0:0:0:
488,168,129529,1,10,0:0:0:0:
352,72,129686,5,10,0:0:0:0:
432,312,129844,1,0,0:0:0:0:
280,136,130002,5,2,1:0:0:0:
136,384,130160,1,10,0:0:0:0:
288,296,130318,1,2,1:0:0:0:
24,192,130476,1,10,0:0:0:0:
24,192,131581,6,0,B|118:175|123:251|200:226,1,184.500007038117,10|0,0:0|0:0,0:0:0:0:
232,192,131897,6,0,P|218:230|210:285,1,82,6|2,1:0|0:0,0:0:0:0:
360,384,132213,2,0,P|374:346|382:291,1,82,10|2,0:0|0:0,0:0:0:0:
381,305,132450,1,0,0:0:0:0:
381,305,132529,1,2,1:0:0:0:
320,216,132686,6,0,P|356:195|399:194,1,82,2|8,0:0|0:0,0:0:0:0:
224,355,133002,2,0,P|183:352|148:332,1,82,2|0,0:0|1:0,0:0:0:0:
64,248,133318,6,0,P|81:209|95:156,1,82,2|8,0:0|0:0,0:0:0:0:
248,24,133634,2,0,P|259:63|275:100,1,82,2|0,0:0|1:0,0:0:0:0:
200,208,133950,5,2,0:0:0:0:
368,80,134107,1,10,0:0:0:0:
256,16,134265,1,2,0:0:0:0:
376,88,134423,5,4,1:0:0:0:
208,184,134581,1,2,0:0:0:0:
208,184,134660,1,2,0:0:0:0:
208,184,134739,1,10,0:0:0:0:
296,280,134897,1,2,0:0:0:0:
448,152,135055,2,0,P|469:185|464:240,1,82,2|2,1:0|0:0,0:0:0:0:
288,368,135371,5,8,0:0:0:0:
376,304,135529,2,0,B|297:283|300:342|214:320,1,164,2|0,0:0|0:0,0:0:0:0:
88,368,136002,2,0,B|69:331|69:331|80:280,1,82,8|2,0:0|0:0,0:0:0:0:
285,203,136318,2,0,B|304:240|304:240|293:291,1,82,2|2,1:0|0:0,0:0:0:0:
192,296,136634,5,8,0:0:0:0:
368,176,136792,1,2,0:0:0:0:
264,104,136950,6,0,P|227:96|181:87,1,82,2|2,1:0|0:0,0:0:0:0:
184,88,137186,1,0,0:0:0:0:
184,88,137265,1,10,0:0:0:0:
285,203,137423,1,2,0:0:0:0:
168,184,137581,5,2,1:0:0:0:
304,96,137739,1,2,0:0:0:0:
242,12,137897,5,10,0:0:0:0:
360,176,138055,2,0,P|446:200|510:163,1,164,6|2,0:0|0:0,0:0:0:0:
376,280,138529,2,0,P|360:320|352:376,1,82,10|2,0:0|0:0,0:0:0:0:
191,199,138844,2,0,P|207:239|215:295,1,82,2|2,1:0|0:0,0:0:0:0:
128,368,139160,5,10,0:0:0:0:
296,224,139318,1,2,0:0:0:0:
144,120,139476,6,0,P|84:186|100:266,1,164,6|10,1:0|0:0,0:0:0:0:
232,368,139950,1,2,0:0:0:0:
232,368,140029,1,0,0:0:0:0:
232,368,140107,2,0,L|345:347,1,82,0|2,1:0|0:0,0:0:0:0:
424,176,140423,5,8,0:0:0:0:
497,288,140581,2,0,P|405:267|323:252,1,164,2|2,0:0|1:0,0:0:0:0:
240,128,141055,2,0,P|274:107|321:108,1,82,10|2,0:0|0:0,0:0:0:0:
168,288,141371,2,0,P|127:287|92:266,1,82,2|2,1:0|1:0,0:0:0:0:
24,168,141686,1,10,0:0:0:0:
200,40,141844,1,2,1:0:0:0:
200,40,141923,1,0,0:0:0:0:
200,40,142002,6,0,P|213:79|224:136,1,82,6|2,1:0|0:0,0:0:0:0:
344,264,142318,2,0,P|354:222|368:183,1,82,10|0,0:0|0:0,0:0:0:0:
480,128,142634,5,2,1:0:0:0:
360,48,142792,1,2,0:0:0:0:
248,208,142950,1,10,0:0:0:0:
136,160,143107,6,0,P|88:216|96:304,1,164,4|2,0:0|0:0,0:0:0:0:
208,384,143581,2,0,P|227:347|240:296,1,82,10|2,0:0|0:0,0:0:0:0:
376,232,143897,2,0,P|357:195|345:156,1,82,2|0,1:0|0:0,0:0:0:0:
264,40,144213,1,8,0:0:0:0:
128,176,144371,1,0,0:0:0:0:
64,80,144529,5,6,1:0:0:0:
232,160,144686,1,2,0:0:0:0:
96,272,144844,1,10,0:0:0:0:
196,346,145002,2,0,P|258:369|348:324,1,164,2|2,0:0|0:0,0:0:0:0:
512,184,145476,5,10,0:0:0:0:
420,278,145634,2,0,P|358:301|268:256,1,164,4|0,0:0|0:0,0:0:0:0:
176,144,146107,1,8,0:0:0:0:
304,64,146265,1,0,0:0:0:0:
184,24,146423,5,2,1:0:0:0:
288,176,146581,1,0,0:0:0:0:
288,176,146660,1,0,0:0:0:0:
288,176,146739,2,0,P|348:159|412:151,1,123,10|0,0:0|0:0,0:0:0:0:
442,121,147055,6,0,P|431:156|418:217,1,82,6|0,1:2|0:0,0:0:0:0:
272,360,147371,2,0,P|262:320|250:280,1,82,8|0,0:0|0:0,0:0:0:0:
56,240,147686,2,0,P|98:234|135:218,1,82,0|0,1:0|0:0,0:0:0:0:
296,64,148002,2,0,P|258:48|217:42,1,82,10|2,0:0|0:0,0:0:0:0:
72,152,148318,5,2,1:0:0:0:
232,256,148476,1,2,0:0:0:0:
96,336,148634,1,10,0:0:0:0:
167,203,148792,6,0,P|247:208|326:253,1,164,2|0,0:0|0:0,0:0:0:0:
416,368,149265,2,0,P|456:372|505:354,1,82,8|0,0:0|0:0,0:0:0:0:
408,216,149581,6,0,P|368:212|319:230,1,82,2|2,1:0|1:0,0:0:0:0:
224,296,149897,1,10,0:0:0:0:
296,376,150055,5,2,0:0:0:0:
176,216,150213,1,6,1:2:0:0:
256,136,150371,5,2,1:0:0:0:
112,320,150529,1,10,0:0:0:0:
64,224,150686,5,0,0:0:0:0:
240,304,150844,1,2,1:0:0:0:
168,384,151002,5,10,0:0:0:0:
328,224,151160,1,10,0:0:0:0:
232,120,151318,1,2,0:0:0:0:
232,120,151397,1,0,0:0:0:0:
232,120,151476,5,2,1:0:0:0:
432,24,151634,1,8,0:0:0:0:
320,64,151792,5,0,1:0:0:0:
512,144,151950,1,8,0:0:0:0:
416,192,152107,6,0,L|426:241,3,49.1999984985352,2|2|2|2,0:0|0:0|0:0|0:0,0:0:0:0:
264,336,153371,6,0,L|275:278,3,49.1999984985352,2|2|2|2,0:0|0:0|0:0|0:0,0:0:0:0:
133,299,154634,5,10,1:2:0:0:
203,260,154950,1,10,1:2:0:0:
283,260,155265,1,10,1:2:0:0:
347,308,155581,1,10,1:2:0:0:
386,378,155897,2,0,L|473:365,1,86.0999973724366,4|0,0:0|0:0,0:0:0:0:
480,356,156529,5,2,1:0:0:0:
