osu file format v14

[General]
AudioFilename: meme.mp3
AudioLeadIn: 0
PreviewTime: 16713
Countdown: 0
SampleSet: Soft
StackLeniency: 0.7
Mode: 0
LetterboxInBreaks: 0
WidescreenStoryboard: 1

[Editor]
DistanceSpacing: 1.4
BeatDivisor: 4
GridSize: 4
TimelineZoom: 2.2

[Metadata]
Title:SANTA SAN
TitleUnicode:サンタさん
Artist:MOMOIRO CLOVER Z
ArtistUnicode:ももいろクローバーZ
Creator:Sotarks
Version:Doormat's Extra
Source:
Tags:メリー クリスマス ココナッツ merry christmas coconuts momoclo takagi reni momota kanako ariyasu momoka tamai shiori sasaki ayaka akitoshi corinn doormat irohas mugiwarasekai kalibe kin linada milan- toybot haruto haruto_aizawa
BeatmapID:1491209
BeatmapSetID:695316

[Difficulty]
HPDrainRate:6
CircleSize:3.5
OverallDifficulty:8.5
ApproachRate:9.2
SliderMultiplier:1.72
SliderTickRate:1

[Events]
//Background and Video events
0,0,"gochiusa christmas.jpg",0,0
//Break Periods
2,79044,88350
2,110623,113643
//Storyboard Layer 0 (Background)
//Storyboard Layer 1 (Fail)
//Storyboard Layer 2 (Pass)
//Storyboard Layer 3 (Foreground)
//Storyboard Sound Samples

[TimingPoints]
529,315.789473684211,4,2,22,72,1,0
17897,-66.6666666666667,4,2,22,72,0,0
18213,-100,4,2,22,72,0,0
27371,-83.3333333333333,4,2,22,72,0,0
27686,-71.4285714285714,4,2,22,72,0,0
28002,-62.5,4,2,22,72,0,0
28318,-100,4,2,22,62,0,0
38423,-100,4,2,22,52,0,0
48213,-66.6666666666667,4,2,22,72,0,0
48529,-100,4,2,22,72,0,0
67792,-83.3333333333333,4,2,22,72,0,0
68107,-71.4285714285714,4,2,22,72,0,0
68739,-125,4,2,22,62,0,0
77581,-100,4,2,22,72,0,0
78844,-100,4,2,22,42,0,0
89897,-66.6666666666667,4,2,22,72,0,0
90213,-100,4,2,22,82,0,1
99686,-100,4,2,22,92,0,1
100318,-100,4,2,22,82,0,1
110423,-100,4,2,22,82,0,0
114213,-100,4,2,22,52,0,0
114529,-100,4,2,22,62,0,0
114844,-100,4,2,22,72,0,0
115160,-100,4,2,22,82,0,0
115476,-100,4,2,22,82,0,1
120529,-100,4,2,22,42,0,0
120844,-66.6666666666667,4,2,22,72,0,1
121160,-100,4,2,22,42,0,0
121476,-66.6666666666667,4,2,22,72,0,1
121792,-100,4,2,22,42,0,0
122107,-66.6666666666667,4,2,22,72,0,1
122423,-100,4,2,22,42,0,0
122739,-66.6666666666667,4,2,22,72,0,1
123055,-100,4,2,22,42,0,0
123371,-66.6666666666667,4,2,22,72,0,1
123686,-100,4,2,22,42,0,0
124002,-66.6666666666667,4,2,22,72,0,1
124318,-100,4,2,22,72,0,0
125581,-100,4,2,22,82,0,1
130634,-100,4,2,22,82,0,0
131581,-66.6666666666667,4,2,22,82,0,0
131897,-100,4,2,22,82,0,0
152107,-100,4,2,22,42,0,0
154634,-100,4,2,22,72,0,0
154950,-83.3333333333333,4,2,22,72,0,0
155265,-71.4285714285714,4,2,22,72,0,0
155581,-62.5,4,2,22,72,0,0
155897,-200,4,2,22,72,0,0

[Colours]
Combo1 : 210,188,187
Combo2 : 244,162,162
Combo3 : 189,207,253
Combo4 : 165,245,158
SliderBorder : 255,168,168
SliderTrackOverride : 20,0,0

[HitObjects]
116,148,17897,6,0,P|168:88|188:165,1,193.50000738144,8|0,0:0|0:0,0:0:0:0:
132,228,18213,6,0,L|28:212,1,86,6|0,1:0|0:0,0:0:0:0:
260,312,18529,2,0,L|344:298,1,86,10|0,0:0|0:0,0:0:0:0:
284,92,18844,1,2,1:0:0:0:
220,231,19002,1,0,0:0:0:0:
416,168,19160,2,0,L|408:64,1,86,8|0,0:0|0:0,0:0:0:0:
156,61,19476,6,0,P|152:103|168:143,1,86,2|0,1:0|0:0,0:0:0:0:
344,297,19792,2,0,P|360:257|355:215,1,86,10|0,0:0|0:0,0:0:0:0:
256,32,20107,1,2,1:0:0:0:
220,216,20265,1,2,0:0:0:0:
68,72,20423,1,8,0:0:0:0:
238,124,20581,1,8,0:0:0:0:
140,292,20739,6,0,P|117:256|112:213,1,86,2|0,1:0|0:0,0:0:0:0:
336,272,21055,2,0,P|337:314|320:353,1,86,10|0,0:0|0:0,0:0:0:0:
304,144,21371,2,0,L|392:120,1,86,2|0,1:0|0:0,0:0:0:0:
144,132,21686,2,0,L|56:108,1,86,10|0,0:0|0:0,0:0:0:0:
268,8,22002,5,14,0:0:0:0:
200,248,22160,1,0,1:0:0:0:
112,12,22318,5,10,0:0:0:0:
328,160,22476,1,0,1:0:0:0:
72,204,22634,5,14,0:0:0:0:
268,8,22792,1,0,1:0:0:0:
424,240,22950,1,14,0:0:0:0:
424,240,23265,6,0,P|399:204|397:162,1,86,2|0,1:0|0:0,0:0:0:0:
220,60,23581,2,0,P|245:96|247:138,1,86,10|0,0:0|0:0,0:0:0:0:
440,260,23897,2,0,P|410:217|408:166,1,86,2|0,1:0|0:0,0:0:0:0:
203,39,24213,2,0,P|233:82|235:133,1,86,10|0,0:0|0:0,0:0:0:0:
72,292,24529,6,0,L|156:277,1,86,2|0,1:0|0:0,0:0:0:0:
400,328,24844,2,0,L|315:342,1,86,10|0,0:0|0:0,0:0:0:0:
39,288,25160,2,0,L|140:271,1,86,2|0,1:0|0:0,0:0:0:0:
432,331,25476,2,0,L|331:348,1,86,10|0,0:0|0:0,0:0:0:0:
196,120,25792,5,2,1:0:0:0:
420,180,25950,1,0,0:0:0:0:
203,263,26107,1,10,0:0:0:0:
329,68,26265,1,0,0:0:0:0:
340,298,26423,2,0,P|344:341|334:383,1,86,2|0,1:0|0:0,0:0:0:0:
116,312,26739,2,0,P|105:270|109:227,1,86,10|0,0:0|0:0,0:0:0:0:
457,176,27055,6,0,P|470:145|441:160,1,86,14|0,0:0|0:0,0:0:0:0:
329,67,27371,6,0,P|313:26|316:72,1,103.199996850586,10|0,0:0|0:0,0:0:0:0:
161,81,27686,6,0,P|116:60|148:96,1,120.399996325684,14|0,0:0|0:0,0:0:0:0:
288,256,28002,6,0,P|357:209|351:292,1,206.4,8|0,0:0|0:0,0:0:0:0:
276,344,28318,6,0,P|222:335|88:324,1,172,6|8,1:0|0:0,0:0:0:0:
32,140,28792,1,2,1:0:0:0:
216,208,28950,1,2,0:0:0:0:
16,360,29107,2,0,L|4:264,1,86,2|8,1:0|0:0,0:0:0:0:
124,56,29423,6,0,P|123:98|144:135,1,86,2|0,0:0|1:0,0:0:0:0:
376,216,29739,1,2,1:0:0:0:
145,248,29897,1,10,0:0:0:0:
336,104,30055,1,2,1:0:0:0:
145,136,30213,2,0,L|241:148,1,86,2|0,0:0|1:0,0:0:0:0:
408,236,30529,2,0,L|312:248,1,86,10|0,0:0|0:0,0:0:0:0:
140,376,30844,6,0,P|185:306|157:227,1,172,2|10,1:0|0:0,0:0:0:0:
292,80,31318,1,0,1:0:0:0:
456,232,31476,2,0,L|360:220,1,86,2|0,0:0|1:0,0:0:0:0:
448,68,31792,1,10,0:0:0:0:
232,0,31950,6,0,P|187:70|215:149,1,172,2|2,0:0|1:0,0:0:0:0:
408,240,32423,1,10,0:0:0:0:
292,80,32581,1,0,1:0:0:0:
136,216,32739,2,0,L|152:320,1,86,2|0,0:0|1:0,0:0:0:0:
320,188,33055,2,0,P|328:128|312:88,1,86,8|0,0:0|1:0,0:0:0:0:
272,312,33371,6,0,P|354:286|439:276,1,172,2|8,1:0|0:0,0:0:0:0:
504,72,33844,1,0,1:0:0:0:
400,204,34002,1,0,0:0:0:0:
280,48,34160,2,0,L|384:32,1,86,0|8,1:0|0:0,0:0:0:0:
256,208,34476,6,0,P|200:204|160:212,1,86,0|0,1:0|1:0,0:0:0:0:
20,304,34792,1,0,1:0:0:0:
240,332,34950,1,8,0:0:0:0:
44,176,35107,1,0,1:0:0:0:
240,332,35265,5,0,0:0:0:0:
20,304,35423,1,0,1:0:0:0:
256,208,35581,1,8,0:0:0:0:
44,176,35739,1,0,1:0:0:0:
88,376,35897,6,0,P|110:339|117:296,1,86,0|0,1:0|0:0,0:0:0:0:
227,128,36213,2,0,P|234:170|255:207,1,86,8|0,0:0|0:0,0:0:0:0:
448,304,36529,2,0,P|380:284|296:376,1,172,0|8,1:0|0:0,0:0:0:0:
144,268,37002,1,0,0:0:0:0:
324,152,37160,5,8,0:0:0:0:
149,185,37318,1,0,1:0:0:0:
330,269,37476,1,8,0:0:0:0:
139,351,37634,1,0,1:0:0:0:
374,363,37792,1,8,0:0:0:0:
144,268,37950,1,0,1:0:0:0:
376,208,38107,1,12,0:0:0:0:
376,208,38265,1,0,1:0:0:0:
265,311,38423,5,2,1:0:0:0:
180,152,39844,5,2,1:0:0:0:
420,200,40476,5,0,1:0:0:0:
76,332,40950,5,2,1:0:0:0:
120,112,42371,5,2,1:0:0:0:
316,220,42844,5,2,1:0:0:0:
56,204,43002,1,2,0:0:0:0:
272,56,43160,1,2,3:0:0:0:
376,344,43634,5,2,1:0:0:0:
128,200,44897,5,2,1:0:0:0:
392,148,45529,5,0,0:0:0:0:
96,84,46002,5,2,1:0:0:0:
140,356,46634,5,2,1:0:0:0:
400,224,47265,5,2,1:0:0:0:
304,204,47581,5,2,1:0:0:0:
208,184,47897,5,2,1:0:0:0:
400,224,48213,6,0,P|451:284|473:207,1,193.50000738144,8|0,0:0|0:0,0:0:0:0:
412,140,48529,6,0,P|369:142|326:149,1,86,6|0,1:0|0:0,0:0:0:0:
52,248,48844,2,0,P|94:250|137:257,1,86,10|0,0:0|1:0,0:0:0:0:
340,328,49160,1,2,0:0:0:0:
296,144,49318,1,0,1:0:0:0:
164,348,49476,1,8,0:0:0:0:
120,164,49634,1,0,0:0:0:0:
356,231,49792,6,0,P|317:250|274:249,1,86,2|0,1:0|0:0,0:0:0:0:
96,72,50107,2,0,P|138:71|177:89,1,86,10|0,0:0|1:0,0:0:0:0:
24,272,50423,1,2,0:0:0:0:
0,88,50581,1,0,1:0:0:0:
201,273,50739,1,8,0:0:0:0:
177,89,50897,1,0,0:0:0:0:
4,352,51055,6,0,P|56:360|92:368,1,86,2|0,1:0|0:0,0:0:0:0:
304,224,51371,2,0,P|261:232|219:239,1,86,10|0,0:0|1:0,0:0:0:0:
408,44,51686,2,0,P|423:85|421:127,1,86,2|0,0:0|1:0,0:0:0:0:
177,89,52002,2,0,P|174:46|189:6,1,86,10|0,0:0|0:0,0:0:0:0:
208,212,52318,6,0,P|144:204|60:276,1,172,2|10,1:0|0:0,0:0:0:0:
216,348,52792,1,0,1:0:0:0:
344,232,52950,2,0,P|333:190|328:147,1,86,2|0,0:0|1:0,0:0:0:0:
144,48,53265,2,0,P|139:90|128:132,1,86,10|0,0:0|0:0,0:0:0:0:
16,312,53581,5,2,1:0:0:0:
16,312,53739,2,0,L|104:328,1,86,2|8,0:0|0:0,0:0:0:0:
280,184,54055,2,0,L|192:200,1,86,2|0,1:0|0:0,0:0:0:0:
292,360,54371,1,2,1:0:0:0:
292,360,54529,2,0,L|380:376,1,86,10|0,0:0|0:0,0:0:0:0:
495,263,54844,6,0,P|448:195|466:113,1,172,2|8,1:0|0:0,0:0:0:0:
260,52,55318,2,0,P|278:133|230:202,1,172,2|0,1:0|1:0,0:0:0:0:
32,260,55792,1,10,0:0:0:0:
56,88,55950,1,0,0:0:0:0:
240,300,56107,6,0,L|154:310,1,86,2|0,1:0|0:0,0:0:0:0:
304,144,56423,2,0,L|389:133,1,86,10|0,0:0|0:0,0:0:0:0:
233,315,56739,2,0,L|131:327,1,86,10|0,0:0|1:0,0:0:0:0:
310,128,57055,2,0,L|412:116,1,86,10|0,0:0|1:0,0:0:0:0:
120,43,57371,6,0,P|98:80|95:123,1,86,6|0,3:0|0:0,0:0:0:0:
316,292,57686,2,0,P|337:255|340:212,1,86,10|0,3:0|0:0,0:0:0:0:
120,43,58002,5,6,3:0:0:0:
283,149,58160,1,10,0:0:0:0:
175,312,58318,1,10,0:0:0:0:
13,205,58476,1,10,0:0:0:0:
216,36,58634,6,0,P|214:78|205:120,1,86,6|0,1:0|0:0,0:0:0:0:
392,296,58950,2,0,P|383:253|381:211,1,86,8|0,0:0|1:0,0:0:0:0:
472,8,59265,1,2,0:0:0:0:
488,184,59423,1,0,1:0:0:0:
296,28,59581,1,8,0:0:0:0:
296,27,59897,6,0,P|253:34|210:39,1,86,2|0,1:0|0:0,0:0:0:0:
32,192,60213,2,0,P|74:196|117:203,1,86,8|0,0:0|1:0,0:0:0:0:
312,312,60529,1,2,0:0:0:0:
280,116,60686,1,0,1:0:0:0:
100,308,60844,1,8,0:0:0:0:
100,308,61160,6,0,L|88:222,1,86,2|0,1:0|0:0,0:0:0:0:
312,96,61476,2,0,L|300:181,1,86,10|0,0:0|1:0,0:0:0:0:
104,64,61792,2,0,P|137:37|179:30,1,86,2|0,0:0|1:0,0:0:0:0:
248,244,62107,2,0,P|214:270|172:277,1,86,10|0,0:0|0:0,0:0:0:0:
312,96,62423,6,0,P|356:80|468:140,1,172,2|10,1:0|0:0,0:0:0:0:
336,224,62897,1,0,1:0:0:0:
164,176,63055,2,0,P|158:133|156:90,1,86,2|0,0:0|1:0,0:0:0:0:
336,224,63371,2,0,P|333:266|328:309,1,86,10|0,0:0|0:0,0:0:0:0:
56,284,63686,5,2,1:0:0:0:
56,284,63844,2,0,L|144:272,1,86,2|8,0:0|0:0,0:0:0:0:
328,372,64160,2,0,L|240:384,1,86,2|0,1:0|0:0,0:0:0:0:
332,192,64476,1,2,1:0:0:0:
332,192,64634,2,0,L|420:180,1,86,10|0,0:0|0:0,0:0:0:0:
136,40,64950,5,2,1:0:0:0:
136,40,65107,2,0,P|120:108|132:140,1,86,2|8,0:0|0:0,0:0:0:0:
292,264,65423,2,0,P|333:191|300:111,1,172,2|0,1:0|1:0,0:0:0:0:
96,240,65897,2,0,L|108:332,1,86,10|0,0:0|0:0,0:0:0:0:
312,368,66213,5,2,1:0:0:0:
228,184,66371,1,0,0:0:0:0:
452,196,66529,5,10,0:0:0:0:
268,276,66686,1,0,0:0:0:0:
304,56,66844,5,10,0:0:0:0:
364,248,67002,1,0,1:0:0:0:
144,220,67160,5,10,0:0:0:0:
336,156,67318,1,0,1:0:0:0:
240,336,67476,6,0,P|246:370|266:343,1,86,6|0,1:0|0:0,0:0:0:0:
416,320,67792,6,0,P|454:333|431:302,1,103.199996850586,6|0,1:0|0:0,0:0:0:0:
433,141,68107,6,0,P|466:100|426:128,1,120.399996325684,6|0,1:0|0:0,0:0:0:0:
256,116,68423,5,8,0:0:0:0:
256,116,68739,5,2,1:0:0:0:
180,72,68897,1,0,0:0:0:0:
136,148,69055,1,10,0:0:0:0:
212,192,69213,1,10,0:0:0:0:
212,192,69371,2,0,L|360:188,1,137.6,2|10,1:0|0:0,0:0:0:0:
428,148,69844,1,2,0:0:0:0:
428,148,70002,5,0,1:0:0:0:
472,224,70160,1,2,1:0:0:0:
449,308,70318,1,10,0:0:0:0:
373,352,70476,1,0,1:0:0:0:
296,212,70634,2,0,L|376:208,1,68.8,2|0,1:0|0:0,0:0:0:0:
288,329,70950,2,0,L|208:333,1,68.8,10|0,0:0|0:0,0:0:0:0:
136,300,71265,6,0,P|164:239|138:177,1,137.6,2|10,1:0|0:0,0:0:0:0:
71,120,71739,1,10,0:0:0:0:
71,120,71897,1,2,1:0:0:0:
87,33,72055,1,0,0:0:0:0:
170,4,72213,2,0,L|244:16,1,68.8,10|2,0:0|0:0,0:0:0:0:
304,76,72529,5,0,1:0:0:0:
266,157,72686,1,0,1:0:0:0:
333,218,72844,1,10,0:0:0:0:
411,173,73002,1,0,1:0:0:0:
393,84,73160,5,2,1:0:0:0:
266,157,73318,1,10,0:0:0:0:
411,173,73476,1,10,0:0:0:0:
411,173,73792,6,0,P|404:248|400:320,1,137.6,2|10,1:0|0:0,0:0:0:0:
332,368,74265,1,10,0:0:0:0:
260,316,74423,2,0,P|191:311|122:305,1,137.6,2|8,1:0|0:0,0:0:0:0:
40,268,74897,1,2,0:0:0:0:
96,200,75055,5,0,1:0:0:0:
96,200,75213,2,0,P|112:160|72:80,1,137.6,2|2,1:0|1:0,0:0:0:0:
116,4,75686,2,0,L|184:4,1,68.8,2|2,1:0|0:0,0:0:0:0:
300,108,76002,2,0,L|232:108,1,68.8,10|2,0:0|0:0,0:0:0:0:
360,0,76318,5,2,1:0:0:0:
448,20,76476,1,2,0:0:0:0:
496,96,76634,1,10,0:0:0:0:
476,184,76792,1,10,0:0:0:0:
399,232,76950,2,0,L|312:216,1,68.8,2|0,1:0|0:0,0:0:0:0:
256,100,77265,2,0,L|343:84,1,68.8,10|0,0:0|0:0,0:0:0:0:
476,184,77581,5,10,1:2:0:0:
192,168,77739,1,2,1:0:0:0:
428,8,77897,2,0,L|436:96,1,86,10|0,1:2|0:0,0:0:0:0:
255,252,78213,2,0,P|221:176|256:100,1,172,2|8,1:0|0:0,0:0:0:0:
436,336,78844,5,2,0:0:0:0:
144,96,88950,5,2,1:0:0:0:
156,192,89265,5,2,1:0:0:0:
168,288,89581,5,2,1:0:0:0:
144,96,89897,6,0,B|200:72|240:96|240:96|284:120|337:96,1,193.50000738144,12|0,0:0|0:0,0:0:0:0:
432,68,90213,6,0,P|424:128|424:176,1,86,6|0,1:0|0:0,0:0:0:0:
304,292,90529,1,10,0:0:0:0:
144,96,90686,2,0,L|132:196,1,86,2|0,0:0|1:0,0:0:0:0:
330,98,91002,2,0,L|319:12,1,86,2|8,0:0|0:0,0:0:0:0:
280,260,91318,2,0,P|336:268|392:252,1,86,2|0,0:0|1:0,0:0:0:0:
484,28,91634,5,2,0:0:0:0:
236,116,91792,1,10,0:0:0:0:
480,216,91950,1,2,0:0:0:0:
268,20,92107,2,0,P|216:12|172:40,1,86,2|0,1:0|0:0,0:0:0:0:
198,254,92423,2,0,P|238:269|280:260,1,86,10|0,0:0|0:0,0:0:0:0:
80,84,92739,6,0,L|64:184,1,86,2|0,1:0|0:0,0:0:0:0:
144,344,93055,1,10,0:0:0:0:
296,132,93213,2,0,L|210:141,1,86,2|0,0:0|1:0,0:0:0:0:
368,308,93529,2,0,L|402:229,1,86,2|8,0:0|0:0,0:0:0:0:
144,260,93844,2,0,P|134:302|144:344,1,86,2|0,0:0|1:0,0:0:0:0:
360,136,94160,5,2,0:0:0:0:
265,381,94318,1,10,0:0:0:0:
139,150,94476,1,2,0:0:0:0:
372,292,94634,2,0,L|460:272,1,86,2|0,1:0|0:0,0:0:0:0:
336,92,94950,2,0,L|248:72,1,86,10|0,0:0|0:0,0:0:0:0:
176,304,95265,6,0,P|200:269|209:227,1,86,2|0,1:0|0:0,0:0:0:0:
104,72,95581,1,10,0:0:0:0:
8,256,95739,2,0,L|100:236,1,86,2|0,0:0|1:0,0:0:0:0:
316,112,96055,2,0,L|224:92,1,86,2|8,0:0|0:0,0:0:0:0:
292,284,96371,6,0,P|352:268|472:264,1,172,6|0,0:0|0:0,0:0:0:0:
316,112,96844,1,10,0:0:0:0:
196,256,97002,1,0,0:0:0:0:
252,56,97160,1,2,1:0:0:0:
364,232,97318,1,0,0:0:0:0:
252,56,97476,1,10,0:0:0:0:
196,256,97634,1,0,0:0:0:0:
476,196,97792,6,0,L|372:212,1,86,2|0,1:0|0:0,0:0:0:0:
212,128,98107,1,10,0:0:0:0:
395,15,98265,2,0,P|416:53|420:95,1,86,2|0,0:0|1:0,0:0:0:0:
216,236,98581,2,0,P|195:198|191:156,1,86,2|8,0:0|0:0,0:0:0:0:
391,209,98897,1,2,0:0:0:0:
136,324,99055,5,10,1:2:0:0:
327,290,99213,1,2,1:0:0:0:
110,195,99371,1,10,0:0:0:0:
301,161,99529,1,2,1:0:0:0:
125,334,99686,5,10,1:2:0:0:
340,296,99844,1,2,1:0:0:0:
96,189,100002,1,10,0:0:0:0:
311,151,100160,1,2,1:0:0:0:
114,344,100318,6,0,L|26:332,1,86,6|0,1:0|0:0,0:0:0:0:
108,179,100634,1,10,0:0:0:0:
249,299,100792,2,0,P|261:363|249:395,1,86,2|0,0:0|1:0,0:0:0:0:
85,263,101107,2,0,P|73:199|85:167,1,86,2|8,0:0|0:0,0:0:0:0:
336,88,101423,6,0,L|329:173,1,86,2|0,0:0|1:0,0:0:0:0:
132,64,101739,2,0,L|209:26,1,86,2|8,0:0|0:0,0:0:0:0:
213,252,102055,1,2,0:0:0:0:
132,64,102213,5,2,1:0:0:0:
332,144,102371,1,2,0:0:0:0:
252,344,102528,1,10,0:0:0:0:
52,264,102686,1,2,0:0:0:0:
356,116,102844,6,0,P|368:164|368:220,1,86,2|0,1:0|0:0,0:0:0:0:
252,344,103160,1,10,0:0:0:0:
144,176,103318,2,0,L|229:166,1,86,2|0,0:0|1:0,0:0:0:0:
164,360,103634,2,0,L|78:369,1,86,2|8,0:0|0:0,0:0:0:0:
287,291,103950,6,0,P|308:327|313:370,1,86,6|0,0:0|1:0,0:0:0:0:
117,255,104265,2,0,P|122:212|143:175,1,86,2|8,0:0|0:0,0:0:0:0:
344,92,104581,1,2,0:0:0:0:
192,336,104739,5,2,1:0:0:0:
40,179,104897,1,2,0:0:0:0:
195,29,105054,1,10,3:2:0:0:
345,184,105212,1,2,3:0:0:0:
8,204,105371,6,0,L|16:112,1,86,6|0,1:0|0:0,0:0:0:0:
195,29,105686,1,10,0:0:0:0:
260,223,105844,2,0,P|220:240|177:244,1,86,2|0,0:0|1:0,0:0:0:0:
312,56,106160,2,0,P|354:60|394:76,1,86,2|8,0:0|0:0,0:0:0:0:
270,309,106476,6,0,L|260:224,1,86,2|0,0:0|1:0,0:0:0:0:
472,116,106792,2,0,L|461:201,1,86,2|8,0:0|0:0,0:0:0:0:
368,336,107107,1,2,0:0:0:0:
203,148,107265,2,0,P|242:129|285:130,1,86,2|0,1:0|0:0,0:0:0:0:
184,344,107581,2,0,P|141:345|102:326,1,86,10|0,0:0|0:0,0:0:0:0:
80,124,107897,6,0,L|72:172,1,43,2|0,1:0|3:0,0:0:0:0:
264,256,108055,2,0,L|256:213,1,43,2|0,1:0|3:0,0:0:0:0:
61,110,108213,6,0,L|51:168,1,43,10|0,0:0|3:0,0:0:0:0:
282,269,108371,2,0,L|273:218,1,43,2|0,0:0|0:0,0:0:0:0:
187,22,108529,5,2,1:0:0:0:
149,235,108686,1,2,1:0:0:0:
61,110,108844,1,10,0:0:0:0:
275,146,109001,1,0,0:0:0:0:
60,268,109160,6,0,L|52:220,1,43,2|0,1:0|3:0,0:0:0:0:
264,312,109318,2,0,L|256:354,1,43,10|0,0:0|3:0,0:0:0:0:
41,281,109476,6,0,L|31:223,1,43,2|0,1:0|3:0,0:0:0:0:
282,298,109634,2,0,L|273:348,1,43,10|0,0:0|0:0,0:0:0:0:
153,377,109792,5,2,1:0:0:0:
204,166,109949,1,10,0:0:0:0:
72,246,110107,1,10,0:0:0:0:
282,298,110264,1,8,0:0:0:0:
0,382,110423,5,0,0:0:0:0:
192,96,114213,5,2,1:0:0:0:
312,272,114371,1,0,1:0:0:0:
320,96,114529,1,2,1:0:0:0:
200,272,114687,1,0,1:0:0:0:
179,78,114844,5,2,1:0:0:0:
323,289,115002,1,0,1:0:0:0:
339,67,115160,1,14,0:0:0:0:
180,299,115318,1,14,0:0:0:0:
440,348,115476,6,0,L|424:248,1,86,2|0,1:0|0:0,0:0:0:0:
332,78,115792,1,10,0:0:0:0:
180,299,115950,2,0,P|219:318|262:317,1,86,2|0,0:0|1:0,0:0:0:0:
180,108,116265,2,0,P|137:106|98:125,1,86,2|8,0:0|0:0,0:0:0:0:
352,200,116581,6,0,P|328:152|380:52,1,172,6|0,0:0|0:0,0:0:0:0:
476,236,117055,1,10,0:0:0:0:
284,304,117213,1,0,0:0:0:0:
448,160,117371,1,2,1:0:0:0:
232,128,117529,1,0,0:0:0:0:
448,160,117686,1,10,0:0:0:0:
284,304,117844,1,0,0:0:0:0:
224,48,118002,6,0,L|328:56,1,86,2|0,1:0|0:0,0:0:0:0:
212,220,118318,1,10,0:0:0:0:
48,112,118476,2,0,P|37:70|43:28,1,86,2|2,0:0|1:0,0:0:0:0:
240,144,118792,2,0,P|250:185|244:227,1,86,2|8,0:0|0:0,0:0:0:0:
44,336,119107,1,2,0:0:0:0:
139,119,119265,5,10,0:0:0:0:
173,310,119423,1,0,1:0:0:0:
10,145,119581,1,10,0:0:0:0:
44,336,119739,1,0,1:0:0:0:
145,106,119896,5,10,0:0:0:0:
183,321,120054,1,0,1:0:0:0:
0,135,120212,1,10,0:0:0:0:
38,350,120370,1,8,0:0:0:0:
228,140,120529,5,2,0:0:0:0:
227,140,120844,2,0,P|156:196|72:152,1,193.50000738144,12|0,0:0|0:0,0:0:0:0:
52,64,121160,5,2,0:0:0:0:
52,64,121476,2,0,B|108:48|108:48|136:68|136:68|244:32,1,193.50000738144,12|0,0:0|0:0,0:0:0:0:
316,76,121792,5,2,0:0:0:0:
316,76,122107,2,0,P|320:148|368:76,1,193.50000738144,12|0,0:0|0:0,0:0:0:0:
476,88,122423,5,2,0:0:0:0:
476,88,122739,2,0,L|504:296,1,193.50000738144,12|0,0:0|0:0,0:0:0:0:
420,328,123055,5,2,0:0:0:0:
420,328,123371,2,0,P|348:276|240:344,1,193.50000738144,12|0,0:0|0:0,0:0:0:0:
168,284,123686,5,2,0:0:0:0:
168,284,124002,2,0,B|204:228|204:228|172:104,1,193.50000738144,12|0,0:0|0:0,0:0:0:0:
61,80,124318,5,0,1:0:0:0:
245,22,124476,1,0,1:0:0:0:
101,203,124634,1,8,0:0:0:0:
287,146,124792,1,0,1:0:0:0:
47,74,124949,5,8,0:0:0:0:
255,9,125107,1,8,0:0:0:0:
93,215,125265,1,8,0:0:0:0:
301,150,125423,1,8,0:0:0:0:
33,68,125581,6,0,L|25:168,1,86,2|0,1:0|0:0,0:0:0:0:
132,304,125897,1,10,0:0:0:0:
224,120,126055,2,0,P|181:112|139:116,1,86,2|0,0:0|1:0,0:0:0:0:
232,304,126371,2,0,P|274:308|316:300,1,86,2|8,0:0|0:0,0:0:0:0:
416,116,126686,6,0,L|427:201,1,86,2|0,0:0|1:0,0:0:0:0:
224,120,127002,2,0,L|235:34,1,86,2|8,0:0|0:0,0:0:0:0:
336,224,127318,1,2,0:0:0:0:
104,320,127476,2,0,P|96:256|108:212,1,86,2|0,1:0|0:0,0:0:0:0:
315,298,127792,2,0,P|324:340|320:383,1,86,10|0,0:0|0:0,0:0:0:0:
148,136,128107,5,2,1:0:0:0:
364,184,128265,1,2,1:0:0:0:
100,288,128423,5,10,0:0:0:0:
272,104,128581,1,2,0:0:0:0:
328,368,128739,5,2,1:0:0:0:
152,168,128897,1,2,1:0:0:0:
440,208,129055,5,10,0:0:0:0:
208,332,129213,1,2,0:0:0:0:
312,104,129371,6,0,L|319:146,1,43,2|0,1:0|0:0,0:0:0:0:
136,240,129529,2,0,L|128:197,1,43,10|0,0:0|3:0,0:0:0:0:
326,129,129686,6,0,L|323:171,1,43,10|0,0:0|0:0,0:0:0:0:
121,214,129844,2,0,L|124:172,1,43,0|0,0:0|0:0,0:0:0:0:
334,157,130002,6,0,L|319:197,1,43,2|0,1:0|3:0,0:0:0:0:
113,186,130160,2,0,L|128:146,1,43,10|0,0:0|0:0,0:0:0:0:
334,186,130318,6,0,L|310:221,1,43,2|0,1:0|3:0,0:0:0:0:
113,157,130476,2,0,L|137:122,1,43,10|0,0:0|0:0,0:0:0:0:
280,304,130634,5,0,0:0:0:0:
280,304,131581,6,0,P|332:244|352:321,1,193.50000738144,10|0,0:0|0:0,0:0:0:0:
296,384,131897,6,0,L|192:368,1,86,6|2,1:0|0:0,0:0:0:0:
56,248,132213,2,0,L|160:232,1,86,10|2,0:0|0:0,0:0:0:0:
240,88,132529,1,2,1:0:0:0:
72,39,132686,2,0,P|54:78|54:121,1,86,2|8,0:0|0:0,0:0:0:0:
301,144,133002,6,0,P|276:109|239:87,1,86,2|0,0:0|1:0,0:0:0:0:
300,296,133318,2,0,L|404:280,1,86,2|8,0:0|0:0,0:0:0:0:
192,184,133634,2,0,L|88:168,1,86,2|0,0:0|1:0,0:0:0:0:
248,32,133950,1,2,0:0:0:0:
372,212,134107,1,10,0:0:0:0:
144,80,134265,1,2,0:0:0:0:
356,96,134423,5,4,1:0:0:0:
188,269,134581,1,2,0:0:0:0:
188,269,134660,1,2,0:0:0:0:
188,269,134739,2,0,L|192:173,1,86,10|2,0:0|0:0,0:0:0:0:
332,304,135055,1,2,1:0:0:0:
128,376,135213,2,0,L|36:364,1,86,2|8,0:0|0:0,0:0:0:0:
136,115,135529,6,0,P|173:96|216:100,1,86,2|0,0:0|0:0,0:0:0:0:
252,284,135844,2,0,P|214:303|171:299,1,86,0|8,0:0|0:0,0:0:0:0:
364,156,136160,1,2,0:0:0:0:
116,104,136318,5,2,1:0:0:0:
356,40,136476,1,2,0:0:0:0:
220,264,136634,5,8,0:0:0:0:
224,16,136792,1,2,0:0:0:0:
352,280,136950,5,2,1:0:0:0:
96,320,137107,1,2,0:0:0:0:
96,320,137186,1,0,0:0:0:0:
96,320,137265,2,0,L|100:220,1,86,10|2,0:0|0:0,0:0:0:0:
268,364,137581,1,2,1:0:0:0:
188,168,137739,1,2,0:0:0:0:
8,280,137897,1,10,0:0:0:0:
328,288,138055,6,0,P|264:264|172:352,1,172,6|2,0:0|0:0,0:0:0:0:
16,140,138529,1,10,0:0:0:0:
188,168,138686,1,2,0:0:0:0:
8,280,138844,5,2,1:0:0:0:
248,236,139002,1,2,0:0:0:0:
16,140,139160,1,10,0:0:0:0:
160,332,139318,1,2,0:0:0:0:
304,120,139476,6,0,P|260:148|156:104,1,172,6|10,1:0|0:0,0:0:0:0:
416,79,139950,2,0,P|425:122|431:164,1,86,2|0,0:0|1:0,0:0:0:0:
292,304,140265,2,0,P|293:261|298:218,1,86,2|8,0:0|0:0,0:0:0:0:
440,340,140581,1,2,0:0:0:0:
215,242,140739,5,2,1:0:0:0:
405,205,140897,1,2,1:0:0:0:
236,371,141055,1,10,0:0:0:0:
427,335,141213,1,2,0:0:0:0:
201,236,141370,5,2,1:0:0:0:
415,195,141528,1,2,1:0:0:0:
226,382,141686,1,10,0:0:0:0:
440,340,141844,1,2,1:0:0:0:
187,230,142002,5,6,1:0:0:0:
320,308,142160,1,2,0:0:0:0:
424,160,142318,2,0,L|332:172,1,86,10|0,0:0|0:0,0:0:0:0:
144,148,142634,5,2,1:0:0:0:
277,226,142792,1,2,0:0:0:0:
381,78,142950,2,0,L|289:90,1,86,10|0,0:0|0:0,0:0:0:0:
104,56,143265,5,2,1:0:0:0:
187,230,143423,1,2,0:0:0:0:
222,40,143581,1,10,0:0:0:0:
82,172,143739,1,2,0:0:0:0:
272,146,143897,2,0,P|314:136|357:134,1,86,2|0,1:0|0:0,0:0:0:0:
308,328,144213,2,0,P|265:326|223:316,1,86,8|0,0:0|0:0,0:0:0:0:
82,172,144529,5,2,1:0:0:0:
264,244,144686,1,0,0:0:0:0:
48,312,144844,1,10,0:0:0:0:
152,108,145002,2,0,P|180:176|124:256,1,172,2|2,0:0|0:0,0:0:0:0:
12,56,145476,2,0,L|104:36,1,86,10|0,0:0|0:0,0:0:0:0:
260,200,145792,5,2,1:0:0:0:
66,316,145950,1,0,0:0:0:0:
152,108,146107,1,8,0:0:0:0:
205,327,146265,1,0,0:0:0:0:
33,180,146423,2,0,P|23:135|31:91,1,86,2|0,1:0|0:0,0:0:0:0:
172,224,146739,2,0,P|182:269|174:313,1,86,10|0,0:0|0:0,0:0:0:0:
176,96,147055,6,0,P|224:80|344:72,2,172,2|8|0,1:0|0:0|1:0,0:0:0:0:
28,248,147844,1,0,0:0:0:0:
48,60,148002,1,10,0:0:0:0:
208,236,148160,1,2,0:0:0:0:
48,60,148318,5,2,1:0:0:0:
28,248,148476,1,2,0:0:0:0:
176,96,148634,1,10,0:0:0:0:
276,304,148792,2,0,P|208:332|120:280,1,172,2|0,0:0|0:0,0:0:0:0:
340,172,149265,2,0,L|356:264,1,86,8|0,0:0|0:0,0:0:0:0:
120,168,149581,6,0,P|119:146|124:125,1,43,2|0,1:0|3:0,0:0:0:0:
272,232,149739,2,0,P|272:253|267:274,1,43,2|0,1:0|3:0,0:0:0:0:
104,161,149897,6,0,P|103:135|109:110,1,43,10|0,0:0|0:0,0:0:0:0:
287,238,150055,2,0,P|287:263|281:288,1,43,2|0,0:0|0:0,0:0:0:0:
0,276,150213,5,2,1:0:0:0:
196,191,150371,1,2,1:0:0:0:
24,63,150529,1,10,0:0:0:0:
24,63,150844,6,0,L|66:56,1,43,2|0,1:0|3:0,0:0:0:0:
220,195,151002,2,0,L|177:201,1,43,10|0,0:0|3:0,0:0:0:0:
4,49,151160,6,0,L|55:41,1,43,10|0,0:0|0:0,0:0:0:0:
239,208,151318,2,0,L|187:215,1,43,2|0,0:0|0:0,0:0:0:0:
8,312,151476,5,2,1:0:0:0:
116,112,151634,1,8,0:0:0:0:
162,266,151792,1,0,1:0:0:0:
62,212,151950,1,8,0:0:0:0:
216,166,152107,5,2,0:0:0:0:
236,176,152423,1,2,0:0:0:0:
258,174,152739,1,2,0:0:0:0:
276,161,153055,1,2,0:0:0:0:
268,154,153371,5,2,0:0:0:0:
258,174,153687,1,2,0:0:0:0:
260,196,154003,1,2,0:0:0:0:
273,214,154319,1,2,0:0:0:0:
279,205,154634,6,0,P|245:193|256:226,1,86,10|0,1:2|0:0,0:0:0:0:
332,311,154950,6,0,P|340:351|360:316,1,103.199996850586,10|0,1:2|0:0,0:0:0:0:
440,240,155265,6,0,P|480:215|436:218,1,120.399996325684,10|0,1:2|0:0,0:0:0:0:
384,128,155581,6,0,P|371:75|345:122,1,137.6,10|0,1:2|0:0,0:0:0:0:
279,205,155897,6,0,P|219:197|276:232,1,172,14|2,0:0|1:0,0:0:0:0:
