osu file format v14

[General]
AudioFilename: meme.mp3
AudioLeadIn: 0
PreviewTime: 16713
Countdown: 0
SampleSet: None
StackLeniency: 0.7
Mode: 0
LetterboxInBreaks: 0
WidescreenStoryboard: 1

[Editor]
DistanceSpacing: 1
BeatDivisor: 4
GridSize: 8
TimelineZoom: 2.2

[Metadata]
Title:SANTA SAN
TitleUnicode:サンタさん
Artist:MOMOIRO CLOVER Z
ArtistUnicode:ももいろクローバーZ
Creator:Sotarks
Version:Akitoshi's Normal
Source:
Tags:メリー クリスマス ココナッツ merry christmas coconuts momoclo takagi reni momota kanako ariyasu momoka tamai shiori sasaki ayaka akitoshi corinn doormat irohas mugiwarasekai kalibe kin linada milan- toybot haruto haruto_aizawa
BeatmapID:1473300
BeatmapSetID:695316

[Difficulty]
HPDrainRate:4
CircleSize:2.5
OverallDifficulty:4
ApproachRate:5
SliderMultiplier:1
SliderTickRate:1

[Events]
//Background and Video events
0,0,"qweqweqwe2.jpg",0,0
//Break Periods
2,38623,44802
2,79044,87750
2,110623,113013
//Storyboard Layer 0 (Background)
//Storyboard Layer 1 (Fail)
//Storyboard Layer 2 (Pass)
//Storyboard Layer 3 (Foreground)
//Storyboard Sound Samples

[TimingPoints]
529,315.789473684211,4,2,22,72,1,0
17897,-100,4,2,22,72,0,0
18213,-100,4,2,22,72,0,0
28002,-100,4,2,22,72,0,0
28239,-100,4,2,22,5,0,0
28318,-100,4,2,22,62,0,0
33055,-100,4,2,22,62,0,0
33371,-100,4,2,22,62,0,0
38107,-100,4,2,22,62,0,0
38423,-100,4,2,22,62,0,0
48213,-100,4,2,22,62,0,0
48450,-100,4,2,22,5,0,0
48529,-100,4,2,22,62,0,0
68739,-100,4,2,22,62,0,0
77581,-100,4,2,22,62,0,0
78844,-100,4,2,22,62,0,0
88950,-100,4,2,22,62,0,0
89897,-100,4,2,22,62,0,0
90213,-100,4,2,22,62,0,1
110423,-100,4,2,22,62,0,0
114213,-100,4,2,22,62,0,0
115476,-100,4,2,22,62,0,0
120529,-100,4,2,22,62,0,0
124318,-100,4,2,22,62,0,0
125265,-100,4,2,22,62,0,0
125581,-100,4,2,22,62,0,1
130634,-100,4,2,22,62,0,0
131581,-100,4,2,22,62,0,0
131897,-100,4,2,22,62,0,0
152107,-100,4,2,22,62,0,0
154634,-100,4,2,22,62,0,0

[Colours]
Combo1 : 210,188,187
Combo2 : 244,162,162
Combo3 : 189,207,253
Combo4 : 165,245,158
SliderBorder : 255,168,168
SliderTrackOverride : 20,0,0

[HitObjects]
166,140,18213,6,0,P|102:136|55:158,2,100,6|10|2,1:0|0:0|1:0,0:0:0:0:
256,183,19160,1,8,0:0:0:0:
346,140,19476,2,0,P|410:136|457:158,2,100,2|10|2,1:0|0:0|1:0,0:0:0:0:
256,183,20423,1,8,0:0:0:0:
164,224,20739,6,0,P|158:275|173:330,1,100,2|10,1:0|0:0,0:0:0:0:
252,377,21371,2,0,P|303:383|358:368,1,100,2|10,1:0|0:0,0:0:0:0:
401,285,22002,2,0,L|503:292,2,100,14|10|14,0:0|0:0|0:0,0:0:0:0:
329,214,22950,1,14,0:0:0:0:
260,141,23265,6,0,P|208:128|160:135,2,100,2|10|2,1:0|0:0|1:0,0:0:0:0:
329,214,24213,1,10,0:0:0:0:
398,141,24529,2,0,P|450:128|498:135,2,100,2|10|2,1:0|0:0|1:0,0:0:0:0:
329,214,25476,1,10,0:0:0:0:
257,284,25792,6,0,P|205:297|157:290,1,100,2|10,1:0|0:0,0:0:0:0:
74,238,26423,2,0,P|61:186|68:138,1,100,2|10,1:0|0:0,0:0:0:0:
105,48,27055,1,14,0:0:0:0:
200,19,27371,1,10,0:0:0:0:
299,24,27686,2,0,B|321:71|321:71|312:138,1,100,14|8,0:0|0:0,0:0:0:0:
356,211,28318,6,0,P|429:218|499:191,2,150,6|2|8,1:0|1:0|0:0,0:0:0:0:
257,193,29581,2,0,P|264:266|237:336,2,150,0|2|10,1:0|1:0|0:0,0:0:0:0:
188,120,30844,6,0,L|72:127,1,100,2|10,1:0|0:0,0:0:0:0:
20,200,31476,2,0,P|10:245|18:304,1,100,2|10,0:0|0:0,0:0:0:0:
55,329,31950,2,0,P|100:319|159:327,1,100,2|2,0:0|1:0,0:0:0:0:
201,337,32423,1,10,0:0:0:0:
299,354,32739,2,0,B|320:305|320:305|310:248,1,100,2|8,0:0|0:0,0:0:0:0:
362,172,33371,6,0,P|433:175|518:143,2,150,2|0|8,1:0|1:0|0:0,0:0:0:0:
331,132,34476,2,0,L|212:135,1,100,0|0,1:0|1:0,0:0:0:0:
180,137,34950,1,8,0:0:0:0:
80,141,35265,2,0,P|64:193|67:243,1,100,0|8,0:0|0:0,0:0:0:0:
156,282,35897,6,0,P|172:334|169:384,2,100,0|8|0,1:0|0:0|1:0,0:0:0:0:
65,238,36844,1,8,0:0:0:0:
16,150,37160,2,0,L|6:83,2,50,8|0|8,0:0|1:0|0:0,0:0:0:0:
116,150,37792,2,0,B|166:140|166:140|215:156,1,100,8|12,0:0|0:0,0:0:0:0:
306,189,38423,5,2,1:0:0:0:
440,119,46002,6,0,B|407:104|363:107|363:107|320:133|320:133|291:114|242:112,1,200,2|2,1:0|1:0,0:0:0:0:
59,166,47265,2,0,L|69:277,2,100,2|2|2,1:0|1:0|1:0,0:0:0:0:
53,65,48213,1,8,0:0:0:0:
147,31,48529,6,0,P|197:29|252:60,2,100,6|10|2,1:0|0:0|0:0,0:0:0:0:
176,126,49476,1,8,0:0:0:0:
112,202,49792,2,0,P|156:223|206:220,2,100,2|10|2,1:0|0:0|0:0,0:0:0:0:
176,126,50739,1,8,0:0:0:0:
241,50,51055,6,0,P|288:41|336:56,1,100,2|10,1:0|0:0,0:0:0:0:
402,131,51686,2,0,P|410:178|395:226,1,100,2|10,0:0|0:0,0:0:0:0:
326,299,52318,1,2,1:0:0:0:
231,265,52634,2,0,P|184:249|135:257,2,100,10|2|10,0:0|0:0|0:0,0:0:0:0:
326,299,53581,6,0,L|432:291,1,100,2|8,1:0|0:0,0:0:0:0:
473,275,54055,2,0,P|488:200|462:131,1,150,2|10,1:0|0:0,0:0:0:0:
377,80,54844,2,0,P|316:96|268:89,1,100,2|8,1:0|0:0,0:0:0:0:
234,71,55318,2,0,L|226:234,1,150,2|10,1:0|0:0,0:0:0:0:
218,320,56107,6,0,P|167:333|121:326,1,100,2|10,1:0|0:0,0:0:0:0:
29,284,56739,2,0,P|16:233|23:187,1,100,10|10,0:0|0:0,0:0:0:0:
99,121,57371,2,0,L|92:15,2,100,6|10|6,3:0|3:0|3:0,0:0:0:0:
184,172,58318,1,10,0:0:0:0:
257,104,58634,6,0,P|306:94|365:118,2,100,6|8|2,1:0|0:0|0:0,0:0:0:0:
301,193,59581,1,8,0:0:0:0:
249,278,59897,2,0,P|296:292|344:282,2,100,2|8|2,1:0|0:0|0:0,0:0:0:0:
301,193,60844,1,8,0:0:0:0:
352,108,61160,6,0,L|462:101,1,100,2|10,1:0|0:0,0:0:0:0:
494,192,61792,2,0,L|501:302,1,100,2|10,0:0|0:0,0:0:0:0:
422,354,62423,1,2,1:0:0:0:
325,329,62739,2,0,L|215:336,2,100,10|2|10,0:0|0:0|0:0,0:0:0:0:
380,245,63686,6,0,P|385:198|367:141,1,100,2|8,1:0|0:0,0:0:0:0:
345,104,64160,2,0,P|290:120|189:82,1,150,2|10,1:0|0:0,0:0:0:0:
114,47,64950,2,0,L|108:153,1,100,2|8,1:0|0:0,0:0:0:0:
72,181,65423,2,0,L|81:341,1,150,2|10,1:0|0:0,0:0:0:0:
171,372,66213,6,0,P|224:372|275:352,1,100,2|10,1:0|0:0,0:0:0:0:
334,281,66844,1,10,0:0:0:0:
346,181,67160,1,10,0:0:0:0:
299,92,67476,2,0,L|188:96,2,100,6|6|6,1:0|1:0|1:0,0:0:0:0:
378,31,68423,1,8,0:0:0:0:
466,78,68739,6,0,P|482:135|474:184,1,100,2|10,1:0|0:0,0:0:0:0:
399,238,69371,2,0,P|342:222|293:230,1,100,2|10,1:0|0:0,0:0:0:0:
211,268,70002,2,0,L|217:333,2,50,0|2|10,1:0|1:0|0:0,0:0:0:0:
133,203,70634,2,0,L|143:88,1,100,2|10,1:0|0:0,0:0:0:0:
240,86,71265,6,0,P|290:96|344:81,2,100,2|10|2,1:0|0:0|1:0,0:0:0:0:
175,9,72213,1,10,0:0:0:0:
142,103,72529,2,0,L|89:111,2,50,0|0|10,1:0|1:0|0:0,0:0:0:0:
240,86,73160,2,0,L|293:78,2,50,2|10|10,1:0|0:0|0:0,0:0:0:0:
229,185,73792,6,0,P|282:190|339:160,1,100,2|10,1:0|0:0,0:0:0:0:
413,126,74423,2,0,L|423:227,1,100,2|8,1:0|0:0,0:0:0:0:
432,325,75055,2,0,L|503:329,2,50,0|2|8,1:0|1:0|0:0,0:0:0:0:
340,284,75686,2,0,L|233:289,1,100,2|10,1:0|0:0,0:0:0:0:
156,345,76318,6,0,P|140:293|157:234,2,100,2|10|2,1:0|0:0|1:0,0:0:0:0:
241,289,77265,1,10,0:0:0:0:
323,232,77581,2,0,L|316:117,1,100,10|10,1:2|1:2,0:0:0:0:
269,43,78213,1,2,1:0:0:0:
172,17,78529,1,8,0:0:0:0:
80,56,78844,5,2,0:0:0:0:
134,192,88950,6,0,B|82:187|82:187|26:200,2,100,2|2|2,1:0|1:0|1:0,0:0:0:0:
232,207,89897,1,12,0:0:0:0:
331,199,90213,6,0,P|347:149|318:37,1,150,6|2,1:0|0:0,0:0:0:0:
240,11,91002,1,2,0:0:0:0:
156,66,91318,2,0,P|88:92|9:73,1,150,2|10,0:0|0:0,0:0:0:0:
4,175,92107,2,0,L|17:282,1,100,2|10,1:0|0:0,0:0:0:0:
97,328,92739,6,0,P|140:309|246:320,1,150,2|2,1:0|0:0,0:0:0:0:
334,353,93529,1,2,0:0:0:0:
423,307,93844,2,0,L|430:148,1,150,2|10,0:0|0:0,0:0:0:0:
427,56,94634,2,0,P|366:38|324:41,1,100,2|10,1:0|0:0,0:0:0:0:
241,86,95265,6,0,P|178:55|88:58,1,150,2|2,1:0|0:0,0:0:0:0:
14,107,96055,1,2,0:0:0:0:
34,204,96371,2,0,B|73:233|73:233|197:222,1,150,6|10,0:0|0:0,0:0:0:0:
273,214,97160,1,2,1:0:0:0:
363,256,97476,1,10,0:0:0:0:
358,355,97792,6,0,P|282:371|207:348,1,150,2|2,1:0|0:0,0:0:0:0:
130,296,98581,1,2,0:0:0:0:
86,204,98897,2,0,L|100:41,1,150,2|10,0:0|0:0,0:0:0:0:
194,25,99686,2,0,L|257:29,1,50,10|2,1:2|1:0,0:0:0:0:
284,57,100002,2,0,L|347:53,1,50,10|2,0:0|1:0,0:0:0:0:
384,50,100318,6,0,P|409:112|392:201,1,150,6|2,1:0|0:0,0:0:0:0:
314,250,101107,1,2,0:0:0:0:
216,229,101423,2,0,L|95:237,1,100,2|2,0:0|0:0,0:0:0:0:
54,314,102055,2,0,P|65:239|31:168,1,150,2|10,0:0|0:0,0:0:0:0:
0,79,102844,6,0,P|37:56|152:51,1,150,2|2,1:0|0:0,0:0:0:0:
230,92,103634,1,2,0:0:0:0:
294,168,103950,2,0,L|287:269,1,100,6|2,0:0|0:0,0:0:0:0:
229,349,104581,2,0,P|294:323|377:331,1,150,2|10,0:0|3:2,0:0:0:0:
470,352,105371,6,0,B|458:190,1,150,6|2,1:0|0:0,0:0:0:0:
454,102,106160,1,2,0:0:0:0:
383,30,106476,2,0,P|311:28|246:71,1,150,2|8,0:0|0:0,0:0:0:0:
208,161,107265,1,2,1:0:0:0:
110,184,107581,1,10,0:0:0:0:
30,123,107897,6,0,P|23:82|35:19,2,100,2|10|2,1:0|0:0|1:0,0:0:0:0:
110,184,108844,1,10,0:0:0:0:
198,230,109160,2,0,P|205:271|193:334,2,100,2|2|2,1:0|1:0|1:0,0:0:0:0:
110,184,110107,1,10,0:0:0:0:
30,123,110423,5,0,0:0:0:0:
30,123,114213,6,0,B|109:123|109:123|168:158|168:158|246:158|246:158|311:113,1,300,2|14,1:0|0:0,0:0:0:0:
385,52,115476,6,0,P|436:106|443:193,1,150,2|2,1:0|0:0,0:0:0:0:
415,273,116265,1,2,0:0:0:0:
330,326,116581,2,0,L|170:313,1,150,6|10,0:0|0:0,0:0:0:0:
82,293,117371,1,2,1:0:0:0:
38,203,117686,1,10,0:0:0:0:
70,108,118002,6,0,P|139:77|232:96,1,150,2|2,1:0|0:0,0:0:0:0:
284,154,118792,1,2,0:0:0:0:
321,246,119107,2,0,P|390:277|483:258,1,150,2|10,0:0|0:0,0:0:0:0:
501,176,119897,2,0,L|496:69,2,100,10|10|2,0:0|0:0|0:0,0:0:0:0:
462,268,120844,6,0,P|397:262|350:275,1,100,12|2,0:0|0:0,0:0:0:0:
294,342,121476,2,0,P|229:336|182:349,1,100,12|2,0:0|0:0,0:0:0:0:
98,368,122107,2,0,L|89:268,1,100,12|2,0:0|0:0,0:0:0:0:
5,212,122739,2,0,L|14:112,1,100,12|2,0:0|0:0,0:0:0:0:
81,38,123371,6,0,P|144:35|184:48,1,100,12|2,0:0|0:0,0:0:0:0:
265,96,124002,1,12,0:0:0:0:
322,177,124318,2,0,L|316:244,1,50,0|0,1:0|1:0,0:0:0:0:
282,263,124634,2,0,L|288:330,1,50,8|0,0:0|1:0,0:0:0:0:
296,362,124950,2,0,P|346:375|405:362,1,100,8|8,0:0|0:0,0:0:0:0:
450,285,125581,6,0,L|434:118,1,150,2|2,1:0|0:0,0:0:0:0:
375,55,126371,1,2,0:0:0:0:
294,113,126686,2,0,P|232:129|147:99,1,150,2|8,0:0|0:0,0:0:0:0:
68,48,127476,2,0,P|55:101|65:151,1,100,2|10,1:0|0:0,0:0:0:0:
97,238,128107,6,0,L|210:247,1,100,2|10,1:0|0:0,0:0:0:0:
264,319,128739,2,0,L|377:310,1,100,2|10,1:0|0:0,0:0:0:0:
433,238,129371,2,0,L|489:242,2,50,2|10|10,1:0|0:0|0:0,0:0:0:0:
367,162,130002,2,0,L|310:166,1,50,2|10,1:0|0:0,0:0:0:0:
274,192,130318,2,0,L|217:187,1,50,2|10,1:0|0:0,0:0:0:0:
174,181,130634,6,0,P|154:149|248:42,1,200,0|0,0:0|0:0,0:0:0:0:
333,68,131581,1,10,0:0:0:0:
367,162,131897,6,0,L|359:275,1,100,6|10,1:0|0:0,0:0:0:0:
284,328,132529,2,0,P|234:308|181:307,1,100,2|8,1:0|0:0,0:0:0:0:
146,332,133002,2,0,P|96:312|43:311,1,100,2|2,0:0|0:0,0:0:0:0:
6,219,133634,2,0,L|19:62,1,150,2|10,0:0|0:0,0:0:0:0:
109,28,134423,6,0,P|160:25|215:41,1,100,4|10,1:0|0:0,0:0:0:0:
242,131,135055,2,0,L|348:121,1,100,2|8,1:0|0:0,0:0:0:0:
373,82,135529,2,0,L|479:92,1,100,2|0,0:0|0:0,0:0:0:0:
509,125,136002,1,8,0:0:0:0:
509,225,136318,2,0,P|462:249|402:248,1,100,2|8,1:0|0:0,0:0:0:0:
330,198,136950,6,0,P|283:174|223:175,1,100,2|10,1:0|0:0,0:0:0:0:
140,201,137581,2,0,L|151:300,1,100,2|10,1:0|0:0,0:0:0:0:
168,347,138055,2,0,P|215:371|275:370,1,100,6|2,0:0|0:0,0:0:0:0:
311,368,138529,1,10,0:0:0:0:
384,300,138844,2,0,L|395:200,1,100,2|10,1:0|0:0,0:0:0:0:
393,100,139476,6,0,P|332:88|280:98,1,100,6|10,1:0|0:0,0:0:0:0:
254,122,139950,2,0,P|193:110|141:120,1,100,2|2,0:0|0:0,0:0:0:0:
67,162,140581,2,0,B|48:261|48:261|71:326,1,150,2|10,0:0|0:0,0:0:0:0:
143,369,141371,2,0,P|203:370|247:354,1,100,2|10,1:0|0:0,0:0:0:0:
317,293,142002,6,0,L|428:302,2,100,6|10|2,1:0|0:0|1:0,0:0:0:0:
243,224,142950,1,10,0:0:0:0:
162,165,143265,2,0,L|51:174,2,100,2|10|2,1:0|0:0|1:0,0:0:0:0:
243,224,144213,1,8,0:0:0:0:
324,165,144529,6,0,P|332:111|317:45,1,100,2|10,1:0|0:0,0:0:0:0:
283,38,145002,2,0,P|229:46|163:31,1,100,2|2,0:0|0:0,0:0:0:0:
137,22,145476,1,10,0:0:0:0:
44,60,145792,2,0,L|37:168,1,100,2|8,1:0|0:0,0:0:0:0:
27,259,146423,1,2,1:0:0:0:
88,338,146739,1,10,0:0:0:0:
187,326,147055,6,0,P|238:342|295:337,2,100,2|8|0,1:0|0:0|1:0,0:0:0:0:
126,246,148002,1,10,0:0:0:0:
186,166,148318,2,0,L|200:54,1,100,2|10,1:0|0:0,0:0:0:0:
298,66,148950,2,0,L|310:165,1,100,0|8,1:0|0:0,0:0:0:0:
382,234,149581,6,0,P|437:224|498:233,2,100,2|10|2,1:0|0:0|1:0,0:0:0:0:
300,291,150529,1,10,0:0:0:0:
220,350,150844,2,0,P|165:360|104:351,1,100,2|10,1:0|0:0,0:0:0:0:
50,284,151476,2,0,L|45:223,1,50,2|8,1:0|0:0,0:0:0:0:
12,196,151792,2,0,L|17:135,1,50,0|8,1:0|0:0,0:0:0:0:
22,96,152107,5,2,0:0:0:0:
22,96,154634,6,0,P|67:82|131:88,1,100,10|10,1:2|1:2,0:0:0:0:
197,147,155265,2,0,P|242:133|306:139,1,100,10|10,1:2|1:2,0:0:0:0:
372,198,155897,2,0,B|369:247|369:247|387:294|387:294|365:354|365:354|349:315,1,200,14|2,0:0|1:0,0:0:0:0:
