osu file format v14

[General]
AudioFilename: meme.mp3
AudioLeadIn: 0
PreviewTime: 16713
Countdown: 0
SampleSet: Soft
StackLeniency: 0.5
Mode: 0
LetterboxInBreaks: 0
WidescreenStoryboard: 1

[Editor]
Bookmarks: 18213,28318,38423,48529,58634,68739,78844,80107,81371,82634,83897,85160,86423,87686,88950,90213,99055,100318,107897,110423,114213,115476,120529,124318,128107,130634,131897,142002
DistanceSpacing: 4
BeatDivisor: 4
GridSize: 8
TimelineZoom: 2.2

[Metadata]
Title:SANTA SAN
TitleUnicode:サンタさん
Artist:MOMOIRO CLOVER Z
ArtistUnicode:ももいろクローバーZ
Creator:Sotarks
Version:Akitoshi's Extra
Source:
Tags:メリー クリスマス ココナッツ merry christmas coconuts momoclo takagi reni momota kanako ariyasu momoka tamai shiori sasaki ayaka akitoshi corinn doormat irohas mugiwarasekai kalibe kin linada milan- toybot haruto haruto_aizawa
BeatmapID:1473299
BeatmapSetID:695316

[Difficulty]
HPDrainRate:6
CircleSize:3.8
OverallDifficulty:9
ApproachRate:9.3
SliderMultiplier:1.6
SliderTickRate:1

[Events]
//Background and Video events
0,0,"qweqweqwe2.jpg",0,0
//Break Periods
2,110623,113659
2,152307,154080
//Storyboard Layer 0 (Background)
//Storyboard Layer 1 (Fail)
//Storyboard Layer 2 (Pass)
//Storyboard Layer 3 (Foreground)
//Storyboard Sound Samples

[TimingPoints]
529,315.789473684211,4,2,22,72,1,0
17897,-66.6666666666667,4,2,22,72,0,0
18213,-100,4,2,22,72,0,0
28002,-66.6666666666667,4,2,22,72,0,0
28239,-66.6666666666667,4,2,22,5,0,0
28318,-111.111111111111,4,2,22,62,0,0
33055,-71.4285714285714,4,2,22,62,0,0
33371,-111.111111111111,4,2,22,62,0,0
38107,-66.6666666666667,4,2,22,62,0,0
38423,-125,4,2,22,62,0,0
48213,-66.6666666666667,4,2,22,62,0,0
48450,-66.6666666666667,4,2,22,5,0,0
48529,-100,4,2,22,62,0,0
67476,-83.3333333333333,4,2,22,62,0,0
68739,-111.111111111111,4,2,22,62,0,0
71186,-111.111111111111,4,2,22,5,0,0
71265,-111.111111111111,4,2,22,62,0,0
73713,-111.111111111111,4,2,22,5,0,0
73792,-111.111111111111,4,2,22,62,0,0
77581,-90.9090909090909,4,2,22,62,0,0
78844,-200,4,2,22,62,0,0
88950,-133.333333333333,4,2,22,62,0,0
89897,-66.6666666666667,4,2,22,62,0,0
90213,-83.3333333333333,4,2,22,62,0,1
110423,-166.666666666667,4,2,22,62,0,0
114213,-100,4,2,22,62,0,0
115160,-66.6666666666667,4,2,22,62,0,0
115476,-83.3333333333333,4,2,22,62,0,0
120529,-50,4,2,22,62,0,0
124318,-100,4,2,22,62,0,0
125265,-66.6666666666667,4,2,22,62,0,0
125581,-83.3333333333333,4,2,22,62,0,1
130634,-166.666666666667,4,2,22,62,0,0
131581,-66.6666666666667,4,2,22,62,0,0
131818,-66.6666666666667,4,2,22,5,0,0
131897,-100,4,2,22,62,0,0
152107,-166.666666666667,4,2,22,62,0,0
154634,-83.3333333333333,4,2,22,62,0,0

[Colours]
Combo1 : 210,188,187
Combo2 : 244,162,162
Combo3 : 189,207,253
Combo4 : 165,245,158
SliderBorder : 255,168,168
SliderTrackOverride : 20,0,0

[HitObjects]
26,81,17897,6,0,B|78:75|78:75|112:91|112:91|176:84|176:84|153:117,1,180.000006866455,8|0,0:0|0:0,0:0:0:0:
129,179,18213,6,0,L|140:275,1,80,6|0,1:0|0:0,0:0:0:0:
303,373,18529,2,0,L|314:277,1,80,10|0,0:0|0:0,0:0:0:0:
334,94,18844,2,0,P|405:82|486:131,1,160,2|8,1:0|0:0,0:0:0:0:
388,202,19318,1,0,0:0:0:0:
239,142,19476,6,0,P|228:102|239:44,1,80,2|0,1:0|0:0,0:0:0:0:
134,215,19792,2,0,P|137:254|126:292,1,80,10|0,0:0|0:0,0:0:0:0:
100,88,20107,2,0,P|178:91|239:142,1,160,2|8,1:0|0:0,0:0:0:0:
284,254,20581,1,8,0:0:0:0:
429,155,20739,6,0,P|437:100|437:68,1,80,2|0,1:0|0:0,0:0:0:0:
284,254,21055,2,0,P|285:293|292:333,1,80,10|0,0:0|0:0,0:0:0:0:
429,155,21371,2,0,P|374:147|342:147,1,80,2|0,1:0|0:0,0:0:0:0:
204,262,21686,2,0,P|243:260|283:253,1,80,10|0,0:0|0:0,0:0:0:0:
92,189,22002,6,0,P|70:249|97:344,2,160,14|10|14,0:0|0:0|0:0,0:0:0:0:
207,24,22792,1,0,1:0:0:0:
349,165,22950,2,0,L|440:153,1,80,14|0,0:0|0:0,0:0:0:0:
229,129,23265,6,0,P|224:170|240:220,1,80,2|0,1:0|0:0,0:0:0:0:
432,232,23581,2,0,P|437:191|421:141,1,80,10|0,0:0|0:0,0:0:0:0:
233,207,23897,2,0,P|228:248|244:298,1,80,2|0,1:0|0:0,0:0:0:0:
436,310,24213,2,0,P|441:269|425:219,1,80,10|0,0:0|0:0,0:0:0:0:
229,129,24529,6,0,L|140:138,1,80,2|0,1:0|0:0,0:0:0:0:
352,223,24845,2,0,L|441:232,1,80,10|0,0:0|0:0,0:0:0:0:
149,137,25160,2,0,L|60:146,1,80,2|0,1:0|0:0,0:0:0:0:
273,215,25476,2,0,L|362:224,1,80,10|0,0:0|0:0,0:0:0:0:
150,59,25792,6,0,B|139:99|139:99|152:149,1,80,2|0,1:0|0:0,0:0:0:0:
351,300,26107,2,0,B|362:260|362:260|349:210,1,80,10|0,0:0|0:0,0:0:0:0:
149,136,26423,2,0,B|138:176|138:176|151:226,1,80,2|0,1:0|0:0,0:0:0:0:
350,377,26738,2,0,B|361:337|361:337|348:287,1,80,10|0,0:0|0:0,0:0:0:0:
149,136,27055,6,0,P|98:137|58:150,1,80,14|0,0:0|0:0,0:0:0:0:
311,163,27371,2,0,P|335:118|344:77,1,80,10|0,0:0|0:0,0:0:0:0:
208,289,27686,2,0,P|234:332|265:360,1,80,14|0,0:0|0:0,0:0:0:0:
478,176,28002,6,0,B|437:173|437:173|393:193|393:193|349:190|349:190|306:159,1,180.000006866455,8|0,0:0|0:0,0:0:0:0:
251,98,28318,6,0,P|175:93|107:138,1,143.999995605469,6|8,1:0|0:0,0:0:0:0:
202,215,28792,1,2,1:0:0:0:
274,82,28950,1,2,0:0:0:0:
393,193,29107,2,0,L|386:275,1,71.9999978027344,2|8,1:0|0:0,0:0:0:0:
238,355,29423,6,0,P|163:337|80:326,1,143.999995605469,2|2,0:0|1:0,0:0:0:0:
5,179,29897,1,10,0:0:0:0:
69,324,30055,1,2,1:0:0:0:
141,159,30213,2,0,L|148:64,1,71.9999978027344,2|0,0:0|1:0,0:0:0:0:
296,212,30529,2,0,L|303:307,1,71.9999978027344,10|0,0:0|0:0,0:0:0:0:
372,102,30844,6,0,P|310:78|227:98,2,143.999995605469,2|10|2,1:0|0:0|0:0,0:0:0:0:
296,212,31634,1,0,1:0:0:0:
212,77,31792,1,10,0:0:0:0:
86,205,31950,6,0,P|96:274|108:353,1,143.999995605469,2|2,0:0|1:0,0:0:0:0:
218,179,32423,1,10,0:0:0:0:
71,102,32581,1,0,1:0:0:0:
97,277,32739,2,0,L|189:267,1,71.9999978027344,2|0,0:0|1:0,0:0:0:0:
320,78,33055,2,0,B|265:62|265:62|212:76,1,111.999996582031,8|0,0:0|1:0,0:0:0:0:
415,154,33371,6,0,P|440:84|417:3,1,143.999995605469,2|8,1:0|0:0,0:0:0:0:
320,78,33844,1,0,1:0:0:0:
425,186,34002,1,0,0:0:0:0:
237,184,34160,2,0,P|242:221|249:281,1,71.9999978027344,0|8,1:0|0:0,0:0:0:0:
52,173,34476,6,0,P|60:101|70:30,1,143.999995605469,0|0,1:0|1:0,0:0:0:0:
233,150,34950,1,8,0:0:0:0:
50,214,35107,1,0,1:0:0:0:
186,46,35265,1,0,0:0:0:0:
166,261,35423,1,0,1:0:0:0:
333,125,35581,2,0,L|323:33,1,71.9999978027344,8|0,0:0|1:0,0:0:0:0:
165,190,35897,6,0,P|160:227|169:271,1,71.9999978027344,0|0,1:0|0:0,0:0:0:0:
332,265,36213,2,0,P|302:242|259:227,1,71.9999978027344,8|0,0:0|0:0,0:0:0:0:
183,372,36529,2,0,P|217:357|251:328,1,71.9999978027344,0|0,1:0|0:0,0:0:0:0:
165,190,36844,1,8,0:0:0:0:
73,282,37002,1,0,0:0:0:0:
271,230,37160,5,8,0:0:0:0:
137,175,37318,1,0,1:0:0:0:
298,236,37476,5,8,0:0:0:0:
242,103,37634,1,0,1:0:0:0:
327,253,37792,5,8,0:0:0:0:
414,140,37950,1,0,1:0:0:0:
261,338,38107,5,12,0:0:0:0:
165,190,38265,1,0,1:0:0:0:
103,309,38423,5,2,1:0:0:0:
103,309,39844,5,2,1:0:0:0:
103,309,40476,1,0,1:0:0:0:
180,154,40950,5,2,1:0:0:0:
180,154,42371,5,2,1:0:0:0:
180,154,42844,1,2,1:0:0:0:
264,199,43002,1,2,0:0:0:0:
354,167,43160,1,2,3:0:0:0:
354,167,43634,5,2,1:0:0:0:
354,167,44897,5,2,1:0:0:0:
354,167,45529,1,0,0:0:0:0:
193,102,46002,5,2,1:0:0:0:
258,322,46634,1,2,1:0:0:0:
193,102,47265,5,2,1:0:0:0:
77,102,47581,1,2,1:0:0:0:
77,217,47897,1,2,1:0:0:0:
197,217,48213,2,0,B|246:214|246:214|279:229|279:229|339:226|339:226|306:257,1,180.000006866455,8|0,0:0|0:0,0:0:0:0:
250,312,48529,6,0,P|284:333|335:337,1,80,6|0,1:0|0:0,0:0:0:0:
127,294,48844,2,0,P|125:333|147:380,1,80,10|0,0:0|1:0,0:0:0:0:
147,145,49160,2,0,P|71:154|0:217,1,160,2|8,0:0|0:0,0:0:0:0:
230,67,49792,6,0,P|196:46|145:42,1,80,2|0,1:0|0:0,0:0:0:0:
353,85,50107,2,0,P|355:46|333:-1,1,80,10|0,0:0|1:0,0:0:0:0:
333,234,50423,2,0,P|409:225|480:162,1,160,2|8,0:0|0:0,0:0:0:0:
216,196,51055,6,0,L|227:288,1,80,2|0,1:0|0:0,0:0:0:0:
44,169,51371,2,0,L|55:77,1,80,10|0,0:0|1:0,0:0:0:0:
206,116,51686,2,0,L|217:208,1,80,2|0,0:0|1:0,0:0:0:0:
34,248,52002,2,0,L|45:156,1,80,10|0,0:0|0:0,0:0:0:0:
190,18,52318,6,0,P|230:20|273:46,1,80,2|0,1:0|0:0,0:0:0:0:
420,141,52634,2,0,L|513:131,1,80,10|0,0:0|1:0,0:0:0:0:
311,102,52950,2,0,L|255:26,1,80,2|0,0:0|1:0,0:0:0:0:
324,216,53265,2,0,L|286:301,1,80,10|0,0:0|0:0,0:0:0:0:
160,156,53581,5,2,1:0:0:0:
311,102,53739,1,2,0:0:0:0:
263,289,53897,1,8,0:0:0:0:
336,100,54055,2,0,P|438:113|488:164,1,160,2|2,1:0|1:0,0:0:0:0:
263,289,54529,2,0,P|241:254|238:184,1,80,10|0,0:0|0:0,0:0:0:0:
407,195,54844,5,2,1:0:0:0:
289,315,55002,1,0,0:0:0:0:
232,114,55160,1,8,0:0:0:0:
316,338,55318,2,0,P|240:326|144:317,1,160,2|0,1:0|1:0,0:0:0:0:
22,147,55792,2,0,P|60:140|108:136,1,80,10|0,0:0|0:0,0:0:0:0:
317,125,56107,6,0,P|326:70|325:35,1,80,2|0,1:0|0:0,0:0:0:0:
222,209,56423,2,0,P|223:248|230:288,1,80,10|0,0:0|0:0,0:0:0:0:
360,223,56739,1,10,0:0:0:0:
223,111,56897,1,0,1:0:0:0:
423,55,57055,2,0,L|502:62,1,80,10|0,0:0|1:0,0:0:0:0:
372,300,57371,6,0,P|359:260|364:206,1,80,6|0,3:0|0:0,0:0:0:0:
223,111,57686,2,0,P|194:142|145:164,1,80,10|0,3:0|0:0,0:0:0:0:
140,328,58002,2,0,P|181:336|225:368,1,80,6|10,3:0|0:0,0:0:0:0:
372,300,58318,1,10,0:0:0:0:
241,220,58476,1,0,0:0:0:0:
395,311,58634,6,0,L|406:222,1,80,6|0,1:0|0:0,0:0:0:0:
232,141,58950,2,0,L|241:220,1,80,8|0,0:0|1:0,0:0:0:0:
469,356,59265,2,0,L|488:197,1,160,2|8,0:0|0:0,0:0:0:0:
222,61,59897,6,0,L|233:150,1,80,2|0,1:0|0:0,0:0:0:0:
82,220,60213,2,0,L|91:140,1,80,8|0,0:0|1:0,0:0:0:0:
296,16,60528,2,0,L|315:174,1,160,2|8,0:0|0:0,0:0:0:0:
84,297,61160,6,0,P|75:252|87:207,1,80,2|0,1:0|0:0,0:0:0:0:
207,62,61476,2,0,P|216:107|204:152,1,80,10|0,0:0|1:0,0:0:0:0:
84,297,61792,2,0,L|169:293,1,80,2|0,0:0|1:0,0:0:0:0:
289,143,62107,2,0,L|204:139,1,80,10|0,0:0|0:0,0:0:0:0:
382,102,62423,6,0,P|390:152|374:200,1,80,2|0,1:0|0:0,0:0:0:0:
341,335,62739,2,0,L|433:323,1,80,10|0,0:0|1:0,0:0:0:0:
258,203,63055,2,0,L|201:129,1,80,2|0,0:0|1:0,0:0:0:0:
84,297,63371,2,0,L|48:382,1,80,10|0,0:0|0:0,0:0:0:0:
13,149,63686,5,2,1:0:0:0:
178,212,63844,2,0,L|269:200,1,80,2|8,0:0|0:0,0:0:0:0:
362,59,64160,2,0,P|292:14|198:37,1,160,2|2,1:0|1:0,0:0:0:0:
257,201,64634,2,0,P|271:164|271:125,1,80,10|0,0:0|0:0,0:0:0:0:
94,145,64950,5,2,1:0:0:0:
203,311,65107,2,0,L|301:302,1,80,2|8,0:0|0:0,0:0:0:0:
478,257,65423,2,0,B|490:138|490:138|429:157,1,160,2|0,1:0|1:0,0:0:0:0:
257,201,65897,2,0,P|244:137|245:114,1,80,10|0,0:0|0:0,0:0:0:0:
58,45,66213,6,0,L|50:129,1,80,2|0,1:0|0:0,0:0:0:0:
264,280,66529,2,0,L|256:196,1,80,10|0,0:0|0:0,0:0:0:0:
50,124,66844,2,0,L|42:208,1,80,10|0,0:0|1:0,0:0:0:0:
271,359,67160,2,0,L|263:275,1,80,10|0,0:0|1:0,0:0:0:0:
248,38,67476,6,0,P|298:38|359:59,1,95.9999970703126,6|0,1:0|0:0,0:0:0:0:
181,268,67792,2,0,P|155:224|143:161,1,95.9999970703126,6|0,1:0|0:0,0:0:0:0:
411,214,68107,2,0,P|386:257|337:299,1,95.9999970703126,6|0,1:0|0:0,0:0:0:0:
248,38,68423,1,8,0:0:0:0:
248,38,68739,6,0,L|168:44,1,71.9999978027344,2|0,1:0|0:0,0:0:0:0:
79,93,69055,1,10,0:0:0:0:
170,150,69213,1,10,0:0:0:0:
79,93,69371,2,0,P|65:51|73:11,1,71.9999978027344,2|0,1:0|0:0,0:0:0:0:
170,150,69686,1,10,0:0:0:0:
176,43,69844,1,0,0:0:0:0:
79,93,70002,5,0,1:0:0:0:
170,150,70160,1,2,1:0:0:0:
75,202,70318,1,10,0:0:0:0:
137,290,70476,1,0,1:0:0:0:
237,328,70634,2,0,L|318:320,1,71.9999978027344,2|0,1:0|0:0,0:0:0:0:
367,147,70950,2,0,P|311:133|243:152,1,107.999996704102,10|0,0:0|0:0,0:0:0:0:
229,155,71265,6,0,L|150:148,1,71.9999978027344,2|0,1:0|0:0,0:0:0:0:
52,121,71581,1,10,0:0:0:0:
127,44,71739,1,10,0:0:0:0:
157,148,71897,1,2,0:0:0:0:
127,44,72055,1,0,0:0:0:0:
40,150,72213,2,0,P|32:185|36:221,1,71.9999978027344,10|2,0:0|0:0,0:0:0:0:
148,300,72529,5,0,1:0:0:0:
224,225,72686,1,0,1:0:0:0:
253,329,72844,1,10,0:0:0:0:
329,252,73002,1,0,1:0:0:0:
224,225,73160,1,2,1:0:0:0:
148,300,73318,1,10,0:0:0:0:
253,329,73476,2,0,B|214:312|214:312|145:328,1,107.999996704102,10|0,0:0|0:0,0:0:0:0:
70,332,73792,6,0,P|59:294|69:235,1,71.9999978027344,2|0,1:0|0:0,0:0:0:0:
109,165,74107,1,10,0:0:0:0:
1,170,74265,1,10,0:0:0:0:
109,165,74423,2,0,P|120:127|110:68,1,71.9999978027344,2|0,1:0|0:0,0:0:0:0:
245,24,74739,2,0,P|244:59|254:94,1,71.9999978027344,8|2,0:0|0:0,0:0:0:0:
333,215,75055,5,0,1:0:0:0:
399,87,75213,1,2,1:0:0:0:
254,94,75371,1,8,0:0:0:0:
189,222,75529,1,2,1:0:0:0:
333,215,75686,2,0,P|347:271|343:306,1,71.9999978027344,2|2,1:0|0:0,0:0:0:0:
183,327,76002,2,0,P|176:273|188:221,1,107.999996704102,10|0,0:0|0:0,0:0:0:0:
209,191,76318,6,0,L|199:106,1,71.9999978027344,2|2,1:0|0:0,0:0:0:0:
126,39,76634,1,10,0:0:0:0:
62,126,76792,1,10,0:0:0:0:
126,39,76950,2,0,P|154:21|209:12,1,71.9999978027344,2|0,1:0|0:0,0:0:0:0:
127,153,77265,2,0,P|92:144|61:125,1,71.9999978027344,10|0,0:0|0:0,0:0:0:0:
304,76,77581,5,10,1:2:0:0:
226,281,77739,1,2,1:0:0:0:
48,109,77897,2,0,L|40:21,1,88.000002685547,10|0,1:2|0:0,0:0:0:0:
233,193,78213,2,0,L|225:280,1,88.000002685547,2|0,1:0|0:0,0:0:0:0:
16,357,78529,1,8,0:0:0:0:
135,35,78844,6,0,B|147:137|147:137|146:172|123:199|80:207|32:178,1,240,2|2,0:0|0:0,0:0:0:0:
257,212,80107,6,0,B|238:89|238:89|247:58|305:63|320:103|290:122,1,240,2|2,0:0|0:0,0:0:0:0:
360,291,81371,6,0,B|374:215|374:215|433:277|433:277|454:189,1,240,2|0,0:0|0:0,0:0:0:0:
411,65,82634,6,0,B|359:55|359:55|297:80|297:80|230:71|230:71|190:33,1,240,2|0,0:0|0:0,0:0:0:0:
81,145,83897,6,0,B|114:154|114:154|72:62|72:62|24:164,1,240,2|2,0:0|0:0,0:0:0:0:
157,236,85160,6,0,B|133:324|205:380|277:324|253:236,1,240,2|2,0:0|0:0,0:0:0:0:
457,196,86423,6,0,B|417:189|390:224|407:263|407:263|435:325|379:358|340:336,1,240,2|0,0:0|0:0,0:0:0:0:
195,190,87686,6,0,B|185:140|185:140|215:94|215:94|198:19|198:19|163:68,1,240,2|0,0:0|0:0,0:0:0:0:
115,298,88950,6,0,P|154:314|197:313,1,60.0000022888184,2|0,1:0|0:0,0:0:0:0:
238,149,89265,2,0,P|204:174|184:212,1,60.0000022888184,2|0,1:0|0:0,0:0:0:0:
305,332,89581,2,0,P|299:290|276:253,1,60.0000022888184,2|0,1:0|0:0,0:0:0:0:
53,156,89897,6,0,B|43:116|43:116|58:79|58:79|49:28|49:28|98:59,1,180.000006866455,12|0,0:0|0:0,0:0:0:0:
167,78,90213,6,0,P|209:58|268:57,1,95.9999970703126,6|0,1:0|0:0,0:0:0:0:
442,160,90529,1,10,0:0:0:0:
260,263,90686,2,0,P|238:221|240:174,1,95.9999970703126,2|0,0:0|1:0,0:0:0:0:
421,285,91002,2,0,P|422:332|400:374,1,95.9999970703126,2|8,0:0|0:0,0:0:0:0:
164,273,91318,6,0,L|273:262,1,95.9999970703126,2|0,0:0|1:0,0:0:0:0:
85,141,91634,1,2,0:0:0:0:
133,384,91792,1,10,0:0:0:0:
250,131,91950,1,2,0:0:0:0:
51,324,92107,2,0,P|40:269|52:223,1,95.9999970703126,2|0,1:0|0:0,0:0:0:0:
247,37,92423,2,0,P|258:92|246:138,1,95.9999970703126,10|0,0:0|0:0,0:0:0:0:
65,339,92739,6,0,L|178:324,1,95.9999970703126,2|0,1:0|0:0,0:0:0:0:
380,298,93055,1,10,0:0:0:0:
214,199,93213,2,0,P|159:190|105:208,1,95.9999970703126,2|0,0:0|1:0,0:0:0:0:
283,326,93529,2,0,P|338:335|392:317,1,95.9999970703126,2|8,0:0|0:0,0:0:0:0:
337,121,93844,6,0,L|330:217,1,95.9999970703126,2|0,0:0|1:0,0:0:0:0:
231,28,94160,1,2,0:0:0:0:
474,116,94318,1,10,0:0:0:0:
191,173,94476,1,2,0:0:0:0:
451,296,94634,2,0,P|466:251|466:204,1,95.9999970703126,2|0,1:0|0:0,0:0:0:0:
176,186,94950,2,0,P|175:233|191:278,1,95.9999970703126,10|0,0:0|0:0,0:0:0:0:
327,20,95265,6,0,L|223:29,1,95.9999970703126,2|0,1:0|0:0,0:0:0:0:
44,128,95581,1,10,0:0:0:0:
191,278,95739,2,0,P|201:328|193:381,1,95.9999970703126,2|0,0:0|1:0,0:0:0:0:
378,199,96055,2,0,P|372:151|382:104,1,95.9999970703126,2|8,0:0|0:0,0:0:0:0:
464,365,96371,6,0,B|413:359|413:359|378:377|378:377|326:371|326:371|289:332,1,191.999994140625,6|0,0:0|0:0,0:0:0:0:
132,131,96844,2,0,L|31:140,1,95.9999970703126,10|0,0:0|0:0,0:0:0:0:
231,191,97160,2,0,L|188:282,1,95.9999970703126,2|0,1:0|0:0,0:0:0:0:
337,137,97476,2,0,L|395:219,1,95.9999970703126,10|0,0:0|0:0,0:0:0:0:
505,13,97792,6,0,L|404:21,1,95.9999970703126,2|0,1:0|0:0,0:0:0:0:
151,46,98107,1,10,0:0:0:0:
337,137,98265,2,0,P|377:152|436:152,1,95.9999970703126,2|0,0:0|1:0,0:0:0:0:
134,26,98581,2,0,P|86:26|41:42,1,95.9999970703126,2|8,0:0|0:0,0:0:0:0:
128,225,98897,1,2,0:0:0:0:
255,21,99055,5,10,1:2:0:0:
46,140,99213,1,2,1:0:0:0:
337,137,99371,5,10,0:0:0:0:
41,42,99529,1,2,1:0:0:0:
348,172,99686,5,10,1:2:0:0:
34,294,99844,1,2,1:0:0:0:
360,212,100002,5,10,0:0:0:0:
64,51,100160,1,2,1:0:0:0:
447,20,100318,6,0,P|475:58|490:110,1,95.9999970703126,6|0,1:0|0:0,0:0:0:0:
507,312,100634,1,10,0:0:0:0:
340,181,100792,2,0,P|284:169|227:184,1,95.9999970703126,2|0,0:0|1:0,0:0:0:0:
102,331,101107,2,0,P|158:343|215:328,1,95.9999970703126,2|8,0:0|0:0,0:0:0:0:
154,107,101423,6,0,P|132:155|137:209,1,95.9999970703126,2|0,0:0|1:0,0:0:0:0:
301,359,101739,2,0,P|301:311|280:268,1,95.9999970703126,2|8,0:0|0:0,0:0:0:0:
176,83,102055,2,0,L|59:76,1,95.9999970703126,2|2,0:0|1:0,0:0:0:0:
278,0,102371,1,2,0:0:0:0:
135,228,102529,2,0,L|18:221,1,95.9999970703126,10|2,0:0|0:0,0:0:0:0:
299,155,102844,6,0,L|416:148,1,95.9999970703126,2|0,1:0|0:0,0:0:0:0:
190,2,103160,1,10,0:0:0:0:
248,244,103318,2,0,P|292:258|351:243,1,95.9999970703126,2|0,0:0|1:0,0:0:0:0:
130,109,103634,2,0,P|86:95|27:110,1,95.9999970703126,2|8,0:0|0:0,0:0:0:0:
243,336,103950,6,0,P|257:292|242:233,1,95.9999970703126,6|0,0:0|1:0,0:0:0:0:
130,109,104265,1,2,0:0:0:0:
347,31,104423,1,8,0:0:0:0:
230,229,104581,2,0,L|124:222,1,95.9999970703126,2|2,0:0|1:0,0:0:0:0:
231,55,104897,1,2,0:0:0:0:
420,186,105055,2,0,P|430:235|414:295,1,95.9999970703126,10|2,3:2|3:0,0:0:0:0:
134,222,105371,6,0,P|125:175|135:128,1,95.9999970703126,6|0,1:0|0:0,0:0:0:0:
309,230,105686,1,10,0:0:0:0:
94,314,105844,2,0,P|51:278|35:228,1,95.9999970703126,2|0,0:0|1:0,0:0:0:0:
287,241,106160,2,0,P|267:284|229:313,1,95.9999970703126,2|8,0:0|0:0,0:0:0:0:
38,148,106476,6,0,L|48:33,1,95.9999970703126,2|0,0:0|1:0,0:0:0:0:
279,145,106792,2,0,L|289:260,1,95.9999970703126,2|8,0:0|0:0,0:0:0:0:
453,126,107107,1,2,0:0:0:0:
197,83,107265,2,0,P|179:129|186:184,1,95.9999970703126,2|0,1:0|0:0,0:0:0:0:
409,304,107581,2,0,P|427:258|420:203,1,95.9999970703126,10|0,0:0|0:0,0:0:0:0:
214,59,107897,5,2,1:0:0:0:
145,283,108055,1,2,1:0:0:0:
42,42,108213,5,10,0:0:0:0:
290,127,108371,1,2,0:0:0:0:
50,272,108529,5,2,1:0:0:0:
126,76,108686,1,2,1:0:0:0:
325,231,108844,5,10,0:0:0:0:
117,188,109002,1,0,0:0:0:0:
310,41,109160,5,2,1:0:0:0:
234,327,109318,1,10,0:0:0:0:
126,76,109476,5,2,1:0:0:0:
370,133,109634,1,10,0:0:0:0:
102,319,109792,5,2,1:0:0:0:
214,107,109950,1,10,0:0:0:0:
442,278,110107,5,10,0:0:0:0:
205,234,110265,1,8,0:0:0:0:
370,133,110423,5,2,0:0:0:0:
21,81,114213,5,2,1:0:0:0:
41,255,114371,1,0,1:0:0:0:
212,86,114529,5,2,1:0:0:0:
134,263,114687,1,0,1:0:0:0:
378,192,114844,5,2,1:0:0:0:
208,317,115002,1,0,1:0:0:0:
111,11,115160,5,14,0:0:0:0:
273,234,115318,1,14,0:0:0:0:
402,9,115476,6,0,L|500:6,1,95.9999970703126,2|0,1:0|0:0,0:0:0:0:
441,260,115792,1,10,0:0:0:0:
257,136,115950,2,0,P|246:88|259:36,1,95.9999970703126,2|0,0:0|1:0,0:0:0:0:
439,167,116265,2,0,P|450:215|437:267,1,95.9999970703126,2|8,0:0|0:0,0:0:0:0:
156,241,116581,6,0,B|206:235|206:235|251:246|251:246|300:242|300:242|337:215,1,191.999994140625,6|0,0:0|0:0,0:0:0:0:
149,77,117055,2,0,P|92:89|48:115,1,95.9999970703126,10|0,0:0|0:0,0:0:0:0:
305,57,117371,2,0,P|256:25|206:12,1,95.9999970703126,2|0,1:0|0:0,0:0:0:0:
437,138,117686,2,0,P|425:81|399:37,1,95.9999970703126,10|0,0:0|0:0,0:0:0:0:
251,245,118002,6,0,P|229:287|221:334,1,95.9999970703126,2|0,1:0|0:0,0:0:0:0:
443,326,118318,1,10,0:0:0:0:
313,146,118476,2,0,P|270:124|223:116,1,95.9999970703126,2|2,0:0|1:0,0:0:0:0:
44,248,118792,2,0,P|86:226|133:218,1,95.9999970703126,2|8,0:0|0:0,0:0:0:0:
131,384,119107,1,2,0:0:0:0:
5,167,119265,6,0,L|16:60,1,95.9999970703126,10|0,0:0|1:0,0:0:0:0:
241,24,119581,2,0,L|252:131,1,95.9999970703126,10|0,0:0|1:0,0:0:0:0:
283,344,119897,1,10,0:0:0:0:
390,145,120055,1,0,1:0:0:0:
184,242,120213,1,10,0:0:0:0:
409,283,120371,1,8,0:0:0:0:
250,119,120529,5,2,0:0:0:0:
250,119,120844,6,0,B|41:87|41:87|114:166,1,320,12|2,0:0|0:0,0:0:0:0:
114,167,121476,6,0,P|55:283|185:270,1,320,12|2,0:0|0:0,0:0:0:0:
185,270,122107,6,0,B|251:264|251:264|303:298|303:298|427:288|427:288|367:257,1,320,12|2,0:0|0:0,0:0:0:0:
367,258,122739,6,0,B|349:200|349:200|375:143|375:143|345:23|345:23|401:69,1,320,12|2,0:0|0:0,0:0:0:0:
401,70,123371,6,0,B|327:65|327:65|259:99|259:99|157:93|157:93|104:49,1,320,12|2,0:0|0:0,0:0:0:0:
105,50,124002,6,0,P|41:100|15:195,1,160,12|0,0:0|0:0,0:0:0:0:
138,362,124318,5,0,1:0:0:0:
158,188,124476,1,0,1:0:0:0:
329,357,124634,5,8,0:0:0:0:
251,180,124792,1,0,1:0:0:0:
495,251,124949,5,8,0:0:0:0:
325,126,125107,1,8,0:0:0:0:
236,368,125265,5,8,0:0:0:0:
406,189,125423,1,8,0:0:0:0:
158,188,125581,6,0,P|145:137|161:78,1,95.9999970703126,2|0,1:0|0:0,0:0:0:0:
287,271,125897,1,10,0:0:0:0:
67,296,126055,2,0,P|35:258|17:201,1,95.9999970703126,2|0,0:0|1:0,0:0:0:0:
104,14,126371,2,0,P|136:52|154:109,1,95.9999970703126,2|8,0:0|0:0,0:0:0:0:
192,283,126686,6,0,L|310:268,1,95.9999970703126,2|0,0:0|1:0,0:0:0:0:
396,111,127002,2,0,L|278:96,1,95.9999970703126,2|8,0:0|0:0,0:0:0:0:
429,0,127318,1,2,0:0:0:0:
224,142,127476,2,0,P|213:96|228:51,1,95.9999970703126,2|0,1:0|0:0,0:0:0:0:
368,228,127792,2,0,P|378:274|364:319,1,95.9999970703126,10|0,0:0|0:0,0:0:0:0:
199,173,128107,5,2,1:0:0:0:
402,85,128265,1,2,1:0:0:0:
172,183,128423,5,10,0:0:0:0:
368,228,128581,1,2,0:0:0:0:
228,28,128739,5,2,1:0:0:0:
119,274,128897,1,2,1:0:0:0:
242,1,129055,5,10,0:0:0:0:
283,219,129213,1,2,0:0:0:0:
19,162,129371,5,2,1:0:0:0:
301,99,129529,1,10,0:0:0:0:
105,308,129686,5,10,0:0:0:0:
131,98,129844,1,0,0:0:0:0:
264,364,130002,5,2,1:0:0:0:
304,69,130160,1,10,0:0:0:0:
53,230,130318,5,2,1:0:0:0:
348,191,130476,1,10,0:0:0:0:
131,98,130634,5,0,0:0:0:0:
116,116,131265,1,0,0:0:0:0:
104,136,131581,6,0,B|147:132|147:132|186:149|186:149|241:144|241:144|274:123,1,180.000006866455,10|0,0:0|0:0,0:0:0:0:
350,77,131897,6,0,P|362:133|343:179,1,80,6|2,1:0|0:0,0:0:0:0:
259,321,132213,2,0,P|247:265|266:219,1,80,10|2,0:0|0:0,0:0:0:0:
330,58,132529,1,2,1:0:0:0:
160,102,132686,2,0,L|62:95,1,80,2|8,0:0|0:0,0:0:0:0:
8,258,133002,6,0,P|48:270|98:266,1,80,2|0,0:0|1:0,0:0:0:0:
260,216,133318,2,0,P|220:204|170:208,1,80,2|8,0:0|0:0,0:0:0:0:
200,339,133634,1,2,0:0:0:0:
371,241,133792,2,0,L|362:133,1,80,0|2,1:0|0:0,0:0:0:0:
290,347,134107,1,10,0:0:0:0:
477,276,134265,1,2,0:0:0:0:
260,216,134423,6,0,L|251:108,1,80,4|2,1:0|0:0,0:0:0:0:
223,119,134660,1,2,0:0:0:0:
223,119,134739,2,0,L|232:11,1,80,10|2,0:0|0:0,0:0:0:0:
364,161,135055,1,2,1:0:0:0:
171,216,135213,2,0,P|126:223|71:205,1,80,2|8,0:0|0:0,0:0:0:0:
230,40,135529,6,0,P|275:33|330:51,2,80,2|0|0,0:0|0:0|0:0,0:0:0:0:
89,116,136002,1,8,0:0:0:0:
269,140,136160,1,2,0:0:0:0:
136,2,136318,1,2,1:0:0:0:
171,216,136476,2,0,L|159:314,1,80,2|8,0:0|0:0,0:0:0:0:
47,235,136792,1,2,0:0:0:0:
183,111,136950,5,2,1:0:0:0:
162,295,137107,1,2,0:0:0:0:
159,322,137186,1,0,0:0:0:0:
155,349,137265,1,10,0:0:0:0:
322,331,137423,2,0,P|326:280|317:249,1,80,2|2,0:0|1:0,0:0:0:0:
210,122,137739,1,2,0:0:0:0:
392,149,137897,1,10,0:0:0:0:
171,216,138055,6,0,L|72:209,1,80,6|0,0:0|1:0,0:0:0:0:
230,101,138371,1,2,0:0:0:0:
319,253,138529,2,0,L|418:246,1,80,10|2,0:0|0:0,0:0:0:0:
251,79,138844,1,2,1:0:0:0:
232,278,139002,1,2,0:0:0:0:
392,149,139160,1,10,0:0:0:0:
378,364,139318,1,2,0:0:0:0:
242,181,139476,6,0,L|140:190,1,80,6|0,1:0|0:0,0:0:0:0:
272,366,139792,1,10,0:0:0:0:
421,232,139950,2,0,P|428:191|406:132,1,80,2|0,0:0|1:0,0:0:0:0:
240,103,140265,2,0,P|233:144|255:203,1,80,2|8,0:0|0:0,0:0:0:0:
442,17,140581,6,0,B|330:5|330:5|275:26,1,160,2|2,0:0|1:0,0:0:0:0:
106,114,141055,1,10,0:0:0:0:
242,181,141213,1,2,0:0:0:0:
155,36,141371,2,0,P|105:22|50:39,1,80,2|2,1:0|1:0,0:0:0:0:
242,181,141686,2,0,P|281:183|319:170,1,80,10|2,0:0|1:0,0:0:0:0:
468,23,142002,5,6,1:0:0:0:
435,196,142160,1,2,0:0:0:0:
268,83,142318,2,0,L|274:2,1,80,10|0,0:0|0:0,0:0:0:0:
423,98,142634,5,2,1:0:0:0:
357,261,142792,1,2,0:0:0:0:
268,83,142950,2,0,L|187:77,1,80,10|0,0:0|0:0,0:0:0:0:
5,117,143265,5,2,1:0:0:0:
176,194,143423,1,2,0:0:0:0:
82,31,143581,1,10,0:0:0:0:
62,218,143739,1,2,0:0:0:0:
188,77,143897,2,0,L|268:83,1,80,2|0,1:0|0:0,0:0:0:0:
447,129,144213,2,0,P|447:171|425:215,1,80,8|0,0:0|0:0,0:0:0:0:
254,255,144529,5,2,1:0:0:0:
165,103,144686,1,0,0:0:0:0:
54,270,144844,2,0,L|62:361,1,80,10|2,0:0|0:0,0:0:0:0:
188,193,145160,1,0,1:0:0:0:
42,147,145318,1,2,0:0:0:0:
171,278,145476,1,10,0:0:0:0:
300,115,145634,1,0,0:0:0:0:
52,1,145792,6,0,B|20:36|20:36|47:173,1,160,2|8,1:0|0:0,0:0:0:0:
73,286,146265,1,0,0:0:0:0:
233,213,146423,2,0,P|275:208|329:203,1,80,2|0,1:0|0:0,0:0:0:0:
460,55,146739,2,0,P|418:50|364:45,1,80,10|0,0:0|0:0,0:0:0:0:
148,18,147055,6,0,B|122:62|122:62|146:179,3,160,2|8|2|8,1:0|0:0|1:0|0:0,0:0:0:0:
301,232,148160,1,2,0:0:0:0:
128,198,148318,5,2,1:0:0:0:
285,82,148476,1,2,0:0:0:0:
207,300,148634,2,0,L|215:381,1,80,10|2,0:0|0:0,0:0:0:0:
412,254,148950,2,0,L|420:173,1,80,0|0,1:0|0:0,0:0:0:0:
266,0,149265,1,8,0:0:0:0:
266,0,149581,5,2,1:0:0:0:
447,30,149739,1,2,1:0:0:0:
260,90,149897,5,10,0:0:0:0:
416,217,150055,1,2,0:0:0:0:
201,153,150213,5,2,1:0:0:0:
280,360,150371,1,2,1:0:0:0:
447,211,150529,2,0,P|453:171|442:128,1,80,10|0,0:0|0:0,0:0:0:0:
249,244,150844,5,2,1:0:0:0:
460,319,151002,1,10,0:0:0:0:
340,86,151160,2,0,L|242:91,1,80,10|2,0:0|0:0,0:0:0:0:
66,234,151476,5,2,1:0:0:0:
295,304,151634,1,8,0:0:0:0:
149,113,151792,5,0,1:0:0:0:
170,352,151950,1,8,0:0:0:0:
343,221,152107,5,2,0:0:0:0:
343,221,154634,6,0,L|336:117,1,95.9999970703126,10|0,1:2|0:0,0:0:0:0:
96,21,154950,2,0,L|89:125,1,95.9999970703126,10|0,1:2|0:0,0:0:0:0:
349,316,155265,2,0,L|342:212,1,95.9999970703126,10|0,1:2|0:0,0:0:0:0:
89,116,155581,2,0,L|82:220,1,95.9999970703126,10|0,1:2|0:0,0:0:0:0:
349,316,155897,6,0,P|448:306|446:126,1,287.999991210938,14|0,0:0|0:0,0:0:0:0:
442,122,156450,1,0,0:0:0:0:
408,116,156529,1,2,1:0:0:0:
