osu file format v14

[General]
AudioFilename: meme.mp3
AudioLeadIn: 0
PreviewTime: 16713
Countdown: 0
SampleSet: Soft
StackLeniency: 0.7
Mode: 0
LetterboxInBreaks: 0
WidescreenStoryboard: 1

[Editor]
Bookmarks: 52950,75213
DistanceSpacing: 1.2
BeatDivisor: 4
GridSize: 4
TimelineZoom: 2.2

[Metadata]
Title:SANTA SAN
TitleUnicode:サンタさん
Artist:MOMOIRO CLOVER Z
ArtistUnicode:ももいろクローバーZ
Creator:Sotarks
Version:Kin's Hard
Source:
Tags:メリー クリスマス ココナッツ merry christmas coconuts momoclo takagi reni momota kanako ariyasu momoka tamai shiori sasaki ayaka akitoshi corinn doormat irohas mugiwarasekai kalibe kin linada milan- toybot haruto haruto_aizawa
BeatmapID:1481003
BeatmapSetID:695316

[Difficulty]
HPDrainRate:5
CircleSize:3.4
OverallDifficulty:6.2
ApproachRate:7.8
SliderMultiplier:1.36
SliderTickRate:1

[Events]
//Background and Video events
0,0,"meme.jpg",0,0
//Break Periods
2,38623,45223
2,79044,88171
//Storyboard Layer 0 (Background)
//Storyboard Layer 1 (Fail)
//Storyboard Layer 2 (Pass)
//Storyboard Layer 3 (Foreground)
//Storyboard Sound Samples

[TimingPoints]
529,315.789473684211,4,2,22,72,1,0
17897,-100,4,2,22,72,0,0
28318,-100,4,2,22,62,0,0
38423,-100,4,2,22,52,0,0
48213,-100,4,2,22,72,0,0
68739,-100,4,2,22,62,0,0
77581,-100,4,2,22,72,0,0
78844,-100,4,2,22,42,0,0
89897,-100,4,2,22,72,0,0
90213,-100,4,2,22,82,0,0
99686,-100,4,2,22,92,0,0
100318,-100,4,2,22,82,0,0
114213,-100,4,2,22,52,0,0
114529,-100,4,2,22,62,0,0
114844,-100,4,2,22,72,0,0
115160,-100,4,2,22,82,0,0
120529,-100,4,2,22,42,0,0
120844,-100,4,2,22,72,0,0
121160,-100,4,2,22,42,0,0
121476,-100,4,2,22,72,0,0
121792,-100,4,2,22,42,0,0
122107,-100,4,2,22,72,0,0
122423,-100,4,2,22,42,0,0
122739,-100,4,2,22,72,0,0
123055,-100,4,2,22,42,0,0
123371,-100,4,2,22,72,0,0
123686,-100,4,2,22,42,0,0
124002,-100,4,2,22,72,0,0
125581,-100,4,2,22,82,0,0
152107,-100,4,2,22,42,0,0
154634,-100,4,2,22,72,0,0

[Colours]
Combo1 : 210,188,187
Combo2 : 244,162,162
Combo3 : 189,207,253
Combo4 : 165,245,158
SliderBorder : 255,168,168
SliderTrackOverride : 20,0,0

[HitObjects]
256,56,17897,5,8,0:0:0:0:
276,76,18213,6,0,P|284:128|276:160,1,68,6|0,1:0|0:0,0:0:0:0:
364,136,18529,2,0,P|349:186|328:212,1,68,10|0,0:0|0:0,0:0:0:0:
370,274,18844,2,0,P|416:224|440:148,1,136,2|8,1:0|0:0,0:0:0:0:
340,28,19476,6,0,P|287:25|257:11,1,68,2|0,1:0|0:0,0:0:0:0:
264,101,19792,2,0,P|217:76|196:51,1,68,10|0,0:0|0:0,0:0:0:0:
128,80,20107,2,0,P|168:134|238:172,1,136,2|8,1:0|0:0,0:0:0:0:
308,172,20581,1,8,0:0:0:0:
388,96,20739,6,0,L|464:104,1,68,2|0,1:0|0:0,0:0:0:0:
492,176,21055,2,0,L|416:184,1,68,10|0,0:0|0:0,0:0:0:0:
388,256,21371,2,0,L|464:264,1,68,2|0,1:0|0:0,0:0:0:0:
492,336,21686,2,0,L|416:344,1,68,10|0,0:0|0:0,0:0:0:0:
320,304,22002,6,0,L|184:318,2,136,14|10|14,0:0|0:0|0:0,0:0:0:0:
388,256,22792,1,0,1:0:0:0:
428,356,22950,1,14,0:0:0:0:
436,376,23265,6,0,P|424:332|428:288,1,68,2|0,1:0|0:0,0:0:0:0:
344,320,23581,2,0,P|351:275|373:236,1,68,10|0,0:0|0:0,0:0:0:0:
284,230,23897,2,0,P|309:192|346:167,1,68,2|0,1:0|0:0,0:0:0:0:
267,123,24213,2,0,P|306:100|349:92,1,68,10|0,0:0|0:0,0:0:0:0:
296,18,24529,6,0,P|341:13|384:25,1,68,2|0,1:0|0:0,0:0:0:0:
216,52,24844,2,0,P|170:56|127:44,1,68,10|0,0:0|0:0,0:0:0:0:
144,133,25160,2,0,P|101:117|67:89,1,68,2|0,1:0|0:0,0:0:0:0:
45,177,25476,2,0,P|12:144|-5:104,1,68,10|0,0:0|0:0,0:0:0:0:
123,218,25792,6,0,P|155:250|173:290,1,68,2|0,1:0|0:0,0:0:0:0:
232,222,26107,2,0,P|247:264|247:308,1,68,10|0,0:0|0:0,0:0:0:0:
178,152,26423,2,0,P|162:109|163:65,1,68,2|0,1:0|0:0,0:0:0:0:
260,140,26739,2,0,P|300:144|344:140,1,68,10|0,0:0|0:0,0:0:0:0:
404,116,27055,5,14,0:0:0:0:
428,148,27371,1,10,0:0:0:0:
452,180,27686,1,14,0:0:0:0:
500,244,28002,5,8,0:0:0:0:
356,324,28318,6,0,B|328:336|284:332|292:316|252:312|220:324,1,136,6|8,1:0|0:0,0:0:0:0:
148,356,28792,2,0,P|92:368|32:308,1,136,2|2,1:0|1:0,0:0:0:0:
36,240,29265,1,8,0:0:0:0:
128,104,29581,6,0,L|276:112,1,136,0|10,1:0|0:0,0:0:0:0:
312,44,30055,2,0,P|348:100|320:172,1,136,2|0,1:0|1:0,0:0:0:0:
252,192,30529,1,10,0:0:0:0:
124,92,30844,6,0,L|132:236,1,136,2|10,1:0|0:0,0:0:0:0:
140,308,31318,2,0,P|184:316|224:308,2,68,0|2|0,1:0|0:0|1:0,0:0:0:0:
64,276,31792,1,10,0:0:0:0:
196,180,32107,6,0,L|344:192,1,136,0|10,1:0|0:0,0:0:0:0:
380,124,32581,1,0,1:0:0:0:
412,200,32739,2,0,L|406:267,1,68,2|0,0:0|1:0,0:0:0:0:
336,312,33055,2,0,L|341:379,1,68,8|0,0:0|1:0,0:0:0:0:
268,268,33371,6,0,B|240:256|196:260|204:276|164:280|132:268,1,136,2|8,1:0|0:0,0:0:0:0:
164,192,33844,2,0,P|104:192|56:248,1,136,0|0,1:0|1:0,0:0:0:0:
76,328,34318,2,0,P|100:344|144:352,1,68,8|0,0:0|1:0,0:0:0:0:
212,320,34634,6,0,L|356:332,1,136,0|8,1:0|0:0,0:0:0:0:
420,292,35107,2,0,P|440:252|432:164,1,136,0|0,1:0|1:0,0:0:0:0:
368,112,35581,2,0,L|296:116,1,68,8|0,0:0|1:0,0:0:0:0:
236,168,35897,6,0,L|97:160,1,136,0|8,1:0|0:0,0:0:0:0:
236,252,36529,2,0,L|374:244,1,136,0|8,1:0|0:0,0:0:0:0:
436,192,37002,1,0,0:0:0:0:
436,192,37160,6,0,P|448:156|440:108,1,68,8|0,0:0|1:0,0:0:0:0:
348,36,37476,2,0,P|360:72|352:120,1,68,8|0,0:0|1:0,0:0:0:0:
260,192,37792,2,0,P|272:156|264:108,1,68,8|0,0:0|1:0,0:0:0:0:
172,36,38107,1,12,0:0:0:0:
172,36,38265,1,0,1:0:0:0:
172,36,38423,5,2,1:0:0:0:
172,168,46002,5,2,1:0:0:0:
192,188,46634,1,2,1:0:0:0:
212,208,47265,2,0,L|332:204,1,102,2|2,1:0|0:0,0:0:0:0:
328,180,47581,2,0,L|407:182,1,68,2|0,1:0|0:0,0:0:0:0:
468,224,47897,1,2,1:0:0:0:
492,248,48213,5,8,0:0:0:0:
332,272,48529,6,0,L|260:268,1,68,6|0,1:0|0:0,0:0:0:0:
248,348,48844,2,0,L|184:313,1,68,10|0,0:0|1:0,0:0:0:0:
139,381,49160,2,0,L|54:268,1,136,2|8,0:0|0:0,0:0:0:0:
212,212,49792,6,0,L|277:192,1,68,2|0,1:0|0:0,0:0:0:0:
262,110,50107,2,0,L|329:119,1,68,10|0,0:0|1:0,0:0:0:0:
353,42,50423,2,0,L|466:116,1,136,2|8,0:0|0:0,0:0:0:0:
336,216,51055,2,0,P|316:256|316:300,1,68,2|0,1:0|0:0,0:0:0:0:
388,308,51371,2,0,P|404:278|410:245,1,68,10|0,0:0|1:0,0:0:0:0:
404,164,51686,2,0,P|380:144|328:132,1,68,2|0,0:0|1:0,0:0:0:0:
268,164,52002,2,0,P|235:153|209:132,1,68,10|0,0:0|0:0,0:0:0:0:
172,60,52318,6,0,P|172:144|152:204,1,136,2|10,1:0|0:0,0:0:0:0:
28,296,52950,2,0,P|28:212|48:152,1,136,2|10,0:0|0:0,0:0:0:0:
204,136,53581,5,2,1:0:0:0:
172,60,53739,2,0,B|201:48|241:52|233:68|277:72|305:60,2,136,2|2|2,0:0|1:0|1:0,0:0:0:0:
204,136,54529,2,0,P|216:168|216:216,1,68,10|0,0:0|0:0,0:0:0:0:
164,260,54844,6,0,P|236:280|288:240,1,136,2|8,1:0|0:0,0:0:0:0:
296,168,55318,2,0,L|448:176,1,136,2|0,1:0|1:0,0:0:0:0:
492,116,55792,1,10,0:0:0:0:
364,216,56107,6,0,P|344:288|372:352,2,136,2|10|10,1:0|0:0|0:0,0:0:0:0:
492,116,57055,2,0,L|488:44,1,68,10|0,0:0|1:0,0:0:0:0:
412,76,57371,6,0,B|384:88|340:84|348:68|308:64|276:76,1,136,6|10,3:0|3:0,0:0:0:0:
204,112,57844,1,0,0:0:0:0:
204,112,58002,2,0,L|208:192,1,68,6|10,3:0|0:0,0:0:0:0:
164,248,58318,1,10,0:0:0:0:
308,328,58634,6,0,B|344:332|344:332|380:320,1,68,6|0,1:0|0:0,0:0:0:0:
336,252,58950,2,0,B|370:240|370:240|397:214,1,68,8|0,0:0|1:0,0:0:0:0:
329,171,59265,2,0,B|376:125|376:125|402:61,1,136,2|8,0:0|0:0,0:0:0:0:
244,24,59897,6,0,B|208:20|208:20|172:32,1,68,2|0,1:0|0:0,0:0:0:0:
216,100,60213,2,0,B|181:111|181:111|154:137,1,68,8|0,0:0|1:0,0:0:0:0:
223,181,60529,2,0,B|175:226|175:226|149:290,1,136,2|8,0:0|0:0,0:0:0:0:
300,356,61160,2,0,P|336:360|372:352,1,68,2|0,1:0|0:0,0:0:0:0:
412,284,61476,2,0,L|404:208,1,68,10|0,0:0|1:0,0:0:0:0:
324,208,61792,2,0,L|316:284,1,68,2|0,0:0|1:0,0:0:0:0:
300,356,62107,2,0,P|280:360|212:348,1,68,10|0,0:0|0:0,0:0:0:0:
168,308,62423,6,0,P|188:260|172:160,1,136,2|10,1:0|0:0,0:0:0:0:
80,48,63055,2,0,P|120:56|224:48,1,136,2|10,0:0|0:0,0:0:0:0:
372,12,63686,5,2,1:0:0:0:
408,84,63844,2,0,L|388:240,2,136,2|2|2,0:0|1:0|1:0,0:0:0:0:
328,76,64634,2,0,P|280:84|248:76,1,68,10|0,0:0|0:0,0:0:0:0:
192,36,64950,5,2,1:0:0:0:
192,116,65107,2,0,B|200:184|152:180|160:248,2,136,2|2|0,0:0|1:0|1:0,0:0:0:0:
112,128,65897,2,0,P|76:128|44:112,1,68,10|0,0:0|0:0,0:0:0:0:
96,48,66213,2,0,B|160:28|160:28|232:40,1,136,2|10,1:0|0:0,0:0:0:0:
296,84,66686,1,0,0:0:0:0:
300,88,66844,2,0,L|288:168,1,68,10|0,0:0|1:0,0:0:0:0:
340,220,67160,2,0,P|384:232|428:224,1,68,10|0,0:0|1:0,0:0:0:0:
504,152,67476,6,0,L|496:80,1,68,6|0,1:0|0:0,0:0:0:0:
400,8,67792,2,0,L|392:80,1,68,6|0,1:0|0:0,0:0:0:0:
296,152,68107,2,0,P|288:104|212:40,1,136,6|8,1:0|0:0,0:0:0:0:
148,60,68581,1,0,0:0:0:0:
148,60,68739,6,0,P|92:64|56:52,2,68,2|0|10,1:0|0:0|0:0,0:0:0:0:
204,120,69213,1,10,0:0:0:0:
208,124,69371,2,0,L|196:268,1,136,2|10,1:0|0:0,0:0:0:0:
124,300,69844,6,0,L|268:312,1,136,2|2,0:0|1:0,0:0:0:0:
332,272,70318,2,0,L|404:266,1,68,10|0,0:0|1:0,0:0:0:0:
460,320,70634,2,0,P|480:280|444:200,1,136,2|10,1:0|0:0,0:0:0:0:
284,204,71265,6,0,L|140:216,1,136,2|10,1:0|0:0,0:0:0:0:
76,252,71739,2,0,P|68:212|80:176,2,68,10|2|0,0:0|1:0|0:0,0:0:0:0:
144,296,72213,1,10,0:0:0:0:
148,300,72371,6,0,L|283:288,1,136,2|0,0:0|1:0,0:0:0:0:
352,336,72844,2,0,P|364:304|356:256,1,68,10|0,0:0|1:0,0:0:0:0:
304,212,73160,2,0,P|292:180|300:132,1,68,2|10,1:0|0:0,0:0:0:0:
344,44,73476,1,10,0:0:0:0:
372,36,73792,6,0,P|320:48|224:32,1,136,2|10,1:0|0:0,0:0:0:0:
168,80,74265,1,10,0:0:0:0:
168,80,74423,2,0,P|136:128|152:216,1,136,2|8,1:0|0:0,0:0:0:0:
236,264,74897,2,0,L|320:256,1,68,2|0,0:0|1:0,0:0:0:0:
384,280,75213,2,0,P|412:220|396:148,1,136,2|2,1:0|1:0,0:0:0:0:
324,120,75686,2,0,P|320:80|396:72,1,136,2|10,1:0|0:0,0:0:0:0:
292,196,76318,6,0,L|208:184,2,68,2|2|10,1:0|0:0|0:0,0:0:0:0:
324,120,76792,1,10,0:0:0:0:
372,188,76950,2,0,P|368:228|340:260,1,68,2|0,1:0|0:0,0:0:0:0:
284,292,77265,2,0,P|244:298|206:279,1,68,10|0,0:0|0:0,0:0:0:0:
144,208,77581,2,0,L|68:216,2,68,10|2|10,1:2|1:0|1:2,0:0:0:0:
196,144,78055,1,0,0:0:0:0:
308,196,78213,2,0,B|352:204|352:204|376:188|376:188|412:200|456:192,1,136,2|8,1:0|0:0,0:0:0:0:
500,140,78686,1,0,0:0:0:0:
500,140,78844,5,2,0:0:0:0:
264,124,88950,6,0,B|240:116|216:116|192:116|200:132|176:132|152:132|128:124,2,136,2|2|2,1:0|1:0|1:0,0:0:0:0:
364,252,89897,6,0,P|412:268|464:248,1,102,12|0,0:0|0:0,0:0:0:0:
476,232,90213,2,0,L|468:148,1,68,6|0,1:0|0:0,0:0:0:0:
412,72,90529,1,10,0:0:0:0:
336,104,90686,2,0,P|304:108|260:100,1,68,2|0,0:0|1:0,0:0:0:0:
188,84,91002,2,0,P|156:80|112:88,1,68,2|8,0:0|0:0,0:0:0:0:
48,44,91318,6,0,P|84:80|88:172,1,136,2|2,0:0|0:0,0:0:0:0:
32,216,91792,1,10,0:0:0:0:
32,216,91950,1,2,0:0:0:0:
32,216,92107,2,0,L|16:292,1,68,2|0,1:0|0:0,0:0:0:0:
48,360,92423,1,10,0:0:0:0:
196,292,92739,6,0,L|292:296,1,68,2|0,1:0|0:0,0:0:0:0:
364,248,93055,1,10,0:0:0:0:
436,284,93213,2,0,P|444:232|424:196,1,68,2|0,0:0|1:0,0:0:0:0:
376,164,93529,2,0,P|368:112|388:76,1,68,2|8,0:0|0:0,0:0:0:0:
440,56,93844,6,0,P|380:68|296:48,1,136,2|2,0:0|0:0,0:0:0:0:
240,8,94318,1,10,0:0:0:0:
236,12,94476,1,2,0:0:0:0:
233,15,94634,2,0,L|152:20,1,68,2|0,1:0|0:0,0:0:0:0:
112,84,94950,2,0,L|31:79,1,68,10|0,0:0|0:0,0:0:0:0:
180,140,95265,6,0,P|200:204|168:284,1,136,2|10,1:0|0:0,0:0:0:0:
108,308,95739,2,0,L|40:304,1,68,2|0,0:0|1:0,0:0:0:0:
12,228,96055,2,0,L|80:224,1,68,2|8,0:0|0:0,0:0:0:0:
180,268,96371,6,0,P|199:203|180:140,1,136,6|0,0:0|0:0,0:0:0:0:
132,72,96844,2,0,P|172:60|220:72,1,68,10|0,0:0|0:0,0:0:0:0:
264,16,97160,2,0,P|279:54|271:103,1,68,2|0,1:0|0:0,0:0:0:0:
331,142,97476,2,0,P|293:160|244:157,1,68,10|0,0:0|0:0,0:0:0:0:
180,268,97792,6,0,P|199:203|180:140,1,136,2|10,1:0|0:0,0:0:0:0:
112,92,98265,2,0,L|44:96,1,68,2|0,0:0|1:0,0:0:0:0:
8,172,98581,2,0,L|76:176,1,68,2|8,0:0|0:0,0:0:0:0:
179,139,98897,6,0,L|330:130,1,136,2|2,0:0|1:0,0:0:0:0:
376,76,99371,2,0,P|392:104|392:160,1,68,10|2,0:0|1:0,0:0:0:0:
348,204,99686,1,10,1:2:0:0:
296,268,99844,1,2,1:0:0:0:
248,332,100002,2,0,P|208:340|176:336,1,68,10|2,0:0|1:0,0:0:0:0:
84,260,100318,6,0,P|108:220|104:124,1,136,6|10,1:0|0:0,0:0:0:0:
72,60,100792,2,0,L|148:52,1,68,2|0,0:0|1:0,0:0:0:0:
188,120,101107,2,0,L|264:128,1,68,2|8,0:0|0:0,0:0:0:0:
352,56,101423,2,0,P|376:120|356:192,1,136,2|2,0:0|0:0,0:0:0:0:
280,204,101897,1,8,0:0:0:0:
204,172,102055,2,0,L|40:184,1,136,2|2,0:0|0:0,0:0:0:0:
0,136,102529,1,10,0:0:0:0:
140,52,102844,6,0,L|207:47,1,68,2|0,1:0|0:0,0:0:0:0:
316,40,103160,1,10,0:0:0:0:
264,104,103318,2,0,P|256:156|272:196,1,68,2|0,0:0|1:0,0:0:0:0:
320,224,103634,2,0,P|328:276|312:316,1,68,2|8,0:0|0:0,0:0:0:0:
224,360,103950,6,0,P|172:368|88:360,1,136,6|2,0:0|0:0,0:0:0:0:
32,304,104423,1,8,0:0:0:0:
32,304,104581,2,0,L|36:232,1,68,2|2,0:0|1:0,0:0:0:0:
88,172,104897,1,2,0:0:0:0:
48,100,105055,2,0,L|52:28,1,68,10|2,3:2|3:0,0:0:0:0:
92,176,105371,6,0,P|136:188|232:172,1,136,6|10,1:0|0:0,0:0:0:0:
288,124,105844,2,0,L|368:132,1,68,2|0,0:0|1:0,0:0:0:0:
396,204,106160,2,0,L|316:212,1,68,2|8,0:0|0:0,0:0:0:0:
224,175,106476,6,0,P|157:161|91:174,2,136,2|2|2,0:0|0:0|0:0,0:0:0:0:
260,248,107265,2,0,L|252:328,1,68,2|0,1:0|0:0,0:0:0:0:
308,376,107581,1,10,0:0:0:0:
452,296,107897,5,2,1:0:0:0:
452,296,108055,1,2,1:0:0:0:
452,296,108213,2,0,L|448:220,1,68,10|2,0:0|0:0,0:0:0:0:
400,160,108529,2,0,P|364:164|320:160,1,68,2|2,1:0|1:0,0:0:0:0:
256,132,108844,2,0,P|222:128|188:129,1,68,10|0,0:0|0:0,0:0:0:0:
112,208,109160,5,2,1:0:0:0:
112,208,109318,1,10,0:0:0:0:
112,208,109476,2,0,L|116:284,1,68,2|10,1:0|0:0,0:0:0:0:
172,336,109792,1,2,1:0:0:0:
252,320,109950,1,10,0:0:0:0:
332,336,110107,1,10,0:0:0:0:
412,320,110265,1,8,0:0:0:0:
412,320,114213,6,0,L|484:328,2,68,2|0|2,1:0|1:0|1:0,0:0:0:0:
332,336,114686,1,0,1:0:0:0:
252,320,114844,2,0,P|244:268|248:224,1,68,2|0,1:0|1:0,0:0:0:0:
272,176,115160,1,14,0:0:0:0:
272,176,115318,1,14,0:0:0:0:
384,224,115476,6,0,P|424:232|488:168,1,136,2|10,1:0|0:0,0:0:0:0:
464,92,115950,2,0,L|392:80,1,68,2|0,0:0|1:0,0:0:0:0:
324,120,116265,2,0,L|252:132,1,68,2|8,0:0|0:0,0:0:0:0:
160,76,116581,6,0,P|144:120|172:208,1,136,6|0,0:0|0:0,0:0:0:0:
232,252,117055,2,0,L|320:244,1,68,10|0,0:0|0:0,0:0:0:0:
336,320,117371,2,0,L|424:312,1,68,2|0,1:0|0:0,0:0:0:0:
440,240,117686,2,0,L|507:233,1,68,10|0,0:0|0:0,0:0:0:0:
388,176,118002,2,0,P|360:136|392:56,1,136,2|10,1:0|0:0,0:0:0:0:
456,12,118476,2,0,P|388:20|316:12,1,136,2|2,0:0|0:0,0:0:0:0:
256,64,118950,1,8,0:0:0:0:
256,64,119107,6,0,B|244:136|272:120|256:200,1,136,2|0,0:0|1:0,0:0:0:0:
208,264,119581,2,0,L|136:260,2,68,10|0|10,0:0|1:0|0:0,0:0:0:0:
276,308,120055,2,0,L|348:304,1,68,0|10,1:0|0:0,0:0:0:0:
436,364,120371,2,0,P|452:312|412:224,1,136,8|0,0:0|0:0,0:0:0:0:
324,168,120844,6,0,B|260:152|252:184|184:164|184:164|212:144|248:156,1,204,12|0,0:0|0:0,0:0:0:0:
296,252,121476,2,0,P|368:248|404:128,1,204,12|0,0:0|0:0,0:0:0:0:
328,64,122107,2,0,L|116:72,1,204,12|0,0:0|0:0,0:0:0:0:
48,152,122739,2,0,L|251:159,1,204,12|0,0:0|0:0,0:0:0:0:
332,232,123371,2,0,P|400:200|336:112,1,204,12|0,0:0|0:0,0:0:0:0:
251,159,124002,2,0,P|228:204|228:244,1,68,12|0,0:0|0:0,0:0:0:0:
256,296,124318,6,0,L|344:312,1,68,0|0,1:0|1:0,0:0:0:0:
400,280,124634,1,8,0:0:0:0:
400,280,124792,1,0,1:0:0:0:
400,280,124950,2,0,P|408:244|400:196,1,68,8|8,0:0|0:0,0:0:0:0:
368,140,125265,1,8,0:0:0:0:
328,68,125423,1,8,0:0:0:0:
256,152,125581,6,0,P|212:160|120:148,1,136,2|10,1:0|0:0,0:0:0:0:
52,104,126055,2,0,P|40:140|48:184,1,68,2|0,0:0|1:0,0:0:0:0:
64,248,126371,2,0,L|140:240,1,68,2|8,0:0|0:0,0:0:0:0:
208,276,126686,2,0,L|284:268,1,68,2|0,0:0|1:0,0:0:0:0:
352,304,127002,6,0,L|428:296,1,68,2|8,0:0|0:0,0:0:0:0:
496,332,127318,1,2,0:0:0:0:
468,228,127476,2,0,P|460:192|464:160,1,68,2|0,1:0|0:0,0:0:0:0:
484,80,127792,1,10,0:0:0:0:
336,16,128107,6,0,L|264:20,2,68,2|2|10,1:0|1:0|0:0,0:0:0:0:
416,76,128581,2,0,L|488:80,2,68,2|2|2,0:0|1:0|1:0,0:0:0:0:
320,132,129055,2,0,L|248:136,2,68,10|2|2,0:0|0:0|1:0,0:0:0:0:
424,200,129529,2,0,L|496:204,2,68,10|10|0,0:0|0:0|0:0,0:0:0:0:
320,264,130002,2,0,L|248:268,2,68,2|10|2,1:0|0:0|1:0,0:0:0:0:
424,332,130476,2,0,L|496:336,1,68,10|0,0:0|0:0,0:0:0:0:
491,335,131581,6,0,L|424:332,1,68,10|2,0:0|0:0,0:0:0:0:
320,264,131897,2,0,L|248:268,1,68,6|2,1:0|0:0,0:0:0:0:
187,215,132213,2,0,P|175:167|183:127,1,68,10|2,0:0|0:0,0:0:0:0:
240,60,132529,1,2,1:0:0:0:
160,68,132686,2,0,L|68:60,1,68,2|8,0:0|0:0,0:0:0:0:
109,144,133002,6,0,L|176:149,1,68,2|0,0:0|1:0,0:0:0:0:
248,192,133318,2,0,L|315:186,1,68,2|8,0:0|0:0,0:0:0:0:
384,100,133634,2,0,P|420:152|416:228,1,136,2|2,0:0|0:0,0:0:0:0:
348,260,134107,1,10,0:0:0:0:
276,224,134265,1,2,0:0:0:0:
164,280,134423,2,0,B|144:248|156:216|156:216|148:184|148:184|156:168|156:144,2,136,4|10|2,1:0|0:0|1:0,0:0:0:0:
220,340,135213,2,0,L|292:336,1,68,2|8,0:0|0:0,0:0:0:0:
392,368,135529,6,0,P|416:328|416:232,1,136,2|0,0:0|0:0,0:0:0:0:
364,180,136002,1,8,0:0:0:0:
256,300,136318,1,2,1:0:0:0:
200,240,136476,2,0,L|208:144,1,68,2|8,0:0|0:0,0:0:0:0:
216,92,136792,1,2,0:0:0:0:
328,144,136950,6,0,B|396:152|396:152|424:128,1,102,2|0,1:0|0:0,0:0:0:0:
460,144,137265,2,0,L|388:204,1,68,10|2,0:0|0:0,0:0:0:0:
416,268,137581,2,0,P|452:276|496:268,2,68,2|2|10,1:0|0:0|0:0,0:0:0:0:
304,212,138055,6,0,L|140:224,1,136,6|2,0:0|0:0,0:0:0:0:
100,180,138529,2,0,P|88:212|100:264,2,68,10|2|2,0:0|0:0|1:0,0:0:0:0:
172,140,139002,1,2,0:0:0:0:
172,140,139160,2,0,L|239:135,1,68,10|2,0:0|0:0,0:0:0:0:
336,56,139476,6,0,P|360:96|356:192,1,136,6|10,1:0|0:0,0:0:0:0:
304,244,139950,2,0,L|152:232,1,136,2|2,0:0|0:0,0:0:0:0:
120,300,140423,1,8,0:0:0:0:
120,300,140581,6,0,L|130:164,1,136,2|2,0:0|1:0,0:0:0:0:
176,96,141055,2,0,P|209:100|243:95,1,68,10|2,0:0|0:0,0:0:0:0:
316,60,141371,2,0,P|349:55|383:60,1,68,2|2,1:0|1:0,0:0:0:0:
456,96,141686,1,10,0:0:0:0:
352,224,142002,1,6,1:0:0:0:
352,224,142160,1,2,0:0:0:0:
352,224,142318,2,0,L|360:304,1,68,10|0,0:0|0:0,0:0:0:0:
256,356,142634,1,2,1:0:0:0:
256,356,142792,1,2,0:0:0:0:
256,356,142950,2,0,L|264:276,1,68,10|0,0:0|0:0,0:0:0:0:
188,192,143265,6,0,P|136:196|108:192,2,68,2|2|10,1:0|0:0|0:0,0:0:0:0:
256,148,143739,1,2,0:0:0:0:
324,192,143897,2,0,P|332:112|272:68,1,136,2|8,1:0|0:0,0:0:0:0:
188,192,144529,6,0,L|180:260,1,68,2|0,1:0|0:0,0:0:0:0:
232,324,144844,2,0,B|268:328|268:328|300:324|300:324|336:328|336:328|368:324,2,136,10|0|10,0:0|1:0|0:0,0:0:0:0:
112,348,145634,1,0,0:0:0:0:
112,348,145792,6,0,B|84:272|128:284|100:188,1,136,2|8,1:0|0:0,0:0:0:0:
48,156,146265,1,0,0:0:0:0:
48,156,146423,2,0,B|80:140|80:140|120:136,1,68,2|0,1:0|0:0,0:0:0:0:
120,56,146739,2,0,B|153:67|153:67|185:92,1,68,10|0,0:0|0:0,0:0:0:0:
216,192,147055,6,0,P|260:204|352:192,2,136,2|8|0,1:0|0:0|1:0,0:0:0:0:
160,132,147844,1,0,0:0:0:0:
160,132,148002,2,0,L|72:140,1,68,10|2,0:0|0:0,0:0:0:0:
204,56,148318,2,0,L|292:64,2,68,2|2|10,1:0|0:0|0:0,0:0:0:0:
128,24,148792,1,2,0:0:0:0:
128,24,148950,2,0,P|80:92|96:144,1,136,0|8,1:0|0:0,0:0:0:0:
184,272,149581,6,0,L|252:268,1,68,2|2,1:0|1:0,0:0:0:0:
320,316,149897,2,0,L|388:312,1,68,10|2,0:0|0:0,0:0:0:0:
484,364,150213,2,0,L|488:296,1,68,2|2,1:0|1:0,0:0:0:0:
440,228,150529,2,0,L|444:160,1,68,10|0,0:0|0:0,0:0:0:0:
392,64,150844,6,0,P|424:68|472:64,2,68,2|10|10,1:0|0:0|0:0,0:0:0:0:
324,20,151318,1,2,0:0:0:0:
256,120,151476,2,0,B|240:152|240:152|264:172|264:172|224:212|228:264|260:296,1,204,2|8,1:0|0:0,0:0:0:0:
316,236,152107,1,2,0:0:0:0:
220,40,154634,6,0,L|292:48,1,68,10|0,1:2|0:0,0:0:0:0:
332,116,154950,2,0,L|260:124,1,68,10|0,1:2|0:0,0:0:0:0:
196,192,155265,2,0,L|268:200,1,68,10|0,1:2|0:0,0:0:0:0:
372,256,155581,2,0,L|300:264,1,68,10|0,1:2|0:0,0:0:0:0:
172,300,155897,6,0,B|240:304|240:304|256:328|283:343|321:338|321:338|382:332|382:332|397:349|428:352,1,272,14|2,0:0|1:0,0:0:0:0:
