osu file format v14

[General]
AudioFilename: meme.mp3
AudioLeadIn: 0
PreviewTime: 16713
Countdown: 0
SampleSet: Soft
StackLeniency: 0.7
Mode: 0
LetterboxInBreaks: 0
WidescreenStoryboard: 0

[Editor]
Bookmarks: 75213
DistanceSpacing: 1.4
BeatDivisor: 4
GridSize: 8
TimelineZoom: 2.2

[Metadata]
Title:SANTA SAN
TitleUnicode:サンタさん
Artist:MOMOIRO CLOVER Z
ArtistUnicode:ももいろクローバーZ
Creator:Sotarks
Version:Insane
Source:
Tags:メリー クリスマス ココナッツ merry christmas coconuts momoclo takagi reni momota kanako ariyasu momoka tamai shiori sasaki ayaka akitoshi corinn doormat irohas mugiwarasekai kalibe kin linada milan- toybot haruto haruto_aizawa
BeatmapID:1473302
BeatmapSetID:695316

[Difficulty]
HPDrainRate:5.2
CircleSize:3.7
OverallDifficulty:7.1
ApproachRate:9
SliderMultiplier:1.72
SliderTickRate:1

[Events]
//Background and Video events
0,0,"meme.jpg",0,0
//Break Periods
2,78729,88321
//Storyboard Layer 0 (Background)
//Storyboard Layer 1 (Fail)
//Storyboard Layer 2 (Pass)
//Storyboard Layer 3 (Foreground)
//Storyboard Sound Samples

[TimingPoints]
529,315.789473684211,4,2,22,72,1,0
17897,-61.7283950617284,4,2,22,72,0,0
18213,-89.2857142857143,4,2,22,72,0,0
28002,-61.7283950617284,4,2,22,72,0,0
28318,-108.695652173913,4,2,22,62,0,0
38423,-138.888888888889,4,2,22,52,0,0
48213,-61.7283950617284,4,2,22,72,0,0
48529,-98.0392156862745,4,2,22,72,0,0
68739,-108.695652173913,4,2,22,62,0,0
77581,-108.695652173913,4,2,22,72,0,0
78844,-192.307692307692,4,2,22,42,0,0
88950,-98.0392156862744,4,2,22,42,0,0
89897,-61.7283950617284,4,2,22,72,0,0
90213,-81.9672131147541,4,2,22,82,0,0
99686,-81.9672131147541,4,2,22,92,0,0
100318,-81.9672131147541,4,2,22,82,0,0
114213,-81.9672131147541,4,2,22,52,0,0
114529,-81.9672131147541,4,2,22,62,0,0
114844,-81.9672131147541,4,2,22,72,0,0
115160,-81.9672131147541,4,2,22,82,0,0
120529,-161.290322580645,4,2,22,42,0,0
120844,-70.4225352112676,4,2,22,72,0,0
121160,-161.290322580645,4,2,22,42,0,0
121476,-70.4225352112676,4,2,22,72,0,0
121792,-161.290322580645,4,2,22,42,0,0
122107,-70.4225352112676,4,2,22,72,0,0
122423,-161.290322580645,4,2,22,42,0,0
122739,-70.4225352112676,4,2,22,72,0,0
123055,-161.290322580645,4,2,22,42,0,0
123371,-70.4225352112676,4,2,22,72,0,0
123686,-161.290322580645,4,2,22,42,0,0
124002,-70.4225352112676,4,2,22,72,0,0
125581,-81.9672131147541,4,2,22,82,0,0
152107,-161.290322580645,4,2,22,42,0,0
154634,-75.7575757575758,4,2,22,72,0,0
155897,-98.0392156862745,4,2,22,72,0,0

[Colours]
Combo1 : 210,188,187
Combo2 : 244,162,162
Combo3 : 189,207,253
Combo4 : 165,245,158
SliderBorder : 255,168,168
SliderTrackOverride : 20,0,0

[HitObjects]
104,144,17897,6,0,L|352:128,1,208.980005102051,8|0,0:0|0:0,0:0:0:0:
384,104,18213,6,0,P|368:168|392:224,1,96.3200011757813,6|0,1:0|0:0,0:0:0:0:
281,309,18529,2,0,P|287:261|271:216,1,96.3200011757813,10|0,0:0|0:0,0:0:0:0:
128,93,18844,2,0,P|177:173|204:278,1,192.640002351563,2|8,1:0|0:0,0:0:0:0:
182,353,19318,1,0,0:0:0:0:
274,149,19476,6,0,P|341:142|388:157,1,96.3200011757813,2|0,1:0|0:0,0:0:0:0:
202,267,19792,2,0,P|135:274|88:259,1,96.3200011757813,10|0,0:0|0:0,0:0:0:0:
367,228,20107,2,0,P|418:267|318:324,1,192.640002351563,2|8,1:0|0:0,0:0:0:0:
293,275,20581,1,8,0:0:0:0:
418,92,20739,6,0,P|451:159|459:199,1,96.3200011757813,2|0,1:0|0:0,0:0:0:0:
254,59,21055,2,0,P|310:107|333:141,1,96.3200011757813,10|0,0:0|0:0,0:0:0:0:
87,107,21371,2,0,P|161:108|200:119,1,96.3200011757813,2|0,1:0|0:0,0:0:0:0:
24,258,21686,2,0,P|77:205|113:185,1,96.3200011757813,10|0,0:0|0:0,0:0:0:0:
322,287,22002,6,0,P|236:285|186:178,2,192.640002351563,14|10|14,0:0|0:0|0:0,0:0:0:0:
416,143,22792,1,0,1:0:0:0:
439,322,22950,2,0,L|425:214,1,96.3200011757813,14|0,0:0|0:0,0:0:0:0:
355,75,23265,6,0,P|295:58|249:68,1,96.3200011757813,2|0,1:0|0:0,0:0:0:0:
52,58,23581,2,0,P|97:41|144:45,1,96.3200011757813,10|0,0:0|0:0,0:0:0:0:
296,145,23897,2,0,P|233:150|194:176,1,96.3200011757813,2|0,1:0|0:0,0:0:0:0:
7,237,24213,2,0,P|43:205|89:192,1,96.3200011757813,10|0,0:0|0:0,0:0:0:0:
272,235,24529,6,0,P|201:285|184:393,2,192.640002351563,2|10|2,1:0|0:0|1:0,0:0:0:0:
487,74,25476,2,0,P|454:130|409:147,1,96.3200011757813,10|0,0:0|0:0,0:0:0:0:
302,45,25792,2,0,L|415:65,1,96.3200011757813,2|0,1:0|0:0,0:0:0:0:
194,152,26107,2,0,L|304:120,1,96.3200011757813,10|0,0:0|0:0,0:0:0:0:
163,303,26423,2,0,L|241:219,1,96.3200011757813,2|0,1:0|0:0,0:0:0:0:
230,367,26739,1,10,0:0:0:0:
230,367,27055,6,0,P|180:307|81:315,1,144.480001763672,14|0,0:0|0:0,0:0:0:0:
91,318,27371,2,0,L|75:148,1,144.480001763672,10|0,0:0|0:0,0:0:0:0:
74,141,27686,1,14,0:0:0:0:
74,141,28002,6,0,B|195:108|153:204|286:156,1,208.980005102051,8|0,0:0|0:0,0:0:0:0:
340,116,28318,6,0,P|290:162|289:273,1,158.239994687988,6|8,1:0|0:0,0:0:0:0:
448,185,28792,2,0,P|389:198|361:225,1,79.1199973439942,2|2,1:0|0:0,0:0:0:0:
206,224,29107,2,0,P|265:237|293:264,1,79.1199973439942,2|8,1:0|0:0,0:0:0:0:
434,309,29423,2,0,P|364:299|343:280,1,79.1199973439942,2|0,0:0|1:0,0:0:0:0:
407,226,29739,1,2,1:0:0:0:
278,247,29897,2,0,P|242:262|202:260,1,79.1199973439942,10|2,0:0|1:0,0:0:0:0:
115,231,30134,1,0,0:0:0:0:
106,223,30213,2,0,L|135:386,1,158.239994687988,2|10,0:0|0:0,0:0:0:0:
32,88,30844,6,0,B|75:94|75:94|103:120|103:120|156:129,1,118.679996015991,2|0,1:0|0:0,0:0:0:0:
155,122,31160,1,10,0:0:0:0:
235,70,31318,1,0,1:0:0:0:
337,152,31476,2,0,P|315:205|337:255,1,79.1199973439942,2|0,0:0|1:0,0:0:0:0:
398,208,31792,1,10,0:0:0:0:
240,244,31950,2,0,L|139:233,1,79.1199973439942,2|0,0:0|1:0,0:0:0:0:
216,158,32265,1,2,1:0:0:0:
264,327,32423,2,0,L|365:316,1,79.1199973439942,10|0,0:0|1:0,0:0:0:0:
430,348,32660,1,0,0:0:0:0:
438,355,32739,2,0,P|430:299|480:202,1,158.239994687988,2|8,0:0|0:0,0:0:0:0:
430,129,33213,1,0,1:0:0:0:
262,197,33371,6,0,P|205:194|143:91,1,158.239994687988,2|8,1:0|0:0,0:0:0:0:
28,47,33844,2,0,P|59:97|61:142,1,79.1199973439942,0|0,1:0|0:0,0:0:0:0:
48,264,34160,2,0,P|58:226|82:194,1,79.1199973439942,0|8,1:0|0:0,0:0:0:0:
180,317,34476,2,0,L|264:311,1,79.1199973439942,0|0,1:0|1:0,0:0:0:0:
413,294,34792,1,0,1:0:0:0:
413,294,34950,2,0,L|334:288,1,79.1199973439942,8|0,0:0|1:0,0:0:0:0:
213,237,35265,1,0,0:0:0:0:
213,237,35423,1,0,1:0:0:0:
213,237,35581,2,0,L|194:137,1,79.1199973439942,8|0,0:0|1:0,0:0:0:0:
347,39,35897,5,0,1:0:0:0:
293,218,36213,1,8,0:0:0:0:
212,40,36529,1,0,1:0:0:0:
154,227,36844,1,8,0:0:0:0:
105,150,37002,1,0,0:0:0:0:
93,285,37160,6,0,P|130:314|169:312,1,79.1199973439942,8|0,0:0|1:0,0:0:0:0:
344,272,37476,2,0,P|382:268|411:242,1,79.1199973439942,8|0,0:0|1:0,0:0:0:0:
438,76,37792,2,0,P|453:40|443:2,1,79.1199973439942,8|0,0:0|1:0,0:0:0:0:
225,44,38107,1,12,0:0:0:0:
252,130,38265,1,0,1:0:0:0:
201,199,38423,5,2,1:0:0:0:
374,287,39844,5,2,1:0:0:0:
84,257,40476,1,0,1:0:0:0:
84,257,40950,5,2,1:0:0:0:
240,44,42371,5,2,1:0:0:0:
237,303,42844,1,2,1:0:0:0:
453,92,43634,5,2,1:0:0:0:
158,177,44897,5,2,1:0:0:0:
389,272,45529,1,0,0:0:0:0:
389,272,46002,5,2,1:0:0:0:
235,60,46634,1,2,1:0:0:0:
121,305,47265,5,2,1:0:0:0:
121,305,47581,1,2,1:0:0:0:
121,305,47897,1,2,1:0:0:0:
121,305,48213,6,0,B|107:228|107:228|158:85,1,208.980005102051,8|0,0:0|0:0,0:0:0:0:
167,74,48529,2,0,P|215:95|269:97,1,87.7200005354004,6|0,1:0|0:0,0:0:0:0:
337,170,48844,2,0,P|380:164|419:145,1,87.7200005354004,10|0,0:0|1:0,0:0:0:0:
502,56,49160,2,0,P|496:151|533:255,1,175.440001070801,2|8,0:0|0:0,0:0:0:0:
325,316,49792,6,0,P|269:289|236:288,1,87.7200005354004,2|0,1:0|0:0,0:0:0:0:
198,169,50107,2,0,P|154:175|117:197,1,87.7200005354004,10|0,0:0|1:0,0:0:0:0:
22,301,50423,2,0,P|15:223|21:97,1,175.440001070801,2|8,0:0|0:0,0:0:0:0:
252,24,51055,6,0,P|278:81|306:118,1,87.7200005354004,2|0,1:0|0:0,0:0:0:0:
408,143,51371,2,0,P|391:183|367:220,1,87.7200005354004,10|0,0:0|1:0,0:0:0:0:
445,348,51686,2,0,P|387:325|352:325,1,87.7200005354004,2|0,0:0|1:0,0:0:0:0:
259,259,52002,2,0,P|215:263|176:282,1,87.7200005354004,10|0,0:0|0:0,0:0:0:0:
46,352,52318,2,0,P|91:277|88:187,2,175.440001070801,2|10|2,1:0|0:0|0:0,0:0:0:0:
152,364,53107,1,0,1:0:0:0:
182,266,53265,2,0,P|180:203|169:155,1,87.7200005354004,10|0,0:0|0:0,0:0:0:0:
63,36,53581,5,2,1:0:0:0:
63,36,53739,2,0,P|56:79|56:123,1,87.7200005354004,2|8,0:0|0:0,0:0:0:0:
205,54,54055,2,0,P|272:57|358:143,1,175.440001070801,2|2,1:0|1:0,0:0:0:0:
485,51,54529,2,0,P|506:108|508:149,1,87.7200005354004,10|0,0:0|0:0,0:0:0:0:
352,126,54844,2,0,P|285:129|199:215,1,175.440001070801,2|8,1:0|0:0,0:0:0:0:
99,100,55318,2,0,P|40:132|0:247,1,175.440001070801,2|0,1:0|1:0,0:0:0:0:
56,357,55792,1,10,0:0:0:0:
56,357,56107,6,0,L|150:345,1,87.7200005354004,2|0,1:0|0:0,0:0:0:0:
285,297,56423,2,0,L|372:308,1,87.7200005354004,10|0,0:0|0:0,0:0:0:0:
512,232,56739,2,0,L|418:220,1,87.7200005354004,10|0,0:0|1:0,0:0:0:0:
283,172,57055,2,0,L|195:183,1,87.7200005354004,10|0,0:0|1:0,0:0:0:0:
52,251,57371,1,6,3:0:0:0:
52,251,57686,1,10,3:0:0:0:
52,251,58002,1,6,3:0:0:0:
68,157,58160,2,0,L|56:61,2,87.7200005354004,10|10|10,0:0|0:0|0:0,0:0:0:0:
260,305,58634,6,0,P|328:307|362:297,1,87.7200005354004,6|0,1:0|0:0,0:0:0:0:
471,200,58950,2,0,P|403:202|369:192,1,87.7200005354004,8|0,0:0|1:0,0:0:0:0:
230,136,59265,2,0,P|331:123|377:61,1,175.440001070801,2|8,0:0|0:0,0:0:0:0:
32,128,59897,6,0,P|64:176|80:224,1,87.7200005354004,2|0,1:0|0:0,0:0:0:0:
224,224,60213,2,0,P|212:280|190:325,1,87.7200005354004,8|0,0:0|1:0,0:0:0:0:
144,112,60529,2,0,P|208:72|304:96,1,175.440001070801,2|8,0:0|0:0,0:0:0:0:
432,320,61160,6,0,P|384:296|368:256,1,87.7200005354004,2|0,1:0|0:0,0:0:0:0:
360,152,61476,2,0,P|382:115|422:99,1,87.7200005354004,10|0,0:0|1:0,0:0:0:0:
296,224,61792,2,0,L|208:208,1,87.7200005354004,2|0,0:0|1:0,0:0:0:0:
120,112,62107,2,0,L|33:127,1,87.7200005354004,10|0,0:0|0:0,0:0:0:0:
80,328,62423,2,0,P|56:272|136:200,2,175.440001070801,2|10|2,1:0|0:0|0:0,0:0:0:0:
162,375,63213,1,0,1:0:0:0:
221,296,63371,2,0,P|152:283|123:255,1,87.7200005354004,10|0,0:0|0:0,0:0:0:0:
266,113,63686,5,2,1:0:0:0:
266,113,63844,2,0,B|278:174|271:220,1,87.7200005354004,2|8,0:0|0:0,0:0:0:0:
353,303,64160,2,0,B|348:276|360:215,1,87.7200005354004,2|0,1:0|0:0,0:0:0:0:
434,112,64476,1,2,1:0:0:0:
434,112,64634,2,0,P|379:109|341:96,1,87.7200005354004,10|0,0:0|0:0,0:0:0:0:
157,192,64950,1,2,1:0:0:0:
240,137,65107,2,0,P|186:107|151:93,1,87.7200005354004,2|8,0:0|0:0,0:0:0:0:
50,258,65423,2,0,P|104:234|247:234,1,175.440001070801,2|0,1:0|1:0,0:0:0:0:
367,314,65897,1,10,0:0:0:0:
367,314,66213,6,0,P|350:261|345:222,1,87.7200005354004,2|0,1:0|0:0,0:0:0:0:
223,147,66529,2,0,P|248:97|272:66,1,87.7200005354004,10|0,0:0|0:0,0:0:0:0:
363,320,66844,2,0,P|346:267|341:228,1,87.7200005354004,10|0,0:0|1:0,0:0:0:0:
219,153,67160,2,0,P|244:103|268:72,1,87.7200005354004,10|0,0:0|1:0,0:0:0:0:
358,330,67476,5,6,1:0:0:0:
133,127,67792,1,6,1:0:0:0:
428,57,68107,1,6,1:0:0:0:
289,189,68423,1,8,0:0:0:0:
289,189,68739,6,0,P|257:144|155:158,1,158.239994687988,2|10,1:0|0:0,0:0:0:0:
100,217,69213,1,10,0:0:0:0:
114,82,69371,2,0,P|146:37|248:51,1,158.239994687988,2|10,1:0|0:0,0:0:0:0:
333,141,69844,2,0,P|376:115|424:113,1,79.1199973439942,2|0,0:0|1:0,0:0:0:0:
490,137,70160,1,2,1:0:0:0:
349,242,70318,2,0,P|306:216|258:214,1,79.1199973439942,10|0,0:0|1:0,0:0:0:0:
199,304,70634,2,0,P|166:281|128:273,1,79.1199973439942,2|0,1:0|0:0,0:0:0:0:
46,350,70950,1,10,0:0:0:0:
46,350,71265,6,0,P|80:286|33:185,1,158.239994687988,2|10,1:0|0:0,0:0:0:0:
8,129,71739,1,10,0:0:0:0:
152,42,71897,2,0,P|129:115|138:145,2,79.1199973439942,2|0|10,1:0|0:0|0:0,0:0:0:0:
158,210,72371,2,0,P|154:137|236:93,1,158.239994687988,2|0,0:0|1:0,0:0:0:0:
253,262,72844,2,0,P|294:205|319:202,1,79.1199973439942,10|0,0:0|1:0,0:0:0:0:
304,348,73160,2,0,P|331:320|370:315,1,79.1199973439942,2|10,1:0|0:0,0:0:0:0:
491,362,73476,1,10,0:0:0:0:
491,362,73792,6,0,P|454:308|495:212,1,158.239994687988,2|10,1:0|0:0,0:0:0:0:
508,134,74265,1,10,0:0:0:0:
378,38,74423,2,0,P|404:109|365:175,1,158.239994687988,2|8,1:0|0:0,0:0:0:0:
178,217,74897,2,0,P|237:185|276:194,1,79.1199973439942,2|0,0:0|1:0,0:0:0:0:
166,323,75213,2,0,P|107:291|68:300,1,79.1199973439942,2|8,1:0|0:0,0:0:0:0:
18,329,75529,1,2,1:0:0:0:
91,187,75686,2,0,L|68:72,1,79.1199973439942,2|2,1:0|0:0,0:0:0:0:
193,139,76002,2,0,L|177:216,1,79.1199973439942,10|2,0:0|0:0,0:0:0:0:
279,92,76318,6,0,P|326:57|428:94,1,158.239994687988,2|10,1:0|0:0,0:0:0:0:
481,141,76792,1,10,0:0:0:0:
366,217,76950,2,0,P|352:157|350:116,1,79.1199973439942,2|0,1:0|0:0,0:0:0:0:
256,283,77265,2,0,P|266:244|271:205,1,79.1199973439942,10|0,0:0|0:0,0:0:0:0:
177,330,77581,5,10,1:2:0:0:
318,344,77739,1,2,1:0:0:0:
165,245,77897,2,0,P|115:252|56:263,1,79.1199973439942,10|0,1:2|0:0,0:0:0:0:
353,182,78213,2,0,P|403:189|462:200,1,79.1199973439942,2|0,1:0|0:0,0:0:0:0:
239,108,78529,1,8,0:0:0:0:
180,176,88950,6,0,B|286:141|244:233|378:170,2,175.440001070801,2|2|2,1:0|1:0|1:0,0:0:0:0:
180,176,89897,6,0,P|182:106|94:182,1,208.980005102051,12|0,0:0|0:0,0:0:0:0:
99,203,90213,6,0,P|113:260|118:312,1,104.919995677429,6|0,1:0|0:0,0:0:0:0:
272,357,90529,1,10,0:0:0:0:
272,357,90686,2,0,P|277:304|290:254,1,104.919995677429,2|0,0:0|1:0,0:0:0:0:
450,141,91002,2,0,P|381:147|340:117,1,104.919995677429,2|8,0:0|0:0,0:0:0:0:
175,55,91318,2,0,P|244:61|285:31,1,104.919995677429,2|0,0:0|1:0,0:0:0:0:
409,71,91634,1,2,0:0:0:0:
413,219,91792,2,0,L|412:333,1,104.919995677429,10|2,0:0|0:0,0:0:0:0:
257,171,92107,2,0,B|194:163|194:163|128:186,1,104.919995677429,2|0,1:0|0:0,0:0:0:0:
356,136,92423,2,0,B|419:128|419:128|485:151,1,104.919995677429,10|0,0:0|0:0,0:0:0:0:
148,98,92739,6,0,P|86:135|82:193,1,104.919995677429,2|0,1:0|0:0,0:0:0:0:
170,307,93055,1,10,0:0:0:0:
170,307,93213,2,0,P|147:260|99:242,1,104.919995677429,2|0,0:0|1:0,0:0:0:0:
256,331,93529,2,0,L|366:318,1,104.919995677429,2|8,0:0|0:0,0:0:0:0:
483,224,93844,2,0,L|373:211,1,104.919995677429,2|0,0:0|1:0,0:0:0:0:
248,72,94160,1,2,0:0:0:0:
226,230,94318,2,0,P|244:305|267:351,1,104.919995677429,10|2,0:0|0:0,0:0:0:0:
178,138,94634,2,0,B|107:129|107:129|59:152,1,104.919995677429,2|0,1:0|0:0,0:0:0:0:
248,72,94950,2,0,B|319:63|319:63|367:86,1,104.919995677429,10|0,0:0|0:0,0:0:0:0:
460,205,95265,6,0,P|380:189|348:77,1,209.839991354859,2|10,1:0|0:0,0:0:0:0:
496,144,95739,2,0,L|488:264,1,104.919995677429,2|0,0:0|1:0,0:0:0:0:
328,264,96055,2,0,L|321:159,1,104.919995677429,2|8,0:0|0:0,0:0:0:0:
400,48,96371,2,0,L|408:296,1,209.839991354859,6|0,0:0|0:0,0:0:0:0:
228,261,96844,2,0,P|298:250|337:271,1,104.919995677429,10|0,0:0|0:0,0:0:0:0:
113,338,97160,2,0,P|162:353|212:340,1,104.919995677429,2|0,1:0|0:0,0:0:0:0:
11,248,97476,2,0,P|60:234|110:250,1,104.919995677429,10|0,0:0|0:0,0:0:0:0:
189,84,97792,6,0,P|141:166|174:284,1,209.839991354859,2|10,1:0|0:0,0:0:0:0:
317,124,98265,2,0,P|237:162|217:200,1,104.919995677429,2|0,0:0|1:0,0:0:0:0:
397,257,98581,2,0,P|359:221|309:208,1,104.919995677429,2|8,0:0|0:0,0:0:0:0:
382,342,98897,1,2,0:0:0:0:
476,232,99055,5,10,1:2:0:0:
476,232,99213,1,2,1:0:0:0:
318,284,99371,1,10,0:0:0:0:
318,284,99529,1,2,1:0:0:0:
359,140,99686,5,10,1:2:0:0:
397,257,99844,1,2,1:0:0:0:
281,167,100002,1,10,0:0:0:0:
433,118,100160,1,2,1:0:0:0:
207,230,100318,6,0,P|181:177|192:120,1,104.919995677429,6|0,1:0|0:0,0:0:0:0:
64,65,100634,1,10,0:0:0:0:
64,65,100792,2,0,P|67:116|43:162,1,104.919995677429,2|0,0:0|1:0,0:0:0:0:
119,279,101107,2,0,P|188:231|244:237,1,104.919995677429,2|8,0:0|0:0,0:0:0:0:
364,349,101423,2,0,P|327:312|276:299,1,104.919995677429,2|0,0:0|1:0,0:0:0:0:
342,167,101739,1,2,0:0:0:0:
342,167,101818,1,0,0:0:0:0:
342,167,101897,2,0,L|343:295,1,104.919995677429,8|2,0:0|0:0,0:0:0:0:
254,182,102213,1,2,1:0:0:0:
422,147,102371,1,2,0:0:0:0:
271,78,102529,2,0,B|311:80|311:80|380:48,1,104.919995677429,10|2,0:0|0:0,0:0:0:0:
254,182,102844,6,0,L|135:171,1,104.919995677429,2|0,1:0|0:0,0:0:0:0:
17,294,103160,1,10,0:0:0:0:
17,294,103318,2,0,L|122:285,1,104.919995677429,2|0,0:0|1:0,0:0:0:0:
281,342,103634,2,0,P|230:301|210:261,1,104.919995677429,2|8,0:0|0:0,0:0:0:0:
173,78,103950,2,0,P|224:119|244:159,1,104.919995677429,6|0,0:0|1:0,0:0:0:0:
52,147,104265,1,2,0:0:0:0:
52,147,104344,1,0,0:0:0:0:
52,147,104423,2,0,L|75:33,1,104.919995677429,8|2,0:0|0:0,0:0:0:0:
131,237,104739,2,0,B|74:232|74:232|15:259,1,104.919995677429,2|2,1:0|0:0,0:0:0:0:
135,337,105055,2,0,B|81:318|81:318|35:331,1,104.919995677429,10|2,3:2|3:0,0:0:0:0:
274,317,105371,6,0,P|358:325|394:343,1,104.919995677429,6|0,1:0|0:0,0:0:0:0:
437,200,105686,1,10,0:0:0:0:
437,200,105844,2,0,P|353:208|317:226,1,104.919995677429,2|0,0:0|1:0,0:0:0:0:
231,70,106160,2,0,P|260:138|266:192,1,104.919995677429,2|8,0:0|0:0,0:0:0:0:
381,34,106476,2,0,P|352:102|346:156,1,104.919995677429,2|0,0:0|1:0,0:0:0:0:
224,60,106792,2,0,P|154:53|108:61,1,104.919995677429,2|8,0:0|0:0,0:0:0:0:
33,201,107107,1,2,0:0:0:0:
33,201,107265,2,0,P|103:194|149:202,1,104.919995677429,2|0,1:0|0:0,0:0:0:0:
228,329,107581,2,0,P|158:322|112:330,1,104.919995677429,10|0,0:0|0:0,0:0:0:0:
277,231,107897,5,2,1:0:0:0:
277,231,108055,1,2,1:0:0:0:
349,337,108213,2,0,L|465:319,1,104.919995677429,10|2,0:0|0:0,0:0:0:0:
261,186,108529,5,2,1:0:0:0:
261,186,108687,1,2,1:0:0:0:
189,292,108845,2,0,L|73:274,1,104.919995677429,10|0,0:0|0:0,0:0:0:0:
282,140,109160,5,2,1:0:0:0:
282,140,109318,1,10,0:0:0:0:
354,246,109476,2,0,L|470:228,1,104.919995677429,2|10,1:0|0:0,0:0:0:0:
256,104,109792,5,2,1:0:0:0:
224,210,109950,1,10,0:0:0:0:
316,42,110107,5,10,0:0:0:0:
348,148,110265,1,8,0:0:0:0:
348,148,114213,5,2,1:0:0:0:
353,161,114371,1,0,1:0:0:0:
263,244,114529,5,2,1:0:0:0:
273,195,114686,1,0,1:0:0:0:
362,252,114844,5,2,1:0:0:0:
392,331,115002,1,0,1:0:0:0:
245,322,115160,5,14,0:0:0:0:
429,204,115318,1,14,0:0:0:0:
192,246,115476,6,0,P|131:235|90:211,1,104.919995677429,2|0,1:0|0:0,0:0:0:0:
28,361,115792,1,10,0:0:0:0:
28,361,115950,2,0,P|89:350|130:326,1,104.919995677429,2|0,0:0|1:0,0:0:0:0:
11,181,116265,2,0,P|63:272|63:299,1,104.919995677429,2|8,0:0|0:0,0:0:0:0:
143,126,116581,2,0,P|114:210|130:340,1,209.839991354859,6|0,0:0|0:0,0:0:0:0:
217,172,117055,2,0,P|288:187|332:223,1,104.919995677429,10|0,0:0|0:0,0:0:0:0:
404,84,117371,2,0,P|443:144|449:201,1,104.919995677429,2|0,1:0|0:0,0:0:0:0:
343,339,117686,2,0,P|374:297|388:247,1,104.919995677429,10|0,0:0|0:0,0:0:0:0:
241,20,118002,6,0,P|303:95|311:216,1,209.839991354859,2|10,1:0|0:0,0:0:0:0:
189,344,118476,2,0,P|224:291|228:236,1,104.919995677429,2|2,0:0|1:0,0:0:0:0:
121,84,118792,2,0,P|130:135|161:177,1,104.919995677429,2|8,0:0|0:0,0:0:0:0:
143,267,119107,1,2,0:0:0:0:
313,203,119265,2,0,L|453:230,1,104.919995677429,10|0,0:0|1:0,0:0:0:0:
161,177,119581,2,0,L|21:204,1,104.919995677429,10|0,0:0|1:0,0:0:0:0:
318,197,119897,2,0,L|458:224,1,104.919995677429,10|0,0:0|1:0,0:0:0:0:
233,115,120213,1,10,0:0:0:0:
244,254,120371,1,8,0:0:0:0:
316,197,120529,5,2,0:0:0:0:
316,197,120844,2,0,B|266:231|209:192|209:192|145:150|60:212,1,244.239987701539,12|2,0:0|0:0,0:0:0:0:
86,194,121476,2,0,P|135:137|21:161,1,244.239987701539,12|2,0:0|0:0,0:0:0:0:
21,108,122107,2,0,L|291:90,1,244.239987701539,12|2,0:0|0:0,0:0:0:0:
266,90,122739,2,0,B|307:34|307:34|306:235,1,244.239987701539,12|2,0:0|0:0,0:0:0:0:
306,208,123371,2,0,B|362:163|471:221|471:221|389:314,1,244.239987701539,12|2,0:0|0:0,0:0:0:0:
425,272,124002,2,0,L|203:261,1,183.179990776154,12|0,0:0|0:0,0:0:0:0:
220,262,124318,5,0,1:0:0:0:
220,262,124476,1,0,1:0:0:0:
156,193,124634,5,8,0:0:0:0:
186,181,124792,1,0,1:0:0:0:
131,276,124950,5,8,0:0:0:0:
78,254,125108,1,8,0:0:0:0:
157,108,125265,5,8,0:0:0:0:
220,262,125423,1,8,0:0:0:0:
77,128,125581,6,0,P|94:53|121:34,1,104.919995677429,2|0,1:0|0:0,0:0:0:0:
256,171,125897,1,10,0:0:0:0:
256,171,126055,2,0,P|239:246|212:265,1,104.919995677429,2|0,0:0|1:0,0:0:0:0:
34,220,126371,2,0,L|163:201,1,104.919995677429,2|8,0:0|0:0,0:0:0:0:
323,276,126686,2,0,L|194:257,1,104.919995677429,2|0,0:0|1:0,0:0:0:0:
395,113,127002,2,0,B|417:161|417:161|402:226,1,104.919995677429,2|8,0:0|0:0,0:0:0:0:
229,139,127318,1,2,0:0:0:0:
229,139,127476,2,0,B|207:91|207:91|222:26,1,104.919995677429,2|0,1:0|0:0,0:0:0:0:
311,178,127792,1,10,0:0:0:0:
311,178,128107,5,2,1:0:0:0:
311,178,128265,1,2,1:0:0:0:
235,290,128423,2,0,L|115:272,1,104.919995677429,10|2,0:0|0:0,0:0:0:0:
313,213,128739,5,2,1:0:0:0:
313,213,128897,1,2,1:0:0:0:
389,325,129055,2,0,L|509:307,1,104.919995677429,10|2,0:0|0:0,0:0:0:0:
314,239,129371,5,2,1:0:0:0:
230,317,129529,1,10,0:0:0:0:
284,160,129686,2,0,P|357:163|386:196,1,104.919995677429,10|0,0:0|0:0,0:0:0:0:
308,320,130002,5,2,1:0:0:0:
233,237,130160,1,10,0:0:0:0:
314,239,130318,1,2,1:0:0:0:
230,317,130476,1,10,0:0:0:0:
175,96,131581,6,0,L|193:206,1,104.919995677429,10|2,0:0|0:0,0:0:0:0:
94,333,131897,2,0,L|110:229,1,104.919995677429,6|2,1:0|0:0,0:0:0:0:
285,217,132213,2,0,P|206:214|180:172,1,104.919995677429,10|2,0:0|0:0,0:0:0:0:
353,137,132529,1,2,1:0:0:0:
353,137,132686,2,0,B|380:200|380:200|370:241,1,104.919995677429,2|8,0:0|0:0,0:0:0:0:
267,132,133002,2,0,B|258:96|258:96|285:33,1,104.919995677429,2|0,0:0|1:0,0:0:0:0:
476,87,133318,2,0,L|359:56,1,104.919995677429,2|8,0:0|0:0,0:0:0:0:
165,158,133634,2,0,L|282:127,1,104.919995677429,2|0,0:0|1:0,0:0:0:0:
71,75,133950,1,2,0:0:0:0:
46,195,134107,1,10,0:0:0:0:
46,195,134265,6,0,P|76:243|89:298,1,104.919995677429,2|4,0:0|1:0,0:0:0:0:
225,363,134581,1,2,0:0:0:0:
225,363,134660,1,2,0:0:0:0:
225,363,134739,2,0,P|238:312|267:268,1,104.919995677429,10|2,0:0|0:0,0:0:0:0:
413,194,135055,1,2,1:0:0:0:
413,194,135213,2,0,P|344:195|302:170,1,104.919995677429,2|8,0:0|0:0,0:0:0:0:
91,128,135529,2,0,P|244:143|406:61,1,314.759987032288,2|8,0:0|0:0,0:0:0:0:
113,38,136318,1,2,1:0:0:0:
91,128,136476,2,0,L|111:257,1,104.919995677429,2|8,0:0|0:0,0:0:0:0:
122,314,136792,1,2,0:0:0:0:
231,226,136950,6,0,P|291:239|333:271,1,104.919995677429,2|2,1:0|0:0,0:0:0:0:
400,116,137265,2,0,P|340:129|298:161,1,104.919995677429,10|2,0:0|0:0,0:0:0:0:
474,183,137581,1,2,1:0:0:0:
474,183,137739,2,0,B|491:108|491:108|470:61,1,104.919995677429,2|10,0:0|0:0,0:0:0:0:
262,80,138055,2,0,P|365:95|363:214,1,209.839991354859,6|2,0:0|0:0,0:0:0:0:
269,248,138529,2,0,P|304:181|301:136,1,104.919995677429,10|2,0:0|0:0,0:0:0:0:
130,220,138844,2,0,P|202:197|231:163,1,104.919995677429,2|2,1:0|0:0,0:0:0:0:
45,157,139160,1,10,0:0:0:0:
143,130,139318,1,2,0:0:0:0:
20,263,139476,6,0,L|4:43,1,209.839991354859,6|10,1:0|0:0,0:0:0:0:
130,220,139950,2,0,L|122:341,1,104.919995677429,2|0,0:0|1:0,0:0:0:0:
232,143,140265,2,0,L|225:38,1,104.919995677429,2|8,0:0|0:0,0:0:0:0:
305,250,140581,2,0,P|353:190|494:228,1,209.839991354859,2|2,0:0|1:0,0:0:0:0:
349,336,141055,2,0,B|230:257|230:257|155:280,1,209.839991354859,10|2,0:0|1:0,0:0:0:0:
83,328,141529,1,2,1:0:0:0:
108,123,141686,2,0,B|178:101|178:101|238:115,1,104.919995677429,10|2,0:0|1:0,0:0:0:0:
371,221,142002,5,6,1:0:0:0:
371,221,142160,1,2,0:0:0:0:
371,221,142318,2,0,P|359:155|357:114,1,104.919995677429,10|0,0:0|0:0,0:0:0:0:
286,277,142634,1,2,1:0:0:0:
286,277,142792,1,2,0:0:0:0:
286,277,142950,2,0,P|274:211|272:170,1,104.919995677429,10|0,0:0|0:0,0:0:0:0:
209,323,143265,1,2,1:0:0:0:
163,192,143423,1,2,0:0:0:0:
105,271,143581,1,10,0:0:0:0:
59,157,143739,1,2,0:0:0:0:
231,251,143897,2,0,B|386:229|386:229|445:176,1,209.839991354859,2|8,1:0|0:0,0:0:0:0:
482,130,144371,1,0,0:0:0:0:
295,62,144529,5,2,1:0:0:0:
295,62,144686,2,0,P|333:115|346:178,1,104.919995677429,0|10,0:0|0:0,0:0:0:0:
95,99,145002,2,0,P|180:94|264:210,1,209.839991354859,2|2,0:0|0:0,0:0:0:0:
74,200,145476,2,0,P|144:174|188:186,1,104.919995677429,10|0,0:0|0:0,0:0:0:0:
423,257,145792,2,0,B|354:241|354:241|287:267|287:267|194:254,1,209.839991354859,2|8,1:0|0:0,0:0:0:0:
138,257,146265,1,0,0:0:0:0:
260,179,146423,1,2,1:0:0:0:
506,293,146739,1,10,0:0:0:0:
255,82,147055,6,0,P|179:123|220:267,1,209.839991354859,2|8,1:0|0:0,0:0:0:0:
355,117,147529,1,0,0:0:0:0:
355,117,147686,2,0,L|373:343,1,209.839991354859,0|10,1:0|0:0,0:0:0:0:
260,179,148160,1,2,0:0:0:0:
163,285,148318,2,0,P|231:269|279:251,1,104.919995677429,2|2,1:0|0:0,0:0:0:0:
82,213,148634,1,10,0:0:0:0:
65,309,148792,1,2,0:0:0:0:
65,309,148950,2,0,P|35:250|1:211,1,104.919995677429,0|0,1:0|0:0,0:0:0:0:
136,124,149265,2,0,P|103:165|81:212,1,104.919995677429,8|0,0:0|0:0,0:0:0:0:
83,49,149581,5,2,1:0:0:0:
83,49,149660,1,0,3:0:0:0:
83,49,149739,1,2,1:0:0:0:
83,49,149818,1,0,3:0:0:0:
83,49,149897,2,0,L|199:35,1,104.919995677429,10|2,0:0|0:0,0:0:0:0:
284,212,150213,5,2,1:0:0:0:
284,212,150292,1,0,3:0:0:0:
284,212,150371,1,2,1:0:0:0:
284,212,150450,1,0,3:0:0:0:
284,212,150529,2,0,L|168:198,1,104.919995677429,10|0,0:0|0:0,0:0:0:0:
351,68,150844,6,0,L|360:129,1,52.4599978387147,2|0,1:0|3:0,0:0:0:0:
437,125,151002,2,0,L|429:176,1,52.4599978387147,10|0,0:0|3:0,0:0:0:0:
497,223,151160,2,0,L|505:337,1,104.919995677429,10|2,0:0|0:0,0:0:0:0:
334,304,151476,6,0,P|273:304|258:315,1,52.4599978387147,2|0,1:0|3:0,0:0:0:0:
212,339,151634,1,8,0:0:0:0:
89,215,151792,6,0,P|150:215|165:226,1,52.4599978387147,0|0,1:0|3:0,0:0:0:0:
211,250,151950,1,8,0:0:0:0:
223,262,152107,6,0,L|212:140,3,106.639995769287,2|2|2|2,0:0|0:0|0:0|0:0,0:0:0:0:
308,65,153371,2,0,L|298:171,3,106.639995769287,2|2|2|2,0:0|0:0|0:0|0:0,0:0:0:0:
460,222,154634,5,10,1:2:0:0:
203,137,154950,1,10,1:2:0:0:
467,230,155265,1,10,1:2:0:0:
157,214,155581,1,10,1:2:0:0:
373,42,155897,6,0,L|395:358,1,307.020001873901,14|0,0:0|0:0,0:0:0:0:
394,348,156529,1,2,1:0:0:0:
