osu file format v14

[General]
AudioFilename: meme.mp3
AudioLeadIn: 0
PreviewTime: 16713
Countdown: 0
SampleSet: Soft
StackLeniency: 0.7
Mode: 0
LetterboxInBreaks: 0
WidescreenStoryboard: 0

[Editor]
DistanceSpacing: 1.4
BeatDivisor: 4
GridSize: 8
TimelineZoom: 2.2

[Metadata]
Title:SANTA SAN
TitleUnicode:サンタさん
Artist:MOMOIRO CLOVER Z
ArtistUnicode:ももいろクローバーZ
Creator:Sotarks
Version:Gift
Source:
Tags:メリー クリスマス ココナッツ merry christmas coconuts momoclo takagi reni momota kanako ariyasu momoka tamai shiori sasaki ayaka akitoshi corinn doormat irohas mugiwarasekai kalibe kin linada milan- toybot haruto haruto_aizawa
BeatmapID:1473301
BeatmapSetID:695316

[Difficulty]
HPDrainRate:6
CircleSize:3.8
OverallDifficulty:9
ApproachRate:9.3
SliderMultiplier:1.92
SliderTickRate:1

[Events]
//Background and Video events
0,0,"meme.jpg",0,0
//Break Periods
2,110465,113659
//Storyboard Layer 0 (Background)
//Storyboard Layer 1 (Fail)
//Storyboard Layer 2 (Pass)
//Storyboard Layer 3 (Foreground)
//Storyboard Sound Samples

[TimingPoints]
529,315.789473684211,4,2,22,72,1,0
17897,-61.7283950617284,4,2,22,72,0,0
18213,-89.2857142857143,4,2,22,72,0,0
28002,-61.7283950617284,4,2,22,72,0,0
28318,-108.695652173913,4,2,22,62,0,0
38423,-138.888888888889,4,2,22,52,0,0
48213,-61.7283950617284,4,2,22,72,0,0
48529,-98.0392156862745,4,2,22,72,0,0
68739,-108.695652173913,4,2,22,62,0,0
77581,-108.695652173913,4,2,22,72,0,0
78844,-192.307692307692,4,2,22,42,0,0
89897,-61.7283950617284,4,2,22,72,0,0
90213,-81.9672131147541,4,2,22,82,0,0
99686,-81.9672131147541,4,2,22,92,0,0
100318,-81.9672131147541,4,2,22,82,0,0
114213,-81.9672131147541,4,2,22,52,0,0
114529,-81.9672131147541,4,2,22,62,0,0
114844,-81.9672131147541,4,2,22,72,0,0
115160,-81.9672131147541,4,2,22,82,0,0
120529,-161.290322580645,4,2,22,42,0,0
120844,-70.4225352112676,4,2,22,72,0,0
121160,-161.290322580645,4,2,22,42,0,0
121476,-70.4225352112676,4,2,22,72,0,0
121792,-161.290322580645,4,2,22,42,0,0
122107,-70.4225352112676,4,2,22,72,0,0
122423,-161.290322580645,4,2,22,42,0,0
122739,-70.4225352112676,4,2,22,72,0,0
123055,-161.290322580645,4,2,22,42,0,0
123371,-70.4225352112676,4,2,22,72,0,0
123686,-161.290322580645,4,2,22,42,0,0
124002,-70.4225352112676,4,2,22,72,0,0
125581,-81.9672131147541,4,2,22,82,0,0
152107,-161.290322580645,4,2,22,42,0,0
154634,-75.7575757575758,4,2,22,72,0,0
155897,-98.0392156862745,4,2,22,72,0,0

[Colours]
Combo1 : 210,188,187
Combo2 : 244,162,162
Combo3 : 189,207,253
Combo4 : 165,245,158
SliderBorder : 255,168,168
SliderTrackOverride : 20,0,0

[HitObjects]
78,91,17897,6,0,B|122:56|184:72|184:72|189:67|189:67|191:74|191:74|244:114|320:71,1,233.280005695313,8|0,0:0|0:0,0:0:0:0:
336,18,18213,6,0,P|373:78|358:125,1,107.5200013125,6|0,1:0|0:0,0:0:0:0:
112,242,18529,2,0,P|109:189|142:149,1,107.5200013125,10|0,0:0|0:0,0:0:0:0:
443,137,18844,1,2,1:0:0:0:
292,84,19002,1,0,0:0:0:0:
334,292,19160,2,0,L|338:169,1,107.5200013125,8|0,0:0|0:0,0:0:0:0:
193,321,19476,6,0,L|189:213,1,107.5200013125,2|0,1:0|0:0,0:0:0:0:
443,137,19792,2,0,L|458:253,1,107.5200013125,10|0,0:0|0:0,0:0:0:0:
184,133,20107,1,2,1:0:0:0:
308,104,20265,1,2,0:0:0:0:
107,227,20423,1,8,0:0:0:0:
377,261,20581,1,8,0:0:0:0:
185,29,20739,6,0,B|170:93|170:93|189:150,1,107.5200013125,2|0,1:0|0:0,0:0:0:0:
290,367,21055,2,0,B|305:303|305:303|286:246,1,107.5200013125,10|0,0:0|0:0,0:0:0:0:
93,135,21371,2,0,P|122:205|185:223,1,107.5200013125,2|0,1:0|0:0,0:0:0:0:
382,266,21686,2,0,P|353:196|290:178,1,107.5200013125,10|0,0:0|0:0,0:0:0:0:
170,298,22002,5,14,0:0:0:0:
291,263,22160,1,0,1:0:0:0:
125,222,22318,1,10,0:0:0:0:
349,175,22476,1,0,1:0:0:0:
89,321,22634,1,14,0:0:0:0:
440,310,22792,1,0,1:0:0:0:
39,191,22950,1,14,0:0:0:0:
39,191,23265,6,0,P|94:181|158:142,1,107.5200013125,2|0,1:0|0:0,0:0:0:0:
364,188,23581,2,0,P|311:178|263:154,1,107.5200013125,10|0,0:0|0:0,0:0:0:0:
64,328,23897,2,0,B|119:290|119:290|141:236,1,107.5200013125,2|0,1:0|0:0,0:0:0:0:
346,325,24213,2,0,B|291:287|291:287|269:233,1,107.5200013125,10|0,0:0|0:0,0:0:0:0:
201,32,24529,6,0,L|204:163,1,107.5200013125,2|0,1:0|0:0,0:0:0:0:
209,384,24844,2,0,L|206:276,1,107.5200013125,10|0,0:0|0:0,0:0:0:0:
382,128,25160,2,0,P|321:99|275:107,1,107.5200013125,2|0,1:0|0:0,0:0:0:0:
32,213,25476,2,0,P|93:242|139:234,1,107.5200013125,10|0,0:0|0:0,0:0:0:0:
314,189,25792,5,2,1:0:0:0:
98,150,25950,1,0,0:0:0:0:
382,128,26107,2,0,B|411:201|411:201|399:244,1,107.5200013125,10|0,0:0|0:0,0:0:0:0:
203,172,26423,1,2,1:0:0:0:
479,268,26581,1,0,0:0:0:0:
281,86,26739,2,0,L|321:212,1,107.5200013125,10|0,0:0|0:0,0:0:0:0:
84,319,27055,5,14,0:0:0:0:
497,175,27371,1,10,0:0:0:0:
72,36,27686,1,14,0:0:0:0:
249,249,28002,6,0,B|257:204|231:165|191:170|191:170|190:165|190:165|191:170|191:170|184:170|142:185|139:232|172:284,1,233.280005695313,8|0,0:0|0:0,0:0:0:0:
173,263,28318,6,0,B|272:234|235:310|362:260,1,176.639994070313,6|8,1:0|0:0,0:0:0:0:
283,101,28792,2,0,L|299:229,1,88.3199970351564,2|2,1:0|0:0,0:0:0:0:
208,340,29107,1,2,1:0:0:0:
121,166,29265,1,8,0:0:0:0:
29,355,29423,2,0,L|134:345,1,88.3199970351564,2|0,0:0|1:0,0:0:0:0:
296,328,29739,1,2,1:0:0:0:
118,259,29897,1,10,0:0:0:0:
293,188,30055,1,2,1:0:0:0:
82,87,30213,2,0,P|116:150|124:194,1,88.3199970351564,2|0,0:0|1:0,0:0:0:0:
300,101,30529,2,0,P|314:59|338:22,1,88.3199970351564,10|0,0:0|0:0,0:0:0:0:
499,218,30844,6,0,P|431:189|356:219,1,132.479995552735,2|0,1:0|0:0,0:0:0:0:
360,223,31160,1,10,0:0:0:0:
442,89,31318,1,0,1:0:0:0:
431,289,31476,2,0,L|443:379,1,88.3199970351564,2|0,0:0|1:0,0:0:0:0:
297,164,31792,1,10,0:0:0:0:
187,346,31950,2,0,L|81:329,1,88.3199970351564,2|0,0:0|1:0,0:0:0:0:
214,177,32265,1,2,1:0:0:0:
343,302,32423,2,0,L|449:285,1,88.3199970351564,10|0,0:0|1:0,0:0:0:0:
158,254,32739,2,0,L|52:237,1,88.3199970351564,2|0,0:0|1:0,0:0:0:0:
257,95,33055,1,8,0:0:0:0:
306,222,33213,1,0,1:0:0:0:
188,44,33371,6,0,P|276:12|341:75,1,176.639994070313,2|8,1:0|0:0,0:0:0:0:
387,257,33844,2,0,L|290:215,1,88.3199970351563,0|0,1:0|0:0,0:0:0:0:
257,95,34160,1,0,1:0:0:0:
425,177,34318,1,8,0:0:0:0:
219,246,34476,2,0,L|91:235,1,88.3199970351563,0|0,1:0|1:0,0:0:0:0:
344,133,34792,1,0,1:0:0:0:
483,280,34950,2,0,L|473:370,1,88.3199970351563,8|0,0:0|1:0,0:0:0:0:
282,189,35265,1,0,0:0:0:0:
409,75,35423,1,0,1:0:0:0:
457,193,35581,1,8,0:0:0:0:
270,89,35739,1,0,1:0:0:0:
293,342,35897,5,0,1:0:0:0:
167,27,36213,1,8,0:0:0:0:
72,341,36529,1,0,1:0:0:0:
272,33,36844,1,8,0:0:0:0:
329,186,37002,1,0,0:0:0:0:
52,159,37160,5,8,0:0:0:0:
355,66,37318,1,0,1:0:0:0:
259,341,37476,1,8,0:0:0:0:
90,83,37634,1,0,1:0:0:0:
420,117,37792,1,8,0:0:0:0:
173,358,37950,1,0,1:0:0:0:
164,30,38107,1,12,0:0:0:0:
449,194,38265,1,0,1:0:0:0:
190,196,38423,6,0,L|278:181,1,69.1200016875,2|2,1:0|0:0,0:0:0:0:
394,287,38739,2,0,L|325:275,1,69.1200016875,2|0,3:0|0:0,0:0:0:0:
229,322,39055,2,0,P|272:333|301:370,1,69.1200016875,2|2,1:0|0:0,0:0:0:0:
327,198,39371,2,0,P|284:209|255:246,1,69.1200016875,2|0,3:0|0:0,0:0:0:0:
421,218,39686,2,0,L|424:137,1,69.1200016875,2|2,1:0|1:0,0:0:0:0:
345,32,40002,2,0,L|347:101,1,69.1200016875,2|0,3:0|0:0,0:0:0:0:
188,47,40318,2,0,P|237:63|258:85,1,69.1200016875,2|0,1:0|1:0,0:0:0:0:
118,158,40634,2,0,P|145:138|179:130,1,69.1200016875,2|0,3:0|0:0,0:0:0:0:
242,267,40950,6,0,L|249:184,1,69.1200016875,2|2,1:0|0:0,0:0:0:0:
156,274,41265,2,0,L|161:342,1,69.1200016875,2|0,3:0|0:0,0:0:0:0:
73,266,41581,1,2,1:0:0:0:
73,266,41739,2,0,L|67:197,1,69.1200016875,2|0,0:0|3:0,0:0:0:0:
123,122,42055,1,0,0:0:0:0:
247,198,42213,2,0,P|194:196|169:191,1,69.1200016875,2|2,1:0|1:0,0:0:0:0:
365,107,42529,2,0,P|330:111|296:111,1,69.1200016875,2|0,3:0|0:0,0:0:0:0:
443,46,42844,5,2,1:0:0:0:
417,224,43002,1,2,0:0:0:0:
262,38,43160,2,0,B|194:36|211:98|122:89,1,138.240003375,2|0,3:0|0:0,0:0:0:0:
6,87,43634,5,2,1:0:0:0:
52,166,43792,2,0,P|46:202|34:250,1,69.1200016875,2|0,1:0|0:0,0:0:0:0:
135,311,44107,2,0,P|127:277|121:243,1,69.1200016875,2|2,3:0|0:0,0:0:0:0:
204,127,44423,2,0,L|200:219,1,69.1200016875,2|0,1:0|0:0,0:0:0:0:
290,282,44739,1,2,3:0:0:0:
290,282,44897,2,0,L|286:212,1,69.1200016875,2|0,1:0|0:0,0:0:0:0:
339,134,45213,1,2,3:0:0:0:
429,231,45371,2,0,P|378:216|350:216,1,69.1200016875,2|0,1:0|1:0,0:0:0:0:
495,125,45686,2,0,P|462:136|428:140,1,69.1200016875,2|2,3:0|0:0,0:0:0:0:
235,59,46002,5,2,1:0:0:0:
306,14,46160,2,0,P|346:62|337:137,1,138.240003375,2|2,3:0|0:0,0:0:0:0:
293,318,46634,1,2,1:0:0:0:
226,280,46792,2,0,P|217:213|258:160,1,138.240003375,2|2,3:0|0:0,0:0:0:0:
407,228,47265,2,0,P|338:213|328:201,1,69.1200016875,2|2,1:0|0:0,0:0:0:0:
389,152,47502,1,2,0:0:0:0:
389,152,47581,2,0,L|391:69,1,69.1200016875,2|0,1:0|0:0,0:0:0:0:
430,306,47897,1,2,1:0:0:0:
430,306,48213,6,0,B|356:330|356:330|359:336|359:336|356:330|356:330|285:350|285:350|206:292,1,233.280005695313,8|0,0:0|0:0,0:0:0:0:
174,255,48529,6,0,L|52:248,1,97.9200005976563,6|0,1:0|0:0,0:0:0:0:
254,150,48844,1,10,0:0:0:0:
409,213,49002,2,0,L|311:218,1,97.9200005976563,0|2,1:0|0:0,0:0:0:0:
469,109,49318,1,0,1:0:0:0:
500,258,49476,2,0,L|491:357,1,97.9200005976563,8|0,0:0|0:0,0:0:0:0:
364,128,49792,6,0,P|333:79|285:57,1,97.9200005976563,2|0,1:0|0:0,0:0:0:0:
277,225,50107,1,10,0:0:0:0:
177,50,50265,2,0,P|111:39|68:57,1,97.9200005976563,0|2,1:0|0:0,0:0:0:0:
233,144,50581,1,0,1:0:0:0:
400,30,50739,2,0,P|466:19|509:37,1,97.9200005976563,8|0,0:0|0:0,0:0:0:0:
448,299,51055,6,0,B|407:187|497:229|439:93,1,195.840001195313,2|10,1:0|0:0,0:0:0:0:
365,341,51529,2,0,L|237:320,1,97.9200005976563,0|2,1:0|0:0,0:0:0:0:
162,97,51844,1,0,1:0:0:0:
343,253,52002,2,0,L|215:232,1,97.9200005976563,10|0,0:0|0:0,0:0:0:0:
191,11,52318,6,0,P|246:52|254:90,1,97.9200005976563,2|0,1:0|0:0,0:0:0:0:
164,221,52634,2,0,P|184:177|226:154,1,97.9200005976563,10|0,0:0|1:0,0:0:0:0:
131,361,52950,2,0,L|23:346,1,97.9200005976563,2|0,0:0|1:0,0:0:0:0:
246,237,53265,2,0,L|354:222,1,97.9200005976563,10|0,0:0|0:0,0:0:0:0:
486,363,53581,5,2,1:0:0:0:
398,136,53739,2,0,P|416:66|436:33,1,97.9200005976563,2|8,0:0|0:0,0:0:0:0:
333,254,54055,2,0,P|354:298|363:345,1,97.9200005976563,2|0,1:0|0:0,0:0:0:0:
226,92,54371,1,2,1:0:0:0:
161,322,54529,2,0,P|95:309|52:284,1,97.9200005976563,10|0,0:0|0:0,0:0:0:0:
92,28,54844,6,0,P|143:115|148:236,1,195.840001195313,2|8,1:0|0:0,0:0:0:0:
320,55,55318,2,0,P|407:34|442:144,1,195.840001195313,2|0,1:0|1:0,0:0:0:0:
335,344,55792,2,0,P|315:282|337:233,1,97.9200005976563,10|0,0:0|0:0,0:0:0:0:
377,107,56107,5,2,1:0:0:0:
425,195,56265,1,0,0:0:0:0:
243,150,56423,1,10,0:0:0:0:
292,239,56581,1,0,0:0:0:0:
388,77,56739,5,10,0:0:0:0:
330,315,56897,1,0,1:0:0:0:
172,79,57055,1,10,0:0:0:0:
230,317,57213,1,0,1:0:0:0:
278,22,57371,6,0,L|316:129,1,97.9200005976563,6|0,3:0|0:0,0:0:0:0:
132,311,57686,2,0,L|166:219,1,97.9200005976563,10|0,3:0|0:0,0:0:0:0:
387,164,58002,1,6,3:0:0:0:
230,317,58160,1,10,0:0:0:0:
280,194,58318,1,10,0:0:0:0:
348,268,58476,1,10,0:0:0:0:
184,93,58634,6,0,L|71:79,1,97.9200005976563,6|0,1:0|0:0,0:0:0:0:
274,28,58950,1,8,0:0:0:0:
448,76,59107,2,0,L|350:88,1,97.9200005976563,0|2,1:0|0:0,0:0:0:0:
508,154,59423,1,0,1:0:0:0:
281,162,59581,2,0,L|185:226,1,97.9200005976563,8|0,0:0|0:0,0:0:0:0:
447,249,59897,6,0,P|420:180|389:162,1,97.9200005976563,2|0,1:0|0:0,0:0:0:0:
344,351,60213,1,8,0:0:0:0:
281,162,60371,2,0,P|217:115|184:117,1,97.9200005976563,0|2,1:0|0:0,0:0:0:0:
65,283,60686,1,0,1:0:0:0:
125,73,60844,2,0,P|189:26|222:28,1,97.9200005976563,8|0,0:0|0:0,0:0:0:0:
391,131,61160,6,0,B|265:156|330:87|181:118,1,195.840001195313,2|10,1:0|0:0,0:0:0:0:
441,58,61634,2,0,P|480:111|464:168,1,97.9200005976563,0|2,1:0|0:0,0:0:0:0:
384,270,61950,1,0,1:0:0:0:
150,207,62107,2,0,L|270:183,1,97.9200005976563,10|0,0:0|0:0,0:0:0:0:
386,363,62423,6,0,L|266:339,1,97.9200005976563,2|0,1:0|0:0,0:0:0:0:
302,121,62739,2,0,P|336:184|330:218,1,97.9200005976563,10|0,0:0|1:0,0:0:0:0:
203,362,63055,2,0,P|205:313|234:275,1,97.9200005976563,2|0,0:0|1:0,0:0:0:0:
495,247,63371,2,0,P|405:254|385:222,1,97.9200005976563,10|0,0:0|0:0,0:0:0:0:
335,51,63686,5,2,1:0:0:0:
246,187,63844,2,0,L|111:167,1,97.9200005976563,2|8,0:0|0:0,0:0:0:0:
437,88,64160,2,0,L|447:195,1,97.9200005976563,2|0,1:0|0:0,0:0:0:0:
280,298,64476,1,2,1:0:0:0:
227,107,64634,2,0,L|236:9,1,97.9200005976563,10|0,0:0|0:0,0:0:0:0:
366,243,64950,5,2,1:0:0:0:
200,355,65107,2,0,P|136:342|97:318,1,97.9200005976563,2|8,0:0|0:0,0:0:0:0:
86,63,65423,2,0,P|135:120|139:164,1,97.9200005976563,2|0,1:0|0:0,0:0:0:0:
30,297,65739,1,0,1:0:0:0:
222,131,65897,2,0,P|298:117|354:129,1,97.9200005976563,10|0,0:0|0:0,0:0:0:0:
398,303,66213,5,2,1:0:0:0:
290,340,66371,1,0,0:0:0:0:
381,176,66529,1,10,0:0:0:0:
282,200,66687,1,0,0:0:0:0:
414,335,66844,5,10,0:0:0:0:
199,217,67003,1,0,1:0:0:0:
468,126,67160,1,10,0:0:0:0:
223,120,67319,1,0,1:0:0:0:
494,281,67476,5,6,1:0:0:0:
55,267,67792,1,6,1:0:0:0:
453,35,68107,1,6,1:0:0:0:
270,247,68423,1,8,0:0:0:0:
270,247,68739,6,0,L|264:152,1,88.3199970351563,2|0,1:0|0:0,0:0:0:0:
101,62,69055,1,10,0:0:0:0:
200,30,69213,1,10,0:0:0:0:
39,147,69371,2,0,L|33:235,1,88.3199970351563,2|0,1:0|0:0,0:0:0:0:
201,339,69686,1,10,0:0:0:0:
133,173,69844,2,0,L|138:261,1,88.3199970351563,2|0,0:0|1:0,0:0:0:0:
300,312,70160,1,2,1:0:0:0:
407,106,70318,2,0,L|401:194,1,88.3199970351563,10|0,0:0|1:0,0:0:0:0:
205,43,70634,2,0,L|210:131,1,88.3199970351563,2|0,1:0|0:0,0:0:0:0:
471,25,70950,1,10,0:0:0:0:
471,25,71265,6,0,L|461:216,1,176.639994070313,2|10,1:0|0:0,0:0:0:0:
304,77,71739,1,10,0:0:0:0:
228,263,71897,2,0,L|133:252,1,88.3199970351563,2|0,1:0|0:0,0:0:0:0:
268,171,72213,1,10,0:0:0:0:
316,308,72371,1,2,0:0:0:0:
261,154,72529,1,0,1:0:0:0:
198,338,72686,1,0,1:0:0:0:
402,311,72844,1,10,0:0:0:0:
252,137,73002,1,0,1:0:0:0:
184,349,73160,1,2,1:0:0:0:
245,121,73318,1,10,0:0:0:0:
297,332,73476,1,10,0:0:0:0:
297,332,73792,6,0,P|301:262|403:193,1,176.639994070313,2|10,1:0|0:0,0:0:0:0:
211,349,74265,1,10,0:0:0:0:
310,138,74423,2,0,P|398:108|465:178,1,176.639994070313,2|8,1:0|0:0,0:0:0:0:
184,267,74897,2,0,P|128:248|106:214,1,88.3199970351563,2|0,0:0|1:0,0:0:0:0:
377,195,75213,2,0,P|408:234|404:294,1,88.3199970351563,2|8,1:0|0:0,0:0:0:0:
266,295,75529,1,2,1:0:0:0:
299,141,75686,1,2,1:0:0:0:
345,321,75844,1,2,0:0:0:0:
247,205,76002,1,10,0:0:0:0:
428,351,76160,1,2,0:0:0:0:
353,78,76318,6,0,P|309:56|259:71,1,88.3199970351563,2|2,1:0|0:0,0:0:0:0:
166,220,76634,2,0,P|203:198|246:204,1,88.3199970351563,10|10,0:0|0:0,0:0:0:0:
451,182,76950,2,0,P|391:175|348:154,1,88.3199970351563,2|0,1:0|0:0,0:0:0:0:
104,134,77265,2,0,P|164:127|207:106,1,88.3199970351563,10|0,0:0|0:0,0:0:0:0:
283,281,77581,5,10,1:2:0:0:
263,52,77739,1,2,1:0:0:0:
376,272,77897,2,0,P|373:331|366:373,1,88.3199970351563,10|0,1:2|0:0,0:0:0:0:
189,116,78213,2,0,P|183:72|181:28,1,88.3199970351563,2|0,1:0|0:0,0:0:0:0:
88,301,78529,1,8,0:0:0:0:
88,301,78844,6,0,P|132:283|156:281,1,49.9199996953125,2|0,0:0|0:0,0:0:0:0:
249,230,79160,2,0,P|208:222|138:185,1,99.839999390625,2|0,0:0|3:0,0:0:0:0:
409,112,79792,2,0,P|392:143|388:166,1,49.9199996953125,2|0,0:0|0:0,0:0:0:0:
447,277,80107,2,0,P|445:232|474:170,2,99.839999390625,2|2|2,0:0|0:0|3:0,0:0:0:0:
328,79,81055,1,2,0:0:0:0:
128,237,81371,6,0,P|171:221|188:214,1,49.9199996953125,2|0,0:0|0:0,0:0:0:0:
206,128,81686,2,0,P|229:137|252:145,1,49.9199996953125,2|0,0:0|0:0,0:0:0:0:
378,236,82002,2,0,P|354:227|331:218,1,49.9199996953125,2|0,3:0|0:0,0:0:0:0:
299,127,82318,2,0,P|275:136|252:144,1,49.9199996953125,2|0,0:0|0:0,0:0:0:0:
256,282,82634,2,0,P|236:247|242:330,1,299.519998171875,2|0,0:0|0:0,0:0:0:0:
407,84,83897,6,0,P|361:81|296:60,1,99.839999390625,2|2,0:0|0:0,0:0:0:0:
165,128,84371,1,2,0:0:0:0:
235,48,84529,2,0,P|242:103|248:111,2,49.9199996953125,2|2|2,3:0|0:0|0:0,0:0:0:0:
264,169,85002,1,2,0:0:0:0:
165,128,85160,2,0,L|112:123,1,49.9199996953125,2|0,0:0|0:0,0:0:0:0:
216,257,85476,2,0,L|269:252,1,49.9199996953125,2|0,0:0|0:0,0:0:0:0:
384,115,85792,2,0,P|364:147|360:178,1,49.9199996953125,2|0,3:0|0:0,0:0:0:0:
355,343,86107,2,0,P|375:311|379:280,1,49.9199996953125,2|0,0:0|0:0,0:0:0:0:
432,62,86423,6,0,L|441:180,1,99.839999390625,2|0,0:0|0:0,0:0:0:0:
446,242,86897,1,2,0:0:0:0:
334,71,87055,2,0,B|276:64|294:98|226:93,1,99.839999390625,2|0,3:0|0:0,0:0:0:0:
161,72,87529,1,2,0:0:0:0:
274,229,87686,2,0,P|275:180|205:265,1,299.519998171875,2|0,0:0|0:0,0:0:0:0:
438,342,88950,5,2,1:0:0:0:
438,342,89265,1,2,1:0:0:0:
438,342,89581,1,2,1:0:0:0:
438,342,89897,6,0,B|394:307|332:323|332:323|327:318|327:318|325:325|325:325|272:365|196:322,1,233.280005695313,12|0,0:0|0:0,0:0:0:0:
150,293,90213,6,0,P|137:230|115:154,1,117.119995174805,6|0,1:0|0:0,0:0:0:0:
313,33,90529,1,10,0:0:0:0:
250,221,90686,2,0,P|234:277|223:334,1,117.119995174805,2|0,0:0|1:0,0:0:0:0:
160,111,91002,2,0,P|97:106|53:150,1,117.119995174805,2|8,0:0|0:0,0:0:0:0:
250,221,91318,2,0,P|313:226|357:182,1,117.119995174805,2|0,0:0|1:0,0:0:0:0:
123,179,91634,5,2,0:0:0:0:
287,151,91792,1,10,0:0:0:0:
185,349,91950,1,2,0:0:0:0:
391,135,92107,2,0,L|375:276,1,117.119995174805,2|0,1:0|0:0,0:0:0:0:
183,50,92423,2,0,L|207:190,1,117.119995174805,10|0,0:0|0:0,0:0:0:0:
296,348,92739,6,0,B|278:320|278:320|268:229,1,117.119995174805,2|0,1:0|0:0,0:0:0:0:
293,42,93055,1,10,0:0:0:0:
177,247,93213,2,0,B|195:275|195:275|205:366,1,117.119995174805,2|0,0:0|1:0,0:0:0:0:
347,106,93529,2,0,B|374:86|374:86|464:71,1,117.119995174805,2|8,0:0|0:0,0:0:0:0:
173,65,93844,2,0,B|145:45|145:45|55:30,1,117.119995174805,2|0,0:0|1:0,0:0:0:0:
289,168,94160,5,2,0:0:0:0:
108,122,94318,1,10,0:0:0:0:
347,106,94476,1,2,0:0:0:0:
197,266,94634,2,0,L|210:393,1,117.119995174805,2|0,1:0|0:0,0:0:0:0:
108,122,94950,2,0,L|95:249,1,117.119995174805,10|0,0:0|0:0,0:0:0:0:
292,41,95265,6,0,P|361:26|404:176,1,234.23999034961,2|10,1:0|0:0,0:0:0:0:
197,266,95739,2,0,P|206:199|277:141,1,117.119995174805,2|0,0:0|1:0,0:0:0:0:
475,247,96055,2,0,P|466:314|395:372,1,117.119995174805,2|8,0:0|0:0,0:0:0:0:
127,304,96371,6,0,B|211:288|211:288|270:315|270:315|376:296,1,234.23999034961,6|0,0:0|0:0,0:0:0:0:
235,116,96844,2,0,P|274:194|283:246,1,117.119995174805,10|0,0:0|0:0,0:0:0:0:
450,80,97160,2,0,P|411:158|402:210,1,117.119995174805,2|0,1:0|0:0,0:0:0:0:
255,39,97476,2,0,P|183:50|160:125,1,117.119995174805,10|0,0:0|0:0,0:0:0:0:
277,336,97792,6,0,B|292:258|292:258|275:206,1,117.119995174805,2|0,1:0|0:0,0:0:0:0:
235,116,98107,1,10,0:0:0:0:
93,250,98265,2,0,B|128:273|128:273|222:240,1,117.119995174805,2|0,0:0|1:0,0:0:0:0:
340,114,98581,2,0,B|305:91|305:91|211:124,1,117.119995174805,2|8,0:0|0:0,0:0:0:0:
164,347,98897,1,2,0:0:0:0:
199,41,99055,5,10,1:2:0:0:
272,198,99213,1,2,1:0:0:0:
380,34,99371,5,10,0:0:0:0:
269,282,99529,1,2,1:0:0:0:
48,64,99686,5,10,1:2:0:0:
349,248,99844,1,2,1:0:0:0:
3,179,100002,5,10,0:0:0:0:
433,109,100160,1,2,1:0:0:0:
126,238,100318,6,0,P|86:321|95:360,1,117.119995174805,6|0,1:0|0:0,0:0:0:0:
310,226,100634,1,10,0:0:0:0:
173,43,100792,2,0,P|117:27|62:44,1,117.119995174805,2|0,0:0|1:0,0:0:0:0:
257,318,101107,2,0,P|312:333|367:316,1,117.119995174805,2|8,0:0|0:0,0:0:0:0:
288,82,101423,1,2,0:0:0:0:
133,256,101581,1,0,1:0:0:0:
310,226,101739,1,2,0:0:0:0:
104,111,101897,1,8,0:0:0:0:
315,229,102055,1,2,0:0:0:0:
82,29,102213,5,2,1:0:0:0:
136,270,102371,1,2,0:0:0:0:
274,0,102529,1,10,0:0:0:0:
319,239,102686,1,2,0:0:0:0:
104,111,102844,6,0,B|33:139|33:139|14:192,1,117.119995174805,2|0,1:0|0:0,0:0:0:0:
204,325,103160,1,10,0:0:0:0:
427,159,103318,2,0,B|413:120|413:120|342:92,1,117.119995174805,2|0,0:0|1:0,0:0:0:0:
136,270,103634,2,0,P|117:350|138:388,1,117.119995174805,2|8,0:0|0:0,0:0:0:0:
319,239,103950,1,6,0:0:0:0:
76,205,104107,1,0,1:0:0:0:
338,101,104265,1,2,0:0:0:0:
303,365,104423,1,8,0:0:0:0:
132,139,104581,1,2,0:0:0:0:
415,83,104739,5,2,1:0:0:0:
294,352,104897,1,2,0:0:0:0:
242,121,105055,1,10,0:0:0:0:
478,323,105213,1,2,3:0:0:0:
251,214,105371,6,0,B|161:194|182:268|76:250|76:250|118:216,1,234.23999034961,6|10,1:0|0:0,0:0:0:0:
444,133,105844,2,0,L|466:287,1,117.119995174805,2|0,0:0|1:0,0:0:0:0:
241,121,106160,2,0,L|250:0,1,117.119995174805,2|8,0:0|0:0,0:0:0:0:
362,235,106476,2,0,L|340:389,1,117.119995174805,2|0,0:0|1:0,0:0:0:0:
163,174,106792,2,0,L|146:58,1,117.119995174805,2|8,0:0|0:0,0:0:0:0:
95,328,107107,1,2,0:0:0:0:
338,153,107265,2,0,B|401:134|394:186|483:148,1,117.119995174805,2|0,1:0|0:0,0:0:0:0:
120,245,107581,2,0,B|57:226|64:278|-25:240,1,117.119995174805,10|0,0:0|0:0,0:0:0:0:
153,33,107897,6,0,P|166:96|161:119,1,58.5599975874024,2|0,1:0|3:0,0:0:0:0:
35,174,108055,2,0,P|37:144|48:117,1,58.5599975874024,2|0,1:0|3:0,0:0:0:0:
195,202,108213,2,0,P|208:265|203:288,1,58.5599975874024,10|0,0:0|3:0,0:0:0:0:
95,328,108371,1,2,0:0:0:0:
262,134,108529,6,0,L|330:117,1,58.5599975874024,2|0,1:0|3:0,0:0:0:0:
417,251,108686,2,0,L|360:236,1,58.5599975874024,2|0,1:0|3:0,0:0:0:0:
389,34,108844,2,0,L|406:161,1,117.119995174805,10|0,0:0|0:0,0:0:0:0:
198,338,109160,6,0,P|138:342|123:336,1,58.5599975874024,2|0,1:0|3:0,0:0:0:0:
63,204,109318,2,0,P|123:200|138:206,1,58.5599975874024,10|0,0:0|3:0,0:0:0:0:
265,253,109476,2,0,P|205:257|190:251,1,58.5599975874024,2|0,1:0|3:0,0:0:0:0:
109,116,109634,1,10,0:0:0:0:
433,184,109792,6,0,L|351:173,1,58.5599975874024,2|0,1:0|3:0,0:0:0:0:
202,102,109950,2,0,L|284:91,1,58.5599975874024,10|0,0:0|3:0,0:0:0:0:
350,255,110107,1,10,0:0:0:0:
396,40,110265,1,8,0:0:0:0:
243,206,114213,5,2,1:0:0:0:
159,133,114371,1,0,1:0:0:0:
304,88,114529,1,2,1:0:0:0:
311,267,114686,1,0,1:0:0:0:
215,59,114844,1,2,1:0:0:0:
482,137,115002,1,0,1:0:0:0:
50,230,115160,1,14,0:0:0:0:
494,298,115318,1,14,0:0:0:0:
215,114,115476,6,0,P|138:144|109:194,1,117.119995174805,2|0,1:0|0:0,0:0:0:0:
234,350,115792,1,10,0:0:0:0:
365,216,115950,2,0,P|386:162|376:105,1,117.119995174805,2|0,0:0|1:0,0:0:0:0:
222,239,116265,2,0,P|212:295|233:349,1,117.119995174805,2|8,0:0|0:0,0:0:0:0:
448,242,116581,2,0,B|374:254|374:254|303:225|303:225|182:245,1,234.23999034961,6|0,0:0|0:0,0:0:0:0:
29,345,117055,2,0,B|103:354|103:354|147:333,1,117.119995174805,10|0,0:0|0:0,0:0:0:0:
254,148,117371,2,0,B|180:139|180:139|136:160,1,117.119995174805,2|0,1:0|0:0,0:0:0:0:
325,326,117686,2,0,B|363:344|363:344|437:335,1,117.119995174805,10|0,0:0|0:0,0:0:0:0:
304,83,118002,6,0,P|304:171|328:211,1,117.119995174805,2|0,1:0|0:0,0:0:0:0:
450,326,118318,1,10,0:0:0:0:
389,89,118476,2,0,P|366:17|319:-3,1,117.119995174805,2|2,0:0|1:0,0:0:0:0:
237,187,118792,2,0,P|260:259|307:279,1,117.119995174805,2|8,0:0|0:0,0:0:0:0:
444,154,119107,1,2,0:0:0:0:
150,171,119265,5,10,0:0:0:0:
360,329,119423,1,0,1:0:0:0:
250,98,119581,5,10,0:0:0:0:
223,369,119739,1,0,1:0:0:0:
133,133,119897,5,10,0:0:0:0:
391,323,120055,1,0,1:0:0:0:
66,260,120213,5,10,0:0:0:0:
309,39,120371,1,8,0:0:0:0:
316,193,120529,6,0,P|279:189|249:148,1,89.279996458008,2|0,0:0|0:0,0:0:0:0:
315,121,120844,2,0,L|329:327,1,204.479989703614,12|0,0:0|0:0,0:0:0:0:
330,348,121160,6,0,P|293:325|246:336,1,89.279996458008,2|0,0:0|0:0,0:0:0:0:
210,361,121476,2,0,B|233:299|233:299|181:127,1,204.479989703614,12|0,0:0|0:0,0:0:0:0:
182,140,121792,6,0,P|147:169|106:164,1,89.279996458008,2|0,0:0|0:0,0:0:0:0:
125,95,122107,2,0,L|355:116,1,204.479989703614,12|0,0:0|0:0,0:0:0:0:
374,79,122423,6,0,P|363:123|390:167,1,89.279996458008,2|0,0:0|0:0,0:0:0:0:
441,110,122739,2,0,P|384:176|457:276,1,204.479989703614,12|0,0:0|0:0,0:0:0:0:
475,261,123055,6,0,L|470:362,1,89.279996458008,2|0,0:0|0:0,0:0:0:0:
398,351,123371,2,0,B|332:333|332:333|264:351|264:351|167:324,1,204.479989703614,12|0,0:0|0:0,0:0:0:0:
142,317,123686,6,0,P|185:305|210:260,1,89.279996458008,2|0,0:0|0:0,0:0:0:0:
138,240,124002,2,0,B|112:101|187:194|158:24,1,204.479989703614,12|0,0:0|0:0,0:0:0:0:
89,96,124318,5,0,1:0:0:0:
208,192,124476,1,0,1:0:0:0:
35,299,124634,1,8,0:0:0:0:
315,275,124792,1,0,1:0:0:0:
161,43,124950,1,8,0:0:0:0:
266,354,125107,1,8,0:0:0:0:
455,64,125265,1,8,0:0:0:0:
11,131,125423,1,8,0:0:0:0:
320,192,125581,6,0,L|440:168,1,117.119995174805,2|0,1:0|0:0,0:0:0:0:
248,40,125897,1,10,0:0:0:0:
151,212,126055,2,0,L|173:331,1,117.119995174805,2|0,0:0|1:0,0:0:0:0:
320,192,126371,2,0,L|341:76,1,117.119995174805,2|8,0:0|0:0,0:0:0:0:
154,13,126686,2,0,L|175:128,1,117.119995174805,2|0,0:0|1:0,0:0:0:0:
257,317,127002,2,0,L|235:201,1,117.119995174805,2|8,0:0|0:0,0:0:0:0:
52,84,127318,1,2,0:0:0:0:
40,258,127476,2,0,B|83:246|83:246|105:230|105:230|156:217,1,117.119995174805,2|0,1:0|0:0,0:0:0:0:
374,158,127792,2,0,B|331:146|331:146|309:130|309:130|258:117,1,117.119995174805,10|0,0:0|0:0,0:0:0:0:
405,295,128107,5,2,1:0:0:0:
364,69,128265,1,2,1:0:0:0:
258,325,128423,1,10,0:0:0:0:
368,60,128581,1,2,0:0:0:0:
409,305,128739,5,2,1:0:0:0:
135,238,128897,1,2,1:0:0:0:
432,125,129055,1,10,0:0:0:0:
126,243,129213,1,2,0:0:0:0:
417,310,129371,5,2,1:0:0:0:
253,115,129529,2,0,L|183:104,1,58.5599975874024,10|0,0:0|3:0,0:0:0:0:
9,252,129686,2,0,L|164:239,1,117.119995174805,10|0,0:0|0:0,0:0:0:0:
378,252,130002,6,0,L|304:235,1,58.5599975874024,2|0,1:0|3:0,0:0:0:0:
132,159,130160,1,10,0:0:0:0:
422,124,130318,2,0,L|348:107,1,58.5599975874024,2|0,1:0|3:0,0:0:0:0:
176,31,130476,1,10,0:0:0:0:
176,31,131581,5,10,0:0:0:0:
189,125,131739,1,2,0:0:0:0:
384,175,131897,1,6,1:0:0:0:
290,220,132055,1,2,0:0:0:0:
399,53,132213,1,10,0:0:0:0:
470,197,132371,1,2,0:0:0:0:
315,119,132529,1,2,1:0:0:0:
315,119,132686,2,0,B|290:123|290:123|276:113|276:113|239:126|177:114,1,117.119995174805,2|8,0:0|0:0,0:0:0:0:
31,237,133002,2,0,B|56:241|56:241|70:231|70:231|107:244|169:232,1,117.119995174805,2|0,0:0|1:0,0:0:0:0:
107,43,133318,2,0,B|96:118|144:86|117:185,1,117.119995174805,2|8,0:0|0:0,0:0:0:0:
213,338,133634,2,0,B|200:276|240:299|229:224,1,117.119995174805,2|0,0:0|1:0,0:0:0:0:
46,141,133950,1,2,0:0:0:0:
128,353,134107,1,10,0:0:0:0:
222,139,134265,6,0,B|254:139|277:152|277:152|278:139|278:139|309:156|358:157,1,117.119995174805,2|4,0:0|1:0,0:0:0:0:
452,268,134581,1,2,0:0:0:0:
452,268,134660,1,2,0:0:0:0:
452,268,134739,1,10,0:0:0:0:
331,67,134897,1,2,0:0:0:0:
329,283,135055,1,2,1:0:0:0:
456,156,135213,2,0,B|462:107|440:73|440:73|402:59,1,117.119995174805,2|8,0:0|0:0,0:0:0:0:
186,202,135529,2,0,B|221:203|245:187|245:187|269:214|269:214|311:185|417:173|385:276|467:259|515:240|538:194,1,351.359985524415,2|8,0:0|0:0,0:0:0:0:
292,120,136160,1,2,0:0:0:0:
292,120,136239,1,2,0:0:0:0:
292,120,136318,1,2,1:0:0:0:
329,283,136476,2,0,B|331:325|311:365|311:365|268:338,1,117.119995174805,2|8,0:0|0:0,0:0:0:0:
173,199,136792,1,2,0:0:0:0:
384,213,136950,5,2,1:0:0:0:
254,241,137107,1,2,0:0:0:0:
306,29,137265,1,10,0:0:0:0:
308,165,137423,1,2,0:0:0:0:
106,88,137581,1,2,1:0:0:0:
241,92,137739,1,2,0:0:0:0:
126,283,137897,1,10,0:0:0:0:
11,82,138055,2,0,B|11:116|11:116|21:128|21:128|11:176|22:205,1,117.119995174805,6|0,0:0|1:0,0:0:0:0:
134,290,138371,5,2,0:0:0:0:
228,237,138529,1,10,0:0:0:0:
126,174,138686,1,2,0:0:0:0:
132,336,138844,1,2,1:0:0:0:
283,231,139002,1,2,0:0:0:0:
81,137,139160,1,10,0:0:0:0:
106,384,139318,1,2,0:0:0:0:
253,151,139476,6,0,B|281:133|315:148|315:148|352:160|389:144,1,117.119995174805,6|0,1:0|0:0,0:0:0:0:
197,53,139792,1,10,0:0:0:0:
142,306,139950,2,0,B|114:288|80:303|80:303|43:315|6:299,1,117.119995174805,2|0,0:0|1:0,0:0:0:0:
325,226,140265,2,0,B|385:258|385:258|414:320,1,117.119995174805,2|8,0:0|0:0,0:0:0:0:
148,215,140581,1,2,0:0:0:0:
253,327,140739,5,2,1:0:0:0:
282,125,140897,1,2,1:0:0:0:
166,348,141055,1,10,0:0:0:0:
87,144,141213,1,2,0:0:0:0:
266,339,141371,1,2,1:0:0:0:
293,94,141529,1,2,1:0:0:0:
159,365,141686,1,10,0:0:0:0:
66,120,141844,1,2,1:0:0:0:
272,247,142002,5,6,1:0:0:0:
116,233,142160,1,2,0:0:0:0:
335,184,142318,2,0,B|366:239|360:278|360:278|321:311,1,117.119995174805,10|0,0:0|0:0,0:0:0:0:
197,165,142634,1,2,1:0:0:0:
196,321,142792,1,2,0:0:0:0:
128,107,142950,2,0,B|180:71|219:73|219:73|255:109,1,117.119995174805,10|0,0:0|0:0,0:0:0:0:
328,306,143265,5,2,1:0:0:0:
102,342,143423,1,2,0:0:0:0:
330,184,143581,1,10,0:0:0:0:
61,147,143739,1,2,0:0:0:0:
401,41,143897,2,0,B|388:114|388:114|420:180|420:180|408:289,1,234.23999034961,2|8,1:0|0:0,0:0:0:0:
473,110,144371,1,0,0:0:0:0:
243,211,144529,6,0,B|155:221|155:221|104:183,1,117.119995174805,2|0,1:0|0:0,0:0:0:0:
275,50,144844,1,10,0:0:0:0:
299,273,145002,2,0,B|387:283|387:283|438:245,1,117.119995174805,2|0,0:0|1:0,0:0:0:0:
259,130,145318,1,2,0:0:0:0:
217,320,145476,2,0,B|129:330|129:330|78:292,1,117.119995174805,10|0,0:0|0:0,0:0:0:0:
136,29,145792,6,0,B|173:67|173:67|165:248,1,234.23999034961,2|8,1:0|0:0,0:0:0:0:
96,107,146265,1,0,0:0:0:0:
319,45,146423,2,0,B|333:46|345:41|345:41|360:49|360:49|401:34|453:50,1,117.119995174805,2|0,1:0|0:0,0:0:0:0:
278,248,146739,2,0,B|264:249|252:244|252:244|237:252|237:252|196:237|144:253,1,117.119995174805,10|0,0:0|0:0,0:0:0:0:
401,122,147055,6,0,B|424:149|427:179|427:179|412:217|373:238|373:238|367:293|425:354,1,234.23999034961,2|8,1:0|0:0,0:0:0:0:
329,168,147529,1,0,0:0:0:0:
179,326,147686,2,0,B|137:335|137:335|83:313|76:254,1,117.119995174805,0|0,1:0|0:0,0:0:0:0:
138,103,148002,1,10,0:0:0:0:
164,247,148160,1,2,0:0:0:0:
42,94,148318,5,2,1:0:0:0:
235,104,148476,1,2,0:0:0:0:
85,285,148634,1,10,0:0:0:0:
251,216,148792,1,2,0:0:0:0:
151,57,148950,2,0,B|136:101|136:101|163:191,1,117.119995174805,0|0,1:0|0:0,0:0:0:0:
245,327,149265,2,0,B|265:259|265:259|250:215,1,117.119995174805,8|0,0:0|0:0,0:0:0:0:
72,178,149581,6,0,P|136:164|148:167,1,58.5599975874024,2|0,1:0|3:0,0:0:0:0:
275,221,149739,2,0,P|304:218|330:205,1,58.5599975874024,2|0,1:0|3:0,0:0:0:0:
450,111,149897,1,10,0:0:0:0:
308,46,150055,1,2,0:0:0:0:
179,249,150213,2,0,L|105:244,1,58.5599975874024,2|0,1:0|3:0,0:0:0:0:
127,79,150371,2,0,L|185:75,1,58.5599975874024,2|0,1:0|3:0,0:0:0:0:
330,205,150529,2,0,L|319:324,1,117.119995174805,10|0,0:0|0:0,0:0:0:0:
49,277,150844,6,0,P|52:213|64:196,1,58.5599975874024,2|0,1:0|3:0,0:0:0:0:
260,157,151002,2,0,P|265:128|260:99,1,58.5599975874024,10|0,0:0|3:0,0:0:0:0:
42,30,151160,1,10,0:0:0:0:
150,188,151318,1,2,0:0:0:0:
409,25,151476,6,0,L|421:102,1,58.5599975874024,2|0,1:0|3:0,0:0:0:0:
366,308,151634,1,8,0:0:0:0:
186,24,151792,2,0,L|174:101,1,58.5599975874024,0|0,1:0|3:0,0:0:0:0:
229,307,151950,1,8,0:0:0:0:
229,307,152107,6,0,L|102:289,2,119.039995277344,2|2|2,0:0|0:0|0:0,0:0:0:0:
294,242,153055,1,2,0:0:0:0:
162,103,153371,6,0,L|176:239,2,119.039995277344,2|2|2,0:0|0:0|0:0,0:0:0:0:
225,32,154318,1,2,0:0:0:0:
453,140,154634,6,0,B|335:138|401:215|263:206,1,190.079999419922,10|0,1:2|0:0,0:0:0:0:
209,178,154950,2,0,P|302:186|372:299,1,190.079999419922,10|0,1:2|0:0,0:0:0:0:
434,306,155265,2,0,L|188:287,1,190.079999419922,10|0,1:2|0:0,0:0:0:0:
185,342,155581,2,0,B|201:275|201:275|177:229|177:229|200:103,1,190.079999419922,10|0,1:2|0:0,0:0:0:0:
154,94,155897,6,0,P|184:40|275:184,1,342.720002091797,14|0,0:0|0:0,0:0:0:0:
240,106,156529,1,2,1:0:0:0:
