osu file format v14

[General]
AudioFilename: audio.mp3
AudioLeadIn: 0
PreviewTime: 235479
Countdown: 0
SampleSet: Normal
StackLeniency: 0.7
Mode: 2
LetterboxInBreaks: 0
WidescreenStoryboard: 0

[Editor]
Bookmarks: 534,1797,18218,28323,38428,48534,68744,88955,138218,162218,203902,224112,235481,277165,297376
DistanceSpacing: 1
BeatDivisor: 4
GridSize: 4
TimelineZoom: 1.1

[Metadata]
Title:SANTA SAN
TitleUnicode:サンタさん
Artist:MOMOIRO CLOVER Z
ArtistUnicode:ももいろクローバーZ
Creator:RedBall
Version:SNOW SAN
Source:
Tags:christmas marathon メリー クリスマス ココナッツ coconuts momoclo takagi reni momota kanako ariyasu momoka tamai shiori sasaki ayaka xmas extra
BeatmapID:1502026
BeatmapSetID:710584

[Difficulty]
HPDrainRate:6
CircleSize:4
OverallDifficulty:9
ApproachRate:9
SliderMultiplier:1.6
SliderTickRate:1

[Events]
//Background and Video events
0,0,"SANTA.png",0,0
//Break Periods
//Storyboard Layer 0 (Background)
//Storyboard Layer 1 (Fail)
//Storyboard Layer 2 (Pass)
//Storyboard Layer 3 (Foreground)
//Storyboard Sound Samples

[TimingPoints]
534,315.789473684211,4,3,0,20,1,0
1797,-100,4,2,41,25,0,0
9376,-111.111111111111,4,2,41,25,0,0
10639,-166.666666666667,4,2,41,25,0,0
15691,-200,4,2,41,25,0,0
16955,-100,4,2,41,25,0,0
18218,-90.9090909090909,4,1,41,35,0,1
28007,-90.9090909090909,4,1,41,30,0,0
28323,-100,4,1,41,30,0,0
38428,-100,4,1,42,45,0,0
47270,-100,4,1,41,30,0,0
78849,-100,4,2,41,25,0,0
87691,-100,4,1,41,30,0,0
88955,-100,4,1,41,35,0,1
109165,-100,4,1,41,30,0,0
114218,-100,4,1,41,35,0,1
129376,-100,4,2,41,25,0,0
134428,-100,4,1,41,30,0,0
162218,-100,4,1,41,35,0,1
182428,-100,4,1,41,30,0,0
187481,-100,4,1,41,35,0,1
202639,-100,4,2,41,25,0,0
203902,-100,4,1,41,30,0,0
224112,-100,4,2,41,25,0,0
234218,-100,4,1,41,30,0,0
235481,-100,4,1,41,35,0,1
255691,-100,4,2,41,25,0,0
259481,-100,4,1,41,30,0,0
260744,-100,4,1,41,35,0,1
275902,-100,4,2,41,25,0,0
277165,-100,4,1,41,30,0,0
297376,-100,4,2,41,25,0,0
299902,-100,4,1,41,30,0,0

[Colours]
Combo1 : 255,128,128
Combo2 : 128,255,255
Combo3 : 255,255,255
Combo4 : 0,255,0
Combo5 : 128,64,64
Combo6 : 0,128,0
Combo7 : 255,185,0
Combo8 : 255,0,0

[HitObjects]
256,192,534,12,0,1481,0:0:0:0:
112,216,1797,6,0,L|280:216,1,160
384,152,2428,1,0,0:0:0:0:
192,152,2744,1,0,0:0:0:0:
448,80,3060,2,0,P|488:152|448:224,1,160
296,240,3691,1,0,0:0:0:0:
488,240,4007,1,0,0:0:0:0:
104,240,4323,6,0,P|64:176|112:120,1,160
232,240,4955,2,0,L|424:88,1,240
288,80,5586,2,0,L|448:120,1,160
176,160,6218,2,0,L|320:248,1,160
456,192,6849,86,0,L|360:64,1,160
112,192,7481,2,0,L|248:104,1,160
368,192,8112,2,0,L|216:128,1,160
24,192,8744,2,0,L|192:168,1,160
360,296,9376,2,0,B|512:232|528:128|392:24|192:64,1,503.999984619141
112,344,10639,6,0,B|24:296|24:296|216:80,1,383.99998828125
120,80,12060,1,0,0:0:0:0:
168,80,12218,1,0,0:0:0:0:
216,80,12376,1,0,0:0:0:0:
72,80,12534,1,0,0:0:0:0:
400,344,13165,6,0,B|488:296|488:296|296:80,1,383.99998828125
400,80,14586,1,0,0:0:0:0:
344,80,14744,1,0,0:0:0:0:
288,80,14902,1,0,0:0:0:0:
432,80,15060,1,0,0:0:0:0:
120,272,15691,102,0,L|208:136,1,160
448,264,16955,102,0,L|344:192,1,120
296,200,17270,2,0,L|424:160,1,120
464,144,17586,2,0,L|344:112,1,120
204,120,17902,1,0,0:0:0:0:
396,328,18218,38,0,L|300:328,1,88.000002685547
160,268,18534,1,0,0:0:0:0:
268,268,18691,1,0,0:0:0:0:
184,184,18849,2,0,L|260:132,1,88.000002685547
20,132,19165,1,0,0:0:0:0:
268,52,19481,6,0,L|172:52,1,88.000002685547
344,128,19797,1,0,0:0:0:0:
236,128,19955,1,0,0:0:0:0:
324,184,20112,2,0,L|232:228,1,88.000002685547
476,236,20428,1,0,0:0:0:0:
212,88,20744,6,0,L|300:112,1,88.000002685547
76,116,21060,1,0,0:0:0:0:
152,116,21218,1,0,0:0:0:0:
300,200,21376,2,0,L|204:200,1,88.000002685547
64,248,21691,2,0,L|164:248,1,88.000002685547
432,240,22007,5,0,0:0:0:0:
56,240,22323,1,0,0:0:0:0:
308,240,22639,1,0,0:0:0:0:
212,240,22797,1,0,0:0:0:0:
472,240,22955,1,0,0:0:0:0:
204,88,23270,6,0,L|308:88,1,88.000002685547
52,164,23586,1,0,0:0:0:0:
160,164,23744,1,0,0:0:0:0:
320,232,23902,2,0,L|224:232,1,88.000002685547
472,300,24218,1,0,0:0:0:0:
364,300,24376,1,0,0:0:0:0:
204,224,24534,6,0,L|288:264,1,88.000002685547
44,164,24849,1,0,0:0:0:0:
152,168,25007,1,0,0:0:0:0:
312,120,25165,2,0,L|224:180,1,88.000002685547
480,64,25481,1,0,0:0:0:0:
372,68,25639,1,0,0:0:0:0:
124,80,25797,38,0,L|20:132,2,88.000002685547
272,80,26270,1,0,0:0:0:0:
24,196,26428,2,0,L|104:256,1,88.000002685547
352,184,26744,2,0,L|276:252,1,88.000002685547
28,48,27060,5,0,0:0:0:0:
284,176,27376,1,0,0:0:0:0:
28,272,27691,1,0,0:0:0:0:
428,280,28007,2,0,L|328:280,1,88.000002685547
92,208,28323,102,0,P|64:132|88:52,1,160
328,64,28797,1,0,0:0:0:0:
264,144,28955,2,0,L|352:144,1,80
184,208,29270,1,0,0:0:0:0:
424,64,29428,6,0,P|468:168|468:252,1,160
376,220,29902,2,0,L|292:220,2,80
148,152,30481,1,0,0:0:0:0:
140,144,30534,1,0,0:0:0:0:
332,112,30770,1,0,0:0:0:0:
344,116,30849,6,0,B|256:116|200:192,1,160
205,184,31323,1,0,0:0:0:0:
444,192,31481,2,0,B|356:192|300:268,1,160
456,320,31955,6,0,P|372:280|340:216,1,160
476,192,32428,1,0,0:0:0:0:
484,188,32507,1,0,0:0:0:0:
488,184,32586,1,0,0:0:0:0:
248,192,32744,2,0,L|320:144,1,80
32,148,33060,2,0,P|48:128|116:148,1,80
