osu file format v14

[General]
AudioFilename: audio.mp3
AudioLeadIn: 0
PreviewTime: 235479
Countdown: 0
SampleSet: None
StackLeniency: 0.7
Mode: 3
LetterboxInBreaks: 0
SpecialStyle: 0
WidescreenStoryboard: 0

[Editor]
Bookmarks: 534,1797,18218,28323,38428,48534,68744,88955,138218,162218,203902,224112,235481,277165,297376
DistanceSpacing: 1.4
BeatDivisor: 4
GridSize: 8
TimelineZoom: 1.3

[Metadata]
Title:SANTA SAN
TitleUnicode:サンタさん
Artist:MOMOIRO CLOVER Z
ArtistUnicode:ももいろクローバーZ
Creator:RedBall
Version:SIX KEY SAN
Source:
Tags:christmas marathon メリー クリスマス ココナッツ coconuts momoclo takagi reni momota kanako ariyasu momoka tamai shiori sasaki ayaka xmas extra
BeatmapID:1502025
BeatmapSetID:710584

[Difficulty]
HPDrainRate:8.5
CircleSize:6
OverallDifficulty:7.8
ApproachRate:5
SliderMultiplier:1.4
SliderTickRate:1

[Events]
//Background and Video events
0,0,"SANTA.png",0,0
//Break Periods
//Storyboard Layer 0 (Background)
//Storyboard Layer 1 (Fail)
//Storyboard Layer 2 (Pass)
//Storyboard Layer 3 (Foreground)
//Storyboard Sound Samples

[TimingPoints]
534,315.789473684211,4,3,0,20,1,0
1797,-100,4,2,41,25,0,0
17586,-83.3333333333333,4,2,41,25,0,0
17744,-125,4,2,41,25,0,0
17902,-71.4285714285714,4,2,41,25,0,0
18139,-166.666666666667,4,2,41,25,0,0
18218,-100,4,1,41,35,0,1
22007,-80,4,1,41,35,0,1
22165,-133.333333333333,4,1,41,35,0,1
22323,-80,4,1,41,35,0,1
22481,-133.333333333333,4,1,41,35,0,1
22639,-80,4,1,41,35,0,1
22718,-133.333333333333,4,1,41,35,0,1
22797,-100,4,1,41,35,0,1
22955,-80,4,1,41,35,0,1
23191,-133.333333333333,4,1,41,35,0,1
23270,-100,4,1,41,35,0,1
27060,-76.9230769230769,4,1,41,35,0,1
27218,-142.857142857143,4,1,41,35,0,1
27376,-76.9230769230769,4,1,41,35,0,1
27534,-142.857142857143,4,1,41,35,0,1
27691,-100,4,1,41,35,0,1
28007,-76.9230769230769,4,1,41,30,0,0
28244,-142.857142857143,4,1,41,30,0,0
28323,-100,4,1,41,30,0,0
35902,-71.4285714285714,4,1,41,30,0,0
35981,-166.666666666667,4,1,41,30,0,0
36218,-71.4285714285714,4,1,41,30,0,0
36297,-166.666666666667,4,1,41,30,0,0
36534,-71.4285714285714,4,1,41,30,0,0
36612,-166.666666666667,4,1,41,30,0,0
36849,-80,4,1,41,30,0,0
36928,-133.333333333333,4,1,41,30,0,0
37007,-100,4,1,41,30,0,0
38428,-100,4,1,42,45,0,0
47270,-80,4,1,41,30,0,0
47349,-133.333333333333,4,1,41,30,0,0
47428,-100,4,1,41,30,0,0
47586,-76.9230769230769,4,1,41,30,0,0
47744,-142.857142857143,4,1,41,30,0,0
47902,-76.9230769230769,4,1,41,30,0,0
48060,-142.857142857143,4,1,41,30,0,0
48218,-71.4285714285714,4,1,41,30,0,0
48455,-166.666666666667,4,1,41,30,0,0
48534,-100,4,1,41,30,0,0
67481,-76.9230769230769,4,1,41,30,0,0
67639,-142.857142857143,4,1,41,30,0,0
67797,-76.9230769230769,4,1,41,30,0,0
67955,-142.857142857143,4,1,41,30,0,0
68112,-100,4,1,41,30,0,0
78849,-100,4,2,41,25,0,0
87691,-100,4,1,41,30,0,0
88639,-71.4285714285714,4,1,41,30,0,0
88876,-166.666666666667,4,1,41,30,0,0
88955,-100,4,1,41,35,0,1
109165,-100,4,1,41,30,0,0
114218,-100,4,1,41,35,0,1
129376,-100,4,2,41,25,0,0
134428,-71.4285714285714,4,1,41,30,0,0
135060,-166.666666666667,4,1,41,30,0,0
135691,-71.4285714285714,4,1,41,30,0,0
136323,-166.666666666667,4,1,41,30,0,0
136955,-76.9230769230769,4,1,41,30,0,0
137112,-142.857142857143,4,1,41,30,0,0
137270,-76.9230769230769,4,1,41,30,0,0
137428,-142.857142857143,4,1,41,30,0,0
137586,-76.9230769230769,4,1,41,30,0,0
137744,-142.857142857143,4,1,41,30,0,0
137902,-76.9230769230769,4,1,41,30,0,0
138139,-142.857142857143,4,1,41,30,0,0
138218,-100,4,1,41,30,0,0
143270,-71.4285714285714,4,1,41,30,0,0
143902,-166.666666666667,4,1,41,30,0,0
144534,-71.4285714285714,4,1,41,30,0,0
145165,-166.666666666667,4,1,41,30,0,0
145797,-76.9230769230769,4,1,41,30,0,0
145955,-142.857142857143,4,1,41,30,0,0
146112,-76.9230769230769,4,1,41,30,0,0
146270,-142.857142857143,4,1,41,30,0,0
146428,-76.9230769230769,4,1,41,30,0,0
146586,-142.857142857143,4,1,41,30,0,0
146744,-76.9230769230769,4,1,41,30,0,0
146981,-142.857142857143,4,1,41,30,0,0
147060,-100,4,1,41,30,0,0
161902,-71.4285714285714,4,1,41,30,0,0
162139,-166.666666666667,4,1,41,30,0,0
162218,-100,4,1,41,35,0,1
182428,-100,4,1,41,30,0,0
187481,-100,4,1,41,35,0,1
202639,-100,4,2,41,25,0,0
203902,-100,4,1,41,30,0,0
224112,-100,4,2,41,25,0,0
234218,-100,4,1,41,30,0,0
235165,-71.4285714285714,4,1,41,30,0,0
235402,-166.666666666667,4,1,41,30,0,0
235481,-100,4,1,41,35,0,1
255691,-100,4,2,40,25,0,0
259481,-100,4,1,41,30,0,0
260744,-100,4,1,41,35,0,1
275902,-100,4,2,41,25,0,0
277165,-100,4,1,41,30,0,0
297376,-100,4,2,41,25,0,0
299902,-76.9230769230769,4,1,41,30,0,0
300060,-142.857142857143,4,1,41,30,0,0
300218,-76.9230769230769,4,1,41,30,0,0
300376,-142.857142857143,4,1,41,30,0,0
300534,-76.9230769230769,4,1,41,30,0,0
300691,-142.857142857143,4,1,41,30,0,0
300849,-76.9230769230769,4,1,41,30,0,0
301007,-142.857142857143,4,1,41,30,0,0
301165,-100,4,1,41,30,0,0

[HitObjects]
128,192,534,5,0,0:0:0:0:
384,192,534,1,0,0:0:0:0:
469,192,534,1,0,0:0:0:0:
213,192,639,1,0,0:0:0:0:
298,192,744,1,0,0:0:0:0:
384,192,849,1,0,0:0:0:0:
42,192,849,1,0,0:0:0:0:
128,192,955,1,0,0:0:0:0:
213,192,1060,1,0,0:0:0:0:
469,192,1165,1,0,0:0:0:0:
384,192,1165,1,0,0:0:0:0:
42,192,1165,1,0,0:0:0:0:
298,192,1270,1,0,0:0:0:0:
213,192,1376,1,0,0:0:0:0:
469,192,1481,1,0,0:0:0:0:
128,192,1481,1,0,0:0:0:0:
384,192,1586,1,0,0:0:0:0:
298,192,1691,1,0,0:0:0:0:
469,192,1797,1,2,0:0:0:0:
384,192,1797,1,0,0:0:0:0:
42,192,1797,1,2,0:0:0:0:
213,192,1797,128,0,2428:0:0:0:0:
298,192,2112,1,0,0:0:0:0:
128,192,2428,1,0,0:0:0:0:
384,192,2428,1,0,0:0:0:0:
469,192,2428,1,2,0:0:0:0:
298,192,2744,1,0,0:0:0:0:
213,192,2744,1,0,0:0:0:0:
128,192,3060,1,2,0:0:0:0:
298,192,3060,1,2,0:0:0:0:
384,192,3060,1,0,0:0:0:0:
42,192,3060,128,0,3691:0:0:0:0:
469,192,3376,1,0,0:0:0:0:
213,192,3691,1,0,0:0:0:0:
384,192,3691,1,0,0:0:0:0:
298,192,3691,1,2,0:0:0:0:
213,192,4007,1,0,0:0:0:0:
469,192,4007,1,0,0:0:0:0:
128,192,4323,1,0,0:0:0:0:
298,192,4323,1,2,0:0:0:0:
42,192,4323,1,2,0:0:0:0:
384,192,4323,128,0,4955:0:0:0:0:
213,192,4639,1,0,0:0:0:0:
42,192,4639,128,0,4955:0:0:0:0:
213,192,4955,1,0,0:0:0:0:
298,192,4955,1,2,0:0:0:0:
213,192,5270,1,0,0:0:0:0:
469,192,5270,1,0,0:0:0:0:
298,192,5428,1,0,0:0:0:0:
384,192,5586,1,0,0:0:0:0:
42,192,5586,1,2,0:0:0:0:
469,192,5586,1,2,0:0:0:0:
128,192,5586,128,0,6218:0:0:0:0:
298,192,5902,1,0,0:0:0:0:
213,192,6218,1,0,0:0:0:0:
384,192,6218,1,0,0:0:0:0:
469,192,6218,1,2,0:0:0:0:
128,192,6534,1,0,0:0:0:0:
42,192,6849,128,0,7481:0:0:0:0:
213,192,6849,1,2,0:0:0:0:
298,192,6849,1,0,0:0:0:0:
469,192,6849,1,2,0:0:0:0:
213,192,7165,1,0,0:0:0:0:
384,192,7165,1,0,0:0:0:0:
128,192,7481,1,2,0:0:0:0:
469,192,7481,1,2,0:0:0:0:
298,192,7481,128,0,8112:0:0:0:0:
384,192,7481,1,0,0:0:0:0:
128,192,7797,1,0,0:0:0:0:
213,192,7797,1,0,0:0:0:0:
42,192,7955,1,0,0:0:0:0:
384,192,8112,1,0,0:0:0:0:
469,192,8112,1,2,0:0:0:0:
213,192,8112,128,0,8744:0:0:0:0:
128,192,8112,1,2,0:0:0:0:
384,192,8428,1,0,0:0:0:0:
42,192,8428,1,0,0:0:0:0:
298,192,8744,1,2,0:0:0:0:
42,192,8744,1,0,0:0:0:0:
128,192,8744,1,2,0:0:0:0:
469,192,8744,128,0,9376:0:0:0:0:
42,192,9060,1,0,0:0:0:0:
298,192,9060,1,0,0:0:0:0:
42,192,9218,1,0,0:0:0:0:
213,192,9376,1,2,0:0:0:0:
298,192,9376,1,2,0:0:0:0:
384,192,9376,1,0,0:0:0:0:
128,192,9376,128,0,10639:0:0:0:0:
213,192,9691,1,0,0:0:0:0:
469,192,9691,1,0,0:0:0:0:
298,192,9849,1,0,0:0:0:0:
42,192,10007,1,0,0:0:0:0:
384,192,10007,128,0,10639:0:0:0:0:
469,192,10007,1,2,0:0:0:0:
213,192,10165,1,0,0:0:0:0:
298,192,10323,1,0,0:0:0:0:
213,192,10481,1,0,0:0:0:0:
298,192,10639,1,2,0:0:0:0:
469,192,10639,1,2,0:0:0:0:
42,192,10639,128,0,11902:0:0:0:0:
213,192,10955,128,0,11902:0:0:0:0:
298,192,11270,128,0,11902:0:0:0:0:
384,192,11586,128,0,11902:0:0:0:0:
128,192,11902,128,2,13165:0:0:0:0:
469,192,11902,128,2,13165:0:0:0:0:
213,192,12060,1,0,0:0:0:0:
298,192,12218,1,0,0:0:0:0:
384,192,12376,1,0,0:0:0:0:
213,192,12534,1,0,0:0:0:0:
42,192,13165,1,2,0:0:0:0:
298,192,13165,1,2,0:0:0:0:
384,192,13165,128,0,14428:0:0:0:0:
42,192,13481,128,0,14428:0:0:0:0:
128,192,13797,128,0,14428:0:0:0:0:
298,192,14112,128,0,14428:0:0:0:0:
213,192,14428,128,2,15534:0:0:0:0:
469,192,14428,128,2,15534:0:0:0:0:
298,192,14586,1,0,0:0:0:0:
384,192,14744,1,0,0:0:0:0:
128,192,14902,1,0,0:0:0:0:
298,192,15060,1,0,0:0:0:0:
469,192,15691,128,0,16323:0:0:0:0:
42,192,15691,128,0,16323:0:0:0:0:
128,192,16323,1,0,0:0:0:0:
298,192,16323,1,0,0:0:0:0:
384,192,16323,1,0,0:0:0:0:
384,192,16955,1,2,0:0:0:0:
469,192,16955,1,2,0:0:0:0:
384,192,17270,1,2,0:0:0:0:
469,192,17270,1,2,0:0:0:0:
384,192,17586,1,2,0:0:0:0:
469,192,17586,1,2,0:0:0:0:
42,192,17902,1,8,0:0:0:20:
213,192,17902,1,8,0:0:0:20:
298,192,17902,1,8,0:0:0:20:
384,192,17902,1,2,0:0:0:0:
469,192,17902,1,2,0:0:0:0:
128,192,17902,1,8,0:0:0:20:
128,192,18218,1,0,0:0:0:0:
298,192,18218,1,0,0:0:0:0:
469,192,18218,1,4,0:2:0:0:
42,192,18218,1,0,0:0:0:40:drumpad.wav
213,192,18376,1,0,0:0:0:0:
298,192,18376,1,2,0:0:0:0:
213,192,18534,1,0,0:0:0:0:
384,192,18534,1,0,0:0:0:45:drum_Emphasis2.wav
128,192,18534,1,0,0:0:0:40:drumpad.wav
42,192,18691,1,0,0:0:0:0:
384,192,18691,1,2,0:0:0:0:
298,192,18849,1,0,0:0:0:0:
128,192,18849,1,0,0:0:0:40:drumpad.wav
213,192,19007,1,0,0:0:0:0:
469,192,19007,1,2,0:0:0:0:
42,192,19165,1,0,0:0:0:0:
213,192,19165,1,0,0:0:0:40:drumpad.wav
384,192,19165,1,0,0:0:0:45:drum_Emphasis2.wav
298,192,19323,1,2,0:0:0:0:
42,192,19481,1,0,0:0:0:0:
384,192,19481,1,0,0:0:0:0:
469,192,19481,1,0,0:0:0:0:
128,192,19481,1,0,0:0:0:40:drumpad.wav
213,192,19639,1,0,0:0:0:0:
469,192,19639,1,2,0:0:0:0:
298,192,19797,1,0,0:0:0:0:
128,192,19797,1,0,0:0:0:40:drumpad.wav
384,192,19797,1,0,0:0:0:45:drum_Emphasis2.wav
213,192,19955,1,0,0:0:0:0:
128,192,19955,1,2,0:0:0:0:
42,192,20112,1,0,0:0:0:0:
298,192,20112,1,0,0:0:0:40:drumpad.wav
384,192,20270,1,0,0:0:0:0:
469,192,20270,1,2,0:0:0:0:
213,192,20428,1,0,0:0:0:0:
128,192,20428,1,0,0:0:0:40:drumpad.wav
384,192,20428,1,0,0:0:0:45:drum_Emphasis2.wav
42,192,20586,1,2,0:3:0:0:
469,192,20744,1,4,0:2:0:0:
128,192,20744,128,0,22007:0:0:0:0:
213,192,20744,1,0,0:0:0:40:drumpad.wav
298,192,20744,1,0,0:0:0:0:
384,192,20902,1,2,0:0:0:0:
469,192,21060,1,0,0:0:0:0:
213,192,21060,1,0,0:0:0:40:drumpad.wav
384,192,21060,1,0,0:0:0:45:drum_Emphasis2.wav
298,192,21218,1,2,0:0:0:0:
42,192,21376,1,0,0:0:0:0:
384,192,21376,1,0,0:0:0:0:
213,192,21376,1,0,0:0:0:40:drumpad.wav
384,192,21534,1,2,0:0:0:0:
469,192,21534,1,0,0:0:0:0:
213,192,21691,1,0,0:0:0:40:drumpad.wav
42,192,21691,1,0,0:0:0:45:drum_Emphasis2.wav
298,192,21691,1,0,0:0:0:0:
42,192,22007,1,0,0:0:0:0:
298,192,22007,1,0,0:0:0:0:
469,192,22007,1,0,0:0:0:0:
213,192,22007,1,0,0:0:0:40:drumpad.wav
128,192,22323,1,0,0:0:0:0:
298,192,22323,1,0,0:0:0:0:
384,192,22323,1,0,0:0:0:0:
213,192,22323,1,0,0:0:0:40:drumpad.wav
298,192,22639,1,0,0:0:0:0:
384,192,22639,1,0,0:0:0:0:
213,192,22639,1,0,0:0:0:40:drumpad.wav
42,192,22639,1,0,0:0:0:45:drum_Emphasis2.wav
298,192,22797,1,0,0:0:0:40:drumpad.wav
42,192,22797,1,0,0:0:0:45:drum_Emphasis2.wav
384,192,22955,1,0,0:0:0:0:
469,192,22955,1,0,0:0:0:0:
213,192,22955,1,0,0:0:0:40:drumpad.wav
42,192,22955,1,0,0:0:0:45:drum_Emphasis2.wav
128,192,23270,1,0,0:0:0:0:
298,192,23270,1,0,0:0:0:0:
469,192,23270,1,0,0:0:0:0:
213,192,23270,1,0,0:0:0:40:drumpad.wav
128,192,23428,1,0,0:0:0:0:
469,192,23428,1,2,0:0:0:0:
298,192,23586,1,8,0:0:0:40:
384,192,23586,1,0,0:0:0:0:
42,192,23586,1,0,0:0:0:40:drumpad.wav
128,192,23744,1,2,0:0:0:0:
213,192,23902,1,0,0:0:0:0:
469,192,23902,1,0,0:0:0:0:
384,192,23902,1,0,0:0:0:0:
42,192,23902,1,0,0:0:0:40:drumpad.wav
298,192,24060,1,0,0:0:0:0:
213,192,24060,1,2,0:0:0:0:
469,192,24218,1,0,0:0:0:0:
298,192,24218,1,8,0:0:0:40:
128,192,24218,1,0,0:0:0:40:drumpad.wav
42,192,24376,1,2,0:3:0:0:
213,192,24534,1,0,0:0:0:0:
298,192,24534,1,0,0:0:0:0:
384,192,24534,1,0,0:0:0:0:
128,192,24534,1,0,0:0:0:40:drumpad.wav
213,192,24691,1,0,0:0:0:0:
469,192,24691,1,2,0:0:0:0:
384,192,24849,1,0,0:0:0:0:
298,192,24849,1,8,0:0:0:40:
42,192,24849,1,0,0:0:0:40:drumpad.wav
128,192,25007,1,2,0:0:0:0:
213,192,25165,1,0,0:0:0:0:
469,192,25165,1,0,0:0:0:0:
298,192,25165,1,0,0:0:0:0:
128,192,25165,1,0,0:0:0:40:drumpad.wav
298,192,25323,1,0,0:0:0:0:
42,192,25323,1,2,0:0:0:0:
384,192,25481,1,0,0:0:0:0:
469,192,25481,1,8,0:0:0:40:
213,192,25481,1,0,0:0:0:40:drumpad.wav
298,192,25639,1,2,0:0:0:0:
384,192,25797,1,0,0:0:0:0:
469,192,25797,1,4,0:2:0:0:
42,192,25797,1,0,0:0:0:0:
213,192,25797,1,0,0:0:0:40:drumpad.wav
128,192,25955,1,0,0:0:0:0:
213,192,25955,1,2,0:0:0:0:
469,192,26112,1,8,0:0:0:40:
298,192,26112,1,0,0:0:0:0:
42,192,26112,1,0,0:0:0:40:drumpad.wav
384,192,26270,1,0,0:0:0:0:
213,192,26270,1,2,0:0:0:0:
469,192,26428,1,0,0:0:0:0:
384,192,26428,1,0,0:0:0:0:
128,192,26428,1,0,0:0:0:0:
42,192,26428,1,0,0:0:0:40:drumpad.wav
298,192,26586,1,0,0:0:0:0:
42,192,26586,1,2,0:0:0:0:
213,192,26744,1,0,0:0:0:0:
384,192,26744,1,8,0:0:0:40:
128,192,26744,1,0,0:0:0:40:drumpad.wav
213,192,26902,1,2,0:0:0:0:
298,192,27060,1,0,0:0:0:0:
469,192,27060,1,0,0:0:0:0:
128,192,27060,1,0,0:0:0:0:
42,192,27060,1,0,0:0:0:40:drumpad.wav
298,192,27376,1,0,0:0:0:0:
384,192,27376,1,0,0:0:0:0:
213,192,27376,1,0,0:0:0:0:
42,192,27376,1,0,0:0:0:40:drumpad.wav
469,192,27691,1,0,0:0:0:0:
213,192,27691,128,0,28007:0:0:0:0:
298,192,27691,128,0,28007:0:0:0:0:
42,192,27691,1,0,0:0:0:40:drumpad.wav
42,192,28007,1,8,2:2:0:20:
128,192,28007,1,8,2:2:0:20:
384,192,28007,1,8,2:2:0:20:
469,192,28007,1,8,2:2:0:20:
384,192,28323,1,0,0:0:0:0:
213,192,28323,1,0,0:0:0:35:drumpad.wav
298,192,28481,1,2,0:0:0:0:
469,192,28639,1,0,0:0:0:40:drum_Emphasis2.wav
213,192,28639,1,0,0:0:0:35:drumpad.wav
42,192,28639,1,0,0:0:0:0:
384,192,28797,1,2,0:0:0:0:
42,192,28797,1,0,0:0:0:35:drumpad.wav
298,192,28955,1,0,0:0:0:0:
213,192,29112,1,2,0:0:0:0:
128,192,29112,1,0,0:0:0:35:drumpad.wav
384,192,29270,1,0,0:0:0:0:
42,192,29270,1,0,0:0:0:35:drumpad.wav
469,192,29270,1,0,0:0:0:40:drum_Emphasis2.wav
298,192,29428,128,2,29744:0:0:0:0:
213,192,29586,1,0,0:0:0:0:
42,192,29586,1,0,0:0:0:35:drumpad.wav
213,192,29744,128,2,29902:0:0:0:0:
384,192,29902,128,0,30060:0:0:0:0:
128,192,29902,1,0,0:0:0:35:drumpad.wav
469,192,29902,1,0,0:0:0:40:drum_Emphasis2.wav
128,192,30060,128,0,30218:0:0:0:35:drumpad.wav
213,192,30060,1,2,0:0:0:0:
469,192,30218,1,0,0:0:0:0:
298,192,30218,1,0,0:0:0:0:
469,192,30376,1,2,0:0:0:0:
213,192,30376,1,0,0:0:0:35:drumpad.wav
384,192,30534,1,0,0:0:0:40:drum_Emphasis2.wav
213,192,30534,1,0,0:0:0:35:drumpad.wav
42,192,30534,1,0,0:0:0:0:
298,192,30573,1,0,0:0:0:0:
213,192,30691,1,2,0:0:0:0:
298,192,30770,1,0,0:0:0:0:
128,192,30849,1,0,0:0:0:35:drumpad.wav
384,192,30849,1,0,0:0:0:0:
213,192,31007,1,2,0:0:0:0:
298,192,31165,1,0,0:0:0:0:
42,192,31165,1,0,0:0:0:35:drumpad.wav
469,192,31165,1,0,0:0:0:40:drum_Emphasis2.wav
298,192,31323,1,2,0:0:0:0:
128,192,31323,1,0,0:0:0:35:drumpad.wav
384,192,31481,1,0,0:0:0:0:
298,192,31639,1,2,0:0:0:0:
42,192,31639,1,0,0:0:0:35:drumpad.wav
213,192,31797,1,0,0:0:0:0:
128,192,31797,1,0,0:0:0:35:drumpad.wav
469,192,31797,1,0,0:0:0:40:drum_Emphasis2.wav
384,192,31955,128,2,32270:0:0:0:0:
213,192,32112,1,0,0:0:0:0:
42,192,32112,1,0,0:0:0:35:drumpad.wav
213,192,32270,128,2,32428:0:0:0:0:
298,192,32428,1,0,0:0:0:0:
128,192,32428,1,0,0:0:0:35:drumpad.wav
469,192,32428,1,0,0:0:0:40:drum_Emphasis2.wav
298,192,32586,1,2,0:0:0:0:
42,192,32586,1,0,0:0:0:35:drumpad.wav
128,192,32744,128,0,32902:0:0:0:0:
298,192,32902,1,2,0:0:0:0:
469,192,32902,1,0,0:0:0:35:drumpad.wav
384,192,33060,1,0,0:0:0:0:
213,192,33060,1,0,0:0:0:0:
469,192,33060,1,0,0:0:0:35:drumpad.wav
42,192,33060,1,0,0:0:0:40:drum_Emphasis2.wav
298,192,33218,1,2,0:0:0:0:
42,192,33218,1,0,0:0:0:35:drumpad.wav
469,192,33376,128,0,33691:0:0:0:0:
128,192,33376,1,0,0:0:0:35:drumpad.wav
213,192,33691,1,0,0:0:0:0:
42,192,33691,1,0,0:0:0:35:drumpad.wav
298,192,33691,1,0,0:0:0:40:drum_Emphasis2.wav
213,192,33849,1,2,0:0:0:0:
469,192,33849,1,0,0:0:0:35:drumpad.wav
128,192,34007,1,0,0:0:0:0:
298,192,34165,1,2,0:0:0:0:
42,192,34165,1,0,0:0:0:35:drumpad.wav
384,192,34323,1,0,0:0:0:0:
128,192,34323,1,0,0:0:0:35:drumpad.wav
469,192,34323,1,0,0:0:0:40:drum_Emphasis2.wav
469,192,34481,1,2,0:0:0:0:
213,192,34481,1,0,0:0:0:35:drumpad.wav
298,192,34639,1,0,0:0:0:35:drumpad.wav
42,192,34639,1,0,0:0:0:0:
42,192,34797,1,2,0:0:0:0:
298,192,34955,1,0,0:0:0:0:
128,192,34955,1,0,0:0:0:35:drumpad.wav
469,192,34955,1,0,0:0:0:40:drum_Emphasis2.wav
298,192,35112,1,2,0:0:0:0:
213,192,35112,1,0,0:0:0:35:drumpad.wav
298,192,35270,1,0,0:0:0:0:
213,192,35428,1,2,0:0:0:0:
42,192,35428,1,0,0:0:0:35:drumpad.wav
213,192,35586,1,0,0:0:0:0:
128,192,35586,1,0,0:0:0:35:drumpad.wav
469,192,35586,1,0,0:0:0:40:drum_Emphasis2.wav
384,192,35626,1,0,0:0:0:0:
298,192,35744,1,2,0:0:0:0:
213,192,35744,1,0,0:0:0:35:drumpad.wav
384,192,35823,1,0,0:0:0:0:
469,192,35902,1,0,0:0:0:0:
128,192,35902,1,0,0:0:0:35:drumpad.wav
213,192,36218,1,0,0:0:0:0:
128,192,36218,1,0,0:0:0:35:drumpad.wav
384,192,36218,1,0,0:0:0:40:drum_Emphasis2.wav
384,192,36534,1,0,0:0:0:0:
42,192,36534,1,0,0:0:0:35:drumpad.wav
298,192,36849,1,0,0:0:0:0:
128,192,36849,1,0,0:0:0:35:drumpad.wav
469,192,36849,1,0,0:0:0:40:drum_Emphasis2.wav
298,192,37007,1,2,0:0:0:0:
384,192,37165,1,0,0:0:0:0:
213,192,37165,1,0,0:0:0:35:drumpad.wav
469,192,37165,1,0,0:0:0:40:drum_Emphasis2.wav
384,192,37323,1,0,0:0:0:0:
128,192,37323,1,0,0:0:0:35:drumpad.wav
213,192,37481,1,0,0:0:0:0:
42,192,37481,1,0,0:0:0:35:drumpad.wav
469,192,37481,1,0,0:0:0:40:drum_Emphasis2.wav
298,192,37639,1,0,0:0:0:0:
213,192,37639,1,0,0:0:0:35:drumpad.wav
128,192,37797,1,0,0:0:0:0:
42,192,37797,1,0,0:0:0:35:drumpad.wav
469,192,37797,1,0,0:0:0:40:drum_Emphasis2.wav
384,192,37955,1,0,0:0:0:0:
213,192,37955,1,0,0:0:0:35:drumpad.wav
384,192,38112,1,8,0:2:0:25:
213,192,38112,1,8,0:2:0:25:
42,192,38112,1,0,0:0:0:35:drumpad.wav
469,192,38112,1,0,0:0:0:40:drum_Emphasis2.wav
298,192,38270,1,0,0:0:0:0:
128,192,38270,1,0,0:0:0:35:drumpad.wav
213,192,38428,1,0,0:0:0:0:
298,192,38428,1,0,0:0:0:40:drumpad.wav
469,192,38586,1,0,0:0:0:0:
213,192,38744,128,0,38902:0:0:0:0:
384,192,38902,128,0,39060:0:0:0:0:
213,192,39060,128,0,39139:0:0:0:0:
298,192,39139,128,0,39218:0:0:0:0:
213,192,39218,128,0,39297:0:0:0:0:
298,192,39297,128,0,39376:0:0:0:0:
128,192,39376,128,0,39455:0:0:0:0:
298,192,39455,128,0,39534:0:0:0:0:
128,192,39534,128,0,39612:0:0:0:0:
298,192,39612,128,0,39691:0:0:0:0:
42,192,39691,128,0,40323:0:0:0:0:
384,192,39849,128,0,40323:0:0:0:0:
213,192,39849,1,0,0:0:0:40:drumpad.wav
213,192,40007,128,0,40323:0:0:0:0:
298,192,40165,128,0,40323:0:0:0:0:
128,192,40323,128,0,40955:0:0:0:0:
469,192,40481,128,0,40955:0:0:0:0:
298,192,40481,1,0,0:0:0:40:drumpad.wav
298,192,40639,128,0,40955:0:0:0:0:
213,192,40797,128,0,40955:0:0:0:0:
384,192,40955,1,0,0:0:0:0:
42,192,40955,1,0,0:0:0:40:drumpad.wav
213,192,41112,1,0,0:0:0:0:
298,192,41191,1,0,0:0:0:0:
384,192,41270,128,0,41428:0:0:0:0:
42,192,41428,128,0,41586:0:0:0:0:
298,192,41586,128,0,41665:0:0:0:0:
213,192,41665,128,0,41744:0:0:0:0:
298,192,41744,128,0,41823:0:0:0:0:
213,192,41823,128,0,41902:0:0:0:0:
384,192,41902,128,0,41981:0:0:0:0:
213,192,41981,128,0,42060:0:0:0:0:
384,192,42060,128,0,42139:0:0:0:0:
213,192,42139,128,0,42218:0:0:0:0:
469,192,42218,128,0,42691:0:0:0:0:
42,192,42376,128,0,42691:0:0:0:0:
298,192,42376,1,0,0:0:0:40:drumpad.wav
298,192,42534,128,0,42691:0:0:0:0:
128,192,42691,1,0,0:0:0:0:
128,192,42849,128,0,43481:0:0:0:40:drumpad.wav
469,192,42849,128,0,43639:0:0:0:0:
298,192,43007,128,0,43086:0:0:0:0:
384,192,43007,128,0,43086:0:0:0:0:
298,192,43165,128,0,43639:0:0:0:0:
384,192,43165,128,0,43639:0:0:0:0:
42,192,43639,1,0,0:0:0:0:
128,192,43639,1,0,0:0:0:40:drumpad.wav
384,192,43797,128,0,43955:0:0:0:0:
213,192,43955,128,0,44112:0:0:0:0:
298,192,44112,128,0,44191:0:0:0:0:
128,192,44191,128,0,44270:0:0:0:0:
298,192,44270,128,0,44349:0:0:0:0:
128,192,44349,128,0,44428:0:0:0:0:
384,192,44428,128,0,44507:0:0:0:0:
42,192,44507,128,0,44586:0:0:0:0:
384,192,44586,128,0,44665:0:0:0:0:
42,192,44665,128,0,44744:0:0:0:0:
298,192,44744,128,0,45376:0:0:0:0:
213,192,44902,1,0,0:0:0:40:drumpad.wav
128,192,44902,128,0,45376:0:0:0:0:
213,192,45060,128,0,45376:0:0:0:0:
469,192,45218,128,0,45376:0:0:0:0:
42,192,45376,128,0,46007:0:0:0:0:
384,192,45534,128,0,46007:0:0:0:0:
298,192,45534,1,0,0:0:0:40:drumpad.wav
298,192,45691,128,0,46007:0:0:0:0:
128,192,45849,128,0,46007:0:0:0:0:
469,192,46007,128,0,46639:0:0:0:0:
213,192,46007,1,0,0:0:0:40:drumpad.wav
213,192,46165,128,0,46639:0:0:0:0:
42,192,46323,128,0,46639:0:0:0:0:
384,192,46481,128,0,46639:0:0:0:0:
128,192,46639,1,0,0:0:0:40:drumpad.wav
298,192,46639,128,0,47270:0:0:0:0:
128,192,46797,128,0,47270:0:0:0:0:
469,192,46955,128,0,47270:0:0:0:0:
213,192,47112,128,0,47270:0:0:0:0:
42,192,47270,1,0,0:0:0:0:
384,192,47270,1,0,0:0:0:40:drumpad.wav
213,192,47428,1,0,0:0:0:0:
298,192,47507,1,0,0:0:0:0:
128,192,47586,1,0,0:0:0:0:
384,192,47586,1,0,0:0:0:40:drumpad.wav
42,192,47902,1,0,0:0:0:0:
469,192,47902,1,0,0:0:0:0:
128,192,47902,1,0,0:0:0:0:
384,192,47902,1,0,0:0:0:40:drumpad.wav
42,192,48218,1,8,0:2:0:15:
128,192,48218,1,8,0:2:0:15:
213,192,48218,1,8,0:2:0:15:
298,192,48218,1,8,0:2:0:15:
384,192,48218,1,8,0:2:0:15:
469,192,48218,1,8,0:2:0:15:
469,192,48534,1,0,0:0:0:0:
128,192,48534,1,0,0:0:0:0:
42,192,48534,1,0,0:0:0:35:drumpad.wav
298,192,48691,1,2,0:0:0:0:
213,192,48849,1,0,0:0:0:0:
42,192,48849,1,0,0:0:0:35:drumpad.wav
298,192,48849,1,0,0:0:0:40:drum_Emphasis2.wav
384,192,49007,1,2,0:0:0:0:
128,192,49007,1,0,0:0:0:35:drumpad.wav
469,192,49165,1,0,0:0:0:0:
384,192,49323,1,2,0:0:0:0:
128,192,49323,1,0,0:0:0:35:drumpad.wav
298,192,49481,1,0,0:0:0:0:
42,192,49481,1,0,0:0:0:35:drumpad.wav
384,192,49481,1,0,0:0:0:40:drum_Emphasis2.wav
213,192,49639,1,2,0:0:0:0:
298,192,49797,1,0,0:0:0:0:
469,192,49797,1,0,0:0:0:0:
128,192,49797,1,0,0:0:0:35:drumpad.wav
384,192,49955,1,2,0:0:0:0:
213,192,50112,1,0,0:0:0:0:
128,192,50112,1,0,0:0:0:35:drumpad.wav
469,192,50112,1,0,0:0:0:40:drum_Emphasis2.wav
384,192,50270,1,2,0:0:0:0:
213,192,50270,1,0,0:0:0:35:drumpad.wav
42,192,50428,1,0,0:0:0:0:
384,192,50586,1,2,0:0:0:0:
213,192,50586,1,0,0:0:0:35:drumpad.wav
213,192,50744,1,0,0:0:0:0:
128,192,50744,1,0,0:0:0:35:drumpad.wav
469,192,50744,1,0,0:0:0:40:drum_Emphasis2.wav
298,192,50902,1,2,0:0:0:0:
384,192,51060,1,0,0:0:0:0:
213,192,51060,1,0,0:0:0:0:
42,192,51060,1,0,0:0:0:35:drumpad.wav
469,192,51218,1,2,0:0:0:0:
298,192,51376,1,0,0:0:0:0:
128,192,51376,1,0,0:0:0:35:drumpad.wav
384,192,51376,1,0,0:0:0:40:drum_Emphasis2.wav
469,192,51534,1,2,0:0:0:0:
213,192,51534,1,0,0:0:0:35:drumpad.wav
42,192,51691,1,0,0:0:0:0:
469,192,51849,1,2,0:0:0:0:
213,192,51849,1,0,0:0:0:35:drumpad.wav
298,192,52007,1,0,0:0:0:0:
128,192,52007,1,0,0:0:0:35:drumpad.wav
469,192,52007,1,0,0:0:0:40:drum_Emphasis2.wav
213,192,52165,1,2,0:0:0:0:
298,192,52323,1,0,0:0:0:0:
384,192,52323,1,0,0:0:0:0:
42,192,52323,1,0,0:0:0:35:drumpad.wav
469,192,52481,1,2,0:0:0:0:
128,192,52639,128,0,52955:0:0:0:0:
213,192,52639,1,0,0:0:0:35:drumpad.wav
384,192,52639,1,0,0:0:0:40:drum_Emphasis2.wav
384,192,52797,1,2,0:0:0:0:
298,192,52797,1,0,0:0:0:35:drumpad.wav
469,192,52955,128,0,53270:0:0:0:0:
213,192,53112,1,2,0:0:0:0:
128,192,53112,1,0,0:0:0:35:drumpad.wav
298,192,53270,128,0,53586:0:0:0:0:
128,192,53270,1,0,0:0:0:35:drumpad.wav
384,192,53270,1,0,0:0:0:40:drum_Emphasis2.wav
213,192,53586,1,0,0:0:0:0:
469,192,53586,1,0,0:0:0:0:
42,192,53586,1,0,0:0:0:35:drumpad.wav
298,192,53744,1,2,0:0:0:0:
128,192,53902,1,0,0:0:0:0:
42,192,53902,1,0,0:0:0:35:drumpad.wav
384,192,53902,1,0,0:0:0:40:drum_Emphasis2.wav
384,192,54060,128,2,54376:0:0:0:0:
213,192,54060,1,0,0:0:0:35:drumpad.wav
298,192,54218,1,0,0:0:0:0:
213,192,54376,1,2,0:0:0:0:
128,192,54376,1,0,0:0:0:35:drumpad.wav
384,192,54534,1,0,0:0:0:0:
213,192,54534,1,0,0:0:0:0:
42,192,54534,1,0,0:0:0:35:drumpad.wav
469,192,54534,1,0,0:0:0:40:drum_Emphasis2.wav
298,192,54849,1,0,0:0:0:0:
469,192,54849,1,0,0:0:0:0:
128,192,54849,1,0,0:0:0:35:drumpad.wav
213,192,55007,1,2,0:0:0:0:
298,192,55165,1,0,0:0:0:0:
42,192,55165,1,0,0:0:0:35:drumpad.wav
384,192,55165,1,0,0:0:0:40:drum_Emphasis2.wav
213,192,55323,1,0,0:0:0:35:drumpad.wav
42,192,55323,128,2,55639:0:0:0:0:
298,192,55481,1,0,0:0:0:0:
384,192,55639,1,2,0:0:0:0:
128,192,55639,1,0,0:0:0:35:drumpad.wav
469,192,55797,1,0,0:0:0:0:
42,192,55797,1,0,0:0:0:35:drumpad.wav
384,192,55797,1,0,0:0:0:40:drum_Emphasis2.wav
213,192,55955,1,2,0:0:0:0:
298,192,56112,1,0,0:0:0:0:
384,192,56112,1,0,0:0:0:0:
128,192,56112,1,0,0:0:0:35:drumpad.wav
469,192,56270,1,2,0:0:0:0:
213,192,56428,1,0,0:0:0:0:
42,192,56428,1,0,0:0:0:35:drumpad.wav
384,192,56428,1,0,0:0:0:40:drum_Emphasis2.wav
128,192,56586,1,0,0:0:0:35:drumpad.wav
213,192,56586,1,2,0:0:0:0:
298,192,56744,1,0,0:0:0:0:
213,192,56902,1,2,0:0:0:0:
42,192,56902,1,0,0:0:0:35:drumpad.wav
384,192,57060,1,0,0:0:0:0:
128,192,57060,1,0,0:0:0:35:drumpad.wav
469,192,57060,1,0,0:0:0:40:drum_Emphasis2.wav
469,192,57218,1,2,0:0:0:0:
213,192,57376,1,0,0:0:0:0:
298,192,57376,1,0,0:0:0:0:
128,192,57376,1,0,0:0:0:35:drumpad.wav
213,192,57691,1,0,0:0:0:0:
298,192,57691,1,0,0:0:0:0:
128,192,57691,1,0,0:0:0:35:drumpad.wav
213,192,58007,1,0,0:0:0:0:
298,192,58007,1,0,0:0:0:0:
128,192,58007,1,0,0:0:0:35:drumpad.wav
298,192,58165,1,2,0:0:0:0:
213,192,58323,1,0,0:0:0:0:
42,192,58323,1,0,0:0:0:35:drumpad.wav
469,192,58323,1,0,0:0:0:40:drum_Emphasis2.wav
128,192,58481,1,2,0:0:0:0:
298,192,58639,1,0,0:0:0:0:
469,192,58639,1,0,0:0:0:0:
42,192,58639,1,0,0:0:0:35:drumpad.wav
384,192,58797,1,2,0:0:0:0:
213,192,58955,1,0,0:0:0:0:
128,192,58955,1,0,0:0:0:35:drumpad.wav
384,192,58955,1,0,0:0:0:40:drum_Emphasis2.wav
298,192,59112,1,2,0:0:0:0:
42,192,59112,1,0,0:0:0:35:drumpad.wav
469,192,59270,1,0,0:0:0:0:
298,192,59428,1,2,0:0:0:0:
42,192,59428,1,0,0:0:0:35:drumpad.wav
213,192,59586,1,0,0:0:0:0:
42,192,59586,1,0,0:0:0:35:drumpad.wav
384,192,59586,1,0,0:0:0:40:drum_Emphasis2.wav
128,192,59744,1,2,0:0:0:0:
298,192,59902,1,0,0:0:0:0:
469,192,59902,1,0,0:0:0:0:
213,192,59902,1,0,0:0:0:35:drumpad.wav
42,192,60060,1,2,0:0:0:0:
298,192,60218,1,0,0:0:0:0:
128,192,60218,1,0,0:0:0:35:drumpad.wav
384,192,60218,1,0,0:0:0:40:drum_Emphasis2.wav
384,192,60376,1,2,0:0:0:0:
213,192,60376,1,0,0:0:0:35:drumpad.wav
42,192,60534,1,0,0:0:0:0:
384,192,60691,1,2,0:0:0:0:
213,192,60691,1,0,0:0:0:35:drumpad.wav
42,192,60849,1,0,0:0:0:0:
213,192,60849,1,0,0:0:0:35:drumpad.wav
469,192,60849,1,0,0:0:0:40:drum_Emphasis2.wav
298,192,61007,1,2,0:0:0:0:
128,192,61165,1,0,0:0:0:0:
384,192,61165,1,0,0:0:0:0:
42,192,61165,1,0,0:0:0:35:drumpad.wav
213,192,61323,1,2,0:0:0:0:
298,192,61481,1,0,0:0:0:0:
42,192,61481,1,0,0:0:0:35:drumpad.wav
469,192,61481,1,0,0:0:0:40:drum_Emphasis2.wav
213,192,61639,1,2,0:0:0:0:
128,192,61639,1,0,0:0:0:35:drumpad.wav
384,192,61797,1,0,0:0:0:0:
213,192,61955,1,2,0:0:0:0:
128,192,61955,1,0,0:0:0:35:drumpad.wav
128,192,62112,1,0,0:0:0:35:drumpad.wav
42,192,62112,1,0,0:0:0:0:
384,192,62112,1,0,0:0:0:40:drum_Emphasis2.wav
298,192,62270,1,2,0:0:0:0:
384,192,62428,1,0,0:0:0:0:
469,192,62428,1,0,0:0:0:0:
42,192,62428,1,0,0:0:0:35:drumpad.wav
213,192,62586,1,2,0:0:0:0:
298,192,62744,128,0,63060:0:0:0:0:
128,192,62744,1,0,0:0:0:35:drumpad.wav
384,192,62744,1,0,0:0:0:40:drum_Emphasis2.wav
213,192,62902,1,2,0:0:0:0:
128,192,62902,1,0,0:0:0:35:drumpad.wav
42,192,63060,128,0,63376:0:0:0:0:
298,192,63218,1,0,0:0:0:35:drumpad.wav
384,192,63218,1,2,0:0:0:0:
128,192,63376,1,0,0:0:0:40:drum_Emphasis2.wav
298,192,63376,1,0,0:0:0:35:drumpad.wav
469,192,63376,128,0,63691:0:0:0:0:
213,192,63691,1,0,0:0:0:0:
298,192,63691,1,0,0:0:0:0:
42,192,63691,1,0,0:0:0:35:drumpad.wav
469,192,63849,1,2,0:0:0:0:
298,192,64007,1,0,0:0:0:0:
128,192,64007,1,0,0:0:0:35:drumpad.wav
384,192,64007,1,0,0:0:0:40:drum_Emphasis2.wav
128,192,64165,128,2,64481:0:0:0:0:
213,192,64165,1,0,0:0:0:35:drumpad.wav
384,192,64323,1,0,0:0:0:0:
298,192,64481,1,2,0:0:0:0:
213,192,64481,1,0,0:0:0:35:drumpad.wav
42,192,64639,1,0,0:0:0:0:
213,192,64639,1,0,0:0:0:35:drumpad.wav
469,192,64639,1,0,0:0:0:40:drum_Emphasis2.wav
298,192,64797,1,2,0:0:0:0:
384,192,64955,1,0,0:0:0:0:
469,192,64955,1,0,0:0:0:0:
128,192,64955,1,0,0:0:0:35:drumpad.wav
298,192,65112,1,2,0:0:0:0:
213,192,65270,1,0,0:0:0:0:
42,192,65270,1,0,0:0:0:35:drumpad.wav
384,192,65270,1,0,0:0:0:40:drum_Emphasis2.wav
384,192,65428,128,2,65744:0:0:0:0:
128,192,65428,1,0,0:0:0:35:drumpad.wav
213,192,65586,1,0,0:0:0:0:
298,192,65744,1,2,0:0:0:0:
42,192,65744,1,0,0:0:0:35:drumpad.wav
384,192,65902,1,0,0:0:0:0:
213,192,65902,1,0,0:0:0:0:
42,192,65902,1,0,0:0:0:35:drumpad.wav
469,192,65902,1,0,0:0:0:40:drum_Emphasis2.wav
298,192,66218,128,0,66534:0:0:0:0:
128,192,66218,128,0,66534:0:0:0:35:drumpad.wav
213,192,66218,128,0,66534:0:0:0:0:
384,192,66534,1,0,0:0:0:0:
42,192,66534,1,0,0:0:0:35:drumpad.wav
469,192,66534,1,0,0:0:0:40:drum_Emphasis2.wav
298,192,66691,1,2,0:0:0:0:
128,192,66691,1,0,0:0:0:35:drumpad.wav
469,192,66849,128,0,67007:0:0:0:0:
298,192,67007,1,2,0:0:0:0:
128,192,67007,1,0,0:0:0:35:drumpad.wav
128,192,67165,128,0,67481:0:0:0:35:drumpad.wav
213,192,67165,128,0,67481:0:0:0:0:
384,192,67165,1,0,0:0:0:40:drum_Emphasis2.wav
298,192,67481,1,0,0:0:0:0:
469,192,67481,1,0,0:0:0:0:
384,192,67481,1,0,0:0:0:0:
42,192,67481,1,0,0:0:0:35:drumpad.wav
213,192,67797,1,0,0:0:0:0:
298,192,67797,1,0,0:0:0:0:
384,192,67797,1,0,0:0:0:0:
42,192,67797,1,0,0:0:0:35:drumpad.wav
469,192,68112,1,0,0:0:0:0:
213,192,68112,128,0,68428:0:0:0:0:
298,192,68112,128,0,68428:0:0:0:0:
42,192,68112,1,0,0:0:0:35:drumpad.wav
384,192,68428,1,0,0:0:0:25:drum_Emphasis2.wav
128,192,68428,1,0,0:0:0:25:drum_Emphasis2.wav
384,192,68744,1,0,0:0:0:0:
42,192,68744,1,0,0:0:0:35:drumpad.wav
213,192,68902,1,2,0:0:0:0:
213,192,69060,1,0,0:0:0:0:
128,192,69060,1,0,0:0:0:35:drumpad.wav
469,192,69060,1,0,0:0:0:40:drum_Emphasis2.wav
384,192,69218,1,2,0:0:0:0:
298,192,69218,1,0,0:0:0:35:drumpad.wav
384,192,69376,128,0,69691:0:0:0:0:
128,192,69376,1,0,0:0:0:35:drumpad.wav
213,192,69534,1,2,0:0:0:0:
128,192,69691,1,0,0:0:0:0:
42,192,69691,1,0,0:0:0:35:drumpad.wav
298,192,69691,1,0,0:0:0:40:drum_Emphasis2.wav
469,192,69849,1,2,0:0:0:0:
128,192,70007,1,0,0:0:0:0:
384,192,70007,1,0,0:0:0:35:drumpad.wav
384,192,70165,1,0,0:0:0:35:drumpad.wav
213,192,70165,1,2,0:0:0:0:
128,192,70323,1,0,0:0:0:0:
42,192,70323,1,0,0:0:0:35:drumpad.wav
298,192,70323,1,0,0:0:0:40:drum_Emphasis2.wav
469,192,70481,1,2,0:0:0:0:
213,192,70481,1,0,0:0:0:35:drumpad.wav
469,192,70639,1,0,0:0:0:0:
213,192,70639,1,0,0:0:0:35:drumpad.wav
298,192,70797,1,2,0:0:0:0:
128,192,70955,1,0,0:0:0:35:drumpad.wav
42,192,70955,128,0,71270:0:0:0:0:
384,192,70955,1,0,0:0:0:40:drum_Emphasis2.wav
384,192,71270,1,0,0:0:0:0:
213,192,71270,1,0,0:0:0:35:drumpad.wav
298,192,71428,1,2,0:0:0:0:
128,192,71586,1,0,0:0:0:0:
42,192,71586,1,0,0:0:0:35:drumpad.wav
384,192,71586,1,0,0:0:0:40:drum_Emphasis2.wav
469,192,71744,1,2,0:0:0:0:
128,192,71744,1,0,0:0:0:35:drumpad.wav
384,192,71902,1,0,0:0:0:0:
213,192,71902,1,0,0:0:0:35:drumpad.wav
42,192,72060,1,2,0:0:0:0:
298,192,72218,1,0,0:0:0:0:
128,192,72218,1,0,0:0:0:35:drumpad.wav
469,192,72218,1,0,0:0:0:40:drum_Emphasis2.wav
128,192,72376,128,2,72691:0:0:0:0:
384,192,72534,1,0,0:0:0:0:
298,192,72534,1,0,0:0:0:35:drumpad.wav
384,192,72691,1,2,0:0:0:0:
298,192,72691,1,0,0:0:0:35:drumpad.wav
213,192,72849,1,0,0:0:0:35:drumpad.wav
128,192,72849,128,0,73165:0:0:0:0:
469,192,72849,1,0,0:0:0:40:drum_Emphasis2.wav
384,192,73007,1,2,0:0:0:0:
298,192,73007,1,0,0:0:0:35:drumpad.wav
384,192,73165,1,0,0:0:0:0:
298,192,73165,1,0,0:0:0:35:drumpad.wav
213,192,73323,1,0,0:0:0:0:
128,192,73323,1,0,0:0:0:35:drumpad.wav
469,192,73323,1,0,0:0:0:40:drum_Emphasis2.wav
213,192,73481,1,0,0:0:0:0:
128,192,73481,1,0,0:0:0:35:drumpad.wav
469,192,73481,1,0,0:0:0:40:drum_Emphasis2.wav
469,192,73639,128,0,73797:0:0:0:0:
298,192,73797,1,0,0:0:0:35:drumpad.wav
42,192,73797,128,0,76007:0:0:0:0:
213,192,73955,1,2,0:0:0:0:
128,192,74112,1,0,0:0:0:35:drumpad.wav
298,192,74112,1,0,0:0:0:0:
469,192,74112,1,0,0:0:0:40:drum_Emphasis2.wav
384,192,74270,1,2,0:0:0:0:
213,192,74270,1,0,0:0:0:35:drumpad.wav
384,192,74428,1,0,0:0:0:0:
213,192,74428,1,0,0:0:0:35:drumpad.wav
469,192,74586,1,2,0:0:0:0:
213,192,74744,1,0,0:0:0:0:
128,192,74744,1,0,0:0:0:35:drumpad.wav
298,192,74744,1,0,0:0:0:40:drum_Emphasis2.wav
384,192,74902,128,2,75218:0:0:0:0:
298,192,75060,1,0,0:0:0:0:
213,192,75060,1,0,0:0:0:35:drumpad.wav
298,192,75218,1,2,0:0:0:0:
213,192,75218,1,0,0:0:0:35:drumpad.wav
384,192,75376,1,0,0:0:0:0:
128,192,75376,1,0,0:0:0:35:drumpad.wav
469,192,75376,1,0,0:0:0:40:drum_Emphasis2.wav
298,192,75534,1,2,0:0:0:0:
213,192,75534,1,0,0:0:0:35:drumpad.wav
298,192,75691,1,0,0:0:0:0:
213,192,75691,1,0,0:0:0:35:drumpad.wav
384,192,75849,1,2,0:0:0:0:
384,192,76007,128,0,76323:0:0:0:0:
128,192,76007,1,0,0:0:0:35:drumpad.wav
469,192,76007,1,0,0:0:0:40:drum_Emphasis2.wav
298,192,76323,1,0,0:0:0:0:
42,192,76323,1,0,0:0:0:30:drumpad.wav
213,192,76481,1,0,0:0:0:0:
298,192,76639,1,2,0:2:0:0:
469,192,76639,1,8,0:0:0:0:
213,192,76797,1,0,0:0:0:0:
128,192,76797,1,0,0:0:0:30:drumpad.wav
213,192,76955,1,0,0:0:0:0:
128,192,76955,1,0,0:0:0:30:drumpad.wav
298,192,77270,1,2,0:2:0:0:
469,192,77270,1,8,0:0:0:0:
298,192,77586,1,0,0:0:0:0:
128,192,77586,1,0,0:0:0:30:drumpad.wav
213,192,77586,1,0,0:0:0:0:
384,192,77586,1,0,0:0:0:40:drum_Emphasis2.wav
213,192,77744,1,0,0:0:0:30:drumpad.wav
298,192,77744,1,0,0:0:0:0:
213,192,77902,128,0,78139:0:0:0:0:
298,192,77902,128,0,78139:0:0:0:0:
128,192,77902,1,0,0:0:0:30:drumpad.wav
384,192,77902,1,0,0:0:0:40:drum_Emphasis2.wav
213,192,78218,1,0,0:0:0:0:
298,192,78218,1,0,0:0:0:0:
128,192,78218,1,0,0:0:0:30:drumpad.wav
384,192,78218,1,0,0:0:0:40:drum_Emphasis2.wav
384,192,78534,1,0,0:0:0:25:drum_Emphasis2.wav
128,192,78534,1,0,0:0:0:25:drum_Emphasis2.wav
469,192,78849,128,0,81376:0:0:0:0:
298,192,79481,128,0,81376:0:0:0:0:
213,192,79955,128,0,81376:0:0:0:0:
128,192,80112,128,0,81376:0:0:0:0:
384,192,80112,1,2,0:0:0:0:
384,192,81060,128,0,81376:0:0:0:0:
42,192,81376,128,0,83902:0:0:0:0:
213,192,82007,128,0,83902:0:0:0:0:
469,192,82639,128,0,83902:0:0:0:0:
128,192,82639,1,2,0:0:0:0:
128,192,83586,128,0,83902:0:0:0:0:
384,192,83902,128,0,85165:0:0:0:0:
42,192,84534,128,0,85165:0:0:0:0:
298,192,84849,128,0,85165:0:0:0:0:
128,192,85165,128,0,86428:0:0:0:0:
469,192,85165,1,2,0:0:0:0:
469,192,85797,128,0,86428:0:0:0:0:
213,192,86112,128,0,86428:0:0:0:0:
384,192,86428,128,0,87691:0:0:0:0:
42,192,87060,128,0,87691:0:0:0:0:
128,192,87691,1,0,0:0:0:0:
298,192,87691,1,0,0:0:0:0:
128,192,88007,1,0,0:0:0:0:
298,192,88007,1,0,0:0:0:0:
128,192,88323,1,0,0:0:0:0:
384,192,88323,1,0,0:0:0:0:
42,192,88639,1,8,0:2:0:20:
128,192,88639,1,8,0:2:0:20:
384,192,88639,1,8,0:2:0:20:
469,192,88639,1,8,0:2:0:20:
469,192,88955,1,4,0:2:0:0:
42,192,88955,1,0,0:0:0:40:drumpad.wav
298,192,88955,1,0,0:0:0:0:
213,192,88955,1,0,0:0:0:0:
128,192,89112,1,2,0:0:0:0:
298,192,89270,1,0,0:0:0:0:
213,192,89270,1,0,0:0:0:40:drumpad.wav
469,192,89270,1,0,0:0:0:45:drum_Emphasis2.wav
469,192,89428,1,2,0:0:0:0:
213,192,89586,1,0,0:0:0:0:
128,192,89586,1,0,0:0:0:40:drumpad.wav
469,192,89744,1,2,0:0:0:0:
213,192,89902,1,0,0:0:0:0:
42,192,89902,1,0,0:0:0:40:drumpad.wav
298,192,89902,1,0,0:0:0:45:drum_Emphasis2.wav
469,192,90060,1,2,0:0:0:0:
384,192,90218,1,0,0:0:0:0:
128,192,90218,1,0,0:0:0:40:drumpad.wav
298,192,90376,128,2,90534:0:0:0:0:
384,192,90534,1,0,0:0:0:0:
213,192,90534,1,0,0:0:0:40:drumpad.wav
469,192,90534,1,0,0:0:0:45:drum_Emphasis2.wav
42,192,90691,1,2,0:0:0:0:
298,192,90849,1,0,0:0:0:0:
469,192,90849,1,4,0:2:0:0:
213,192,90849,1,0,0:0:0:0:
128,192,90849,1,0,0:0:0:40:drumpad.wav
213,192,91165,1,0,0:0:0:0:
298,192,91165,1,0,0:0:0:0:
469,192,91165,1,4,0:2:0:0:
128,192,91165,1,0,0:0:0:40:drumpad.wav
384,192,91481,1,0,0:0:0:0:
469,192,91481,1,4,0:2:0:0:
213,192,91481,1,0,0:0:0:0:
42,192,91481,1,0,0:0:0:40:drumpad.wav
298,192,91639,1,2,0:0:0:0:
384,192,91797,1,0,0:0:0:0:
42,192,91797,1,0,0:0:0:40:drumpad.wav
469,192,91797,1,0,0:0:0:45:drum_Emphasis2.wav
42,192,91955,1,2,0:0:0:0:
384,192,92112,1,0,0:0:0:0:
298,192,92112,1,0,0:0:0:40:drumpad.wav
42,192,92270,1,2,0:0:0:0:
298,192,92428,1,0,0:0:0:0:
213,192,92428,1,0,0:0:0:40:drumpad.wav
469,192,92428,1,0,0:0:0:45:drum_Emphasis2.wav
42,192,92586,1,2,0:0:0:0:
384,192,92744,1,0,0:0:0:0:
128,192,92744,1,0,0:0:0:40:drumpad.wav
213,192,92902,128,2,93060:0:0:0:0:
128,192,93060,1,0,0:0:0:0:
42,192,93060,1,0,0:0:0:40:drumpad.wav
298,192,93060,1,0,0:0:0:45:drum_Emphasis2.wav
469,192,93218,1,2,0:0:0:0:
384,192,93376,1,0,0:0:0:0:
213,192,93376,1,0,0:0:0:0:
298,192,93376,1,4,0:2:0:0:
42,192,93376,1,0,0:0:0:40:drumpad.wav
384,192,93691,1,0,0:0:0:0:
298,192,93691,1,4,0:2:0:0:
213,192,93691,1,0,0:0:0:0:
42,192,93691,1,0,0:0:0:40:drumpad.wav
128,192,94007,1,0,0:0:0:0:
469,192,94007,1,0,0:0:0:0:
298,192,94007,1,4,0:2:0:0:
42,192,94007,1,0,0:0:0:40:drumpad.wav
213,192,94165,1,2,0:0:0:0:
298,192,94323,1,0,0:0:0:0:
42,192,94323,1,0,0:0:0:40:drumpad.wav
384,192,94323,1,0,0:0:0:45:drum_Emphasis2.wav
384,192,94481,1,2,0:0:0:0:
213,192,94639,1,0,0:0:0:0:
128,192,94639,1,0,0:0:0:40:drumpad.wav
384,192,94797,1,2,0:0:0:0:
213,192,94955,1,0,0:0:0:0:
42,192,94955,1,0,0:0:0:40:drumpad.wav
298,192,94955,1,0,0:0:0:45:drum_Emphasis2.wav
469,192,95112,1,4,0:2:0:0:
298,192,95112,128,2,95428:0:0:0:0:
128,192,95112,1,0,0:0:0:45:drum_Emphasis2.wav
213,192,95270,1,0,0:0:0:0:
128,192,95270,1,0,0:0:0:40:drumpad.wav
384,192,95428,1,2,0:0:0:0:
213,192,95586,1,0,0:0:0:0:
42,192,95586,1,0,0:0:0:40:drumpad.wav
298,192,95586,1,0,0:0:0:45:drum_Emphasis2.wav
128,192,95744,1,2,0:0:0:0:
384,192,95902,1,0,0:0:0:0:
298,192,95902,1,0,0:0:0:40:drumpad.wav
128,192,96060,1,2,0:0:0:0:
298,192,96218,1,0,0:0:0:0:
213,192,96218,1,0,0:0:0:40:drumpad.wav
469,192,96218,1,0,0:0:0:45:drum_Emphasis2.wav
384,192,96376,1,2,0:0:0:0:
469,192,96534,1,4,0:2:0:0:
128,192,96534,1,0,0:0:0:0:
298,192,96534,1,0,0:0:0:0:
42,192,96534,1,0,0:0:0:40:drumpad.wav
213,192,96691,1,2,0:0:0:0:
298,192,96849,1,0,0:0:0:0:
128,192,96849,1,0,0:0:0:40:drumpad.wav
384,192,96849,1,0,0:0:0:45:drum_Emphasis2.wav
298,192,97007,1,2,0:0:0:0:
213,192,97165,1,0,0:0:0:0:
128,192,97165,1,0,0:0:0:40:drumpad.wav
469,192,97323,1,2,0:0:0:0:
213,192,97481,1,0,0:0:0:0:
42,192,97481,1,0,0:0:0:40:drumpad.wav
298,192,97481,1,0,0:0:0:45:drum_Emphasis2.wav
384,192,97639,1,4,0:2:0:0:
213,192,97639,128,2,98428:0:0:0:0:
128,192,97639,1,0,0:0:0:45:drum_Emphasis2.wav
384,192,97797,1,0,0:0:0:0:
298,192,97797,1,0,0:0:0:40:drumpad.wav
42,192,97955,1,2,0:0:0:0:
128,192,98112,1,0,0:0:0:0:
298,192,98112,1,0,0:0:0:40:drumpad.wav
469,192,98112,1,0,0:0:0:45:drum_Emphasis2.wav
384,192,98270,1,2,0:0:0:0:
298,192,98428,1,0,0:0:0:40:drumpad.wav
42,192,98428,1,0,0:0:0:0:
213,192,98586,1,2,0:0:0:0:
384,192,98744,1,0,0:0:0:0:
128,192,98744,1,0,0:0:0:40:drumpad.wav
469,192,98744,1,0,0:0:0:45:drum_Emphasis2.wav
213,192,98902,1,2,0:0:0:0:
384,192,99060,1,0,0:0:0:0:
213,192,99060,1,0,0:0:0:0:
469,192,99060,1,4,0:2:0:0:
42,192,99060,1,0,0:0:0:40:drumpad.wav
298,192,99218,1,2,0:0:0:0:
384,192,99376,1,0,0:0:0:0:
128,192,99376,1,0,0:0:0:40:drumpad.wav
469,192,99376,1,0,0:0:0:45:drum_Emphasis2.wav
213,192,99455,1,0,0:0:0:0:
298,192,99534,1,2,0:0:0:0:
213,192,99691,1,0,0:0:0:0:
128,192,99691,1,0,0:0:0:40:drumpad.wav
384,192,99849,1,2,0:0:0:0:
298,192,99928,1,0,0:0:0:0:
213,192,100007,1,0,0:0:0:0:
42,192,100007,1,0,0:0:0:40:drumpad.wav
469,192,100007,1,0,0:0:0:45:drum_Emphasis2.wav
298,192,100165,1,4,0:2:0:0:
384,192,100165,1,2,0:0:0:0:
42,192,100165,1,0,0:0:0:45:drum_Emphasis2.wav
469,192,100323,1,0,0:0:0:0:
128,192,100323,1,0,0:0:0:40:drumpad.wav
213,192,100481,1,2,0:0:0:0:
298,192,100560,1,0,0:0:0:0:
128,192,100639,1,0,0:0:0:0:
42,192,100639,1,0,0:0:0:40:drumpad.wav
384,192,100639,1,0,0:0:0:45:drum_Emphasis2.wav
384,192,100797,1,2,0:0:0:0:
298,192,100797,1,0,0:0:0:0:
469,192,100955,1,0,0:0:0:0:
213,192,100955,1,0,0:0:0:40:drumpad.wav
298,192,101112,1,0,0:0:0:0:
213,192,101112,1,2,0:0:0:0:
384,192,101270,1,0,0:0:0:0:
42,192,101270,1,0,0:0:0:40:drumpad.wav
469,192,101270,1,0,0:0:0:45:drum_Emphasis2.wav
213,192,101428,1,0,0:0:0:0:
384,192,101428,1,2,0:0:0:0:
213,192,101586,1,0,0:0:0:0:
298,192,101586,1,0,0:0:0:0:
469,192,101586,1,4,0:2:0:0:
42,192,101586,1,0,0:0:0:40:drumpad.wav
128,192,101744,1,2,0:0:0:0:
384,192,101902,1,0,0:0:0:0:
42,192,101902,1,0,0:0:0:40:drumpad.wav
469,192,101902,1,0,0:0:0:45:drum_Emphasis2.wav
298,192,101981,1,0,0:0:0:0:
213,192,102060,1,2,0:0:0:0:
469,192,102218,1,0,0:0:0:0:
298,192,102218,1,0,0:0:0:40:drumpad.wav
128,192,102376,1,2,0:0:0:0:
213,192,102455,1,0,0:0:0:0:
298,192,102534,1,0,0:0:0:0:
42,192,102534,1,0,0:0:0:40:drumpad.wav
384,192,102534,1,0,0:0:0:45:drum_Emphasis2.wav
298,192,102691,1,4,0:2:0:0:
469,192,102691,1,2,0:0:0:0:
128,192,102691,1,0,0:0:0:45:drum_Emphasis2.wav
384,192,102849,1,0,0:0:0:0:
213,192,102849,1,0,0:0:0:40:drumpad.wav
298,192,103007,1,2,0:0:0:0:
213,192,103086,1,0,0:0:0:0:
384,192,103165,1,0,0:0:0:0:
128,192,103165,1,0,0:0:0:40:drumpad.wav
469,192,103165,1,0,0:0:0:45:drum_Emphasis2.wav
213,192,103323,1,2,0:0:0:0:
298,192,103402,1,0,0:0:0:0:
384,192,103481,1,0,0:0:0:0:
42,192,103481,1,0,0:0:0:0:
469,192,103481,1,4,0:2:0:0:
128,192,103481,1,0,0:0:0:40:drumpad.wav
42,192,103797,1,0,0:0:0:0:
384,192,103797,1,0,0:0:0:0:
469,192,103797,1,4,0:2:0:0:
128,192,103797,1,0,0:0:0:40:drumpad.wav
213,192,104112,1,0,0:0:0:0:
469,192,104112,1,4,0:2:0:0:
298,192,104112,1,0,0:0:0:0:
42,192,104112,1,0,0:0:0:40:drumpad.wav
384,192,104270,1,2,0:0:0:0:
298,192,104428,1,0,0:0:0:0:
42,192,104428,1,0,0:0:0:40:drumpad.wav
469,192,104428,1,0,0:0:0:45:drum_Emphasis2.wav
128,192,104507,1,0,0:0:0:0:
213,192,104586,1,2,0:0:0:0:
384,192,104744,1,0,0:0:0:0:
298,192,104744,1,0,0:0:0:40:drumpad.wav
128,192,104902,1,2,0:0:0:0:
213,192,104981,1,0,0:0:0:0:
469,192,105060,1,0,0:0:0:0:
42,192,105060,1,0,0:0:0:40:drumpad.wav
298,192,105060,1,0,0:0:0:45:drum_Emphasis2.wav
384,192,105218,1,4,0:2:0:0:
298,192,105218,1,2,0:0:0:0:
128,192,105218,1,0,0:0:0:45:drum_Emphasis2.wav
213,192,105376,1,0,0:0:0:0:
128,192,105376,1,0,0:0:0:40:drumpad.wav
384,192,105534,1,2,0:0:0:0:
298,192,105612,1,0,0:0:0:0:
213,192,105691,1,0,0:0:0:0:
42,192,105691,1,0,0:0:0:40:drumpad.wav
469,192,105691,1,0,0:0:0:45:drum_Emphasis2.wav
213,192,105849,1,2,0:0:0:0:
384,192,105849,1,0,0:0:0:0:
384,192,106007,1,0,0:0:0:0:
128,192,106007,1,0,0:0:0:40:drumpad.wav
469,192,106007,1,0,0:0:0:45:drum_Emphasis2.wav
128,192,106165,1,2,0:0:0:0:
42,192,106165,1,0,0:0:0:0:
298,192,106323,1,0,0:0:0:0:
213,192,106323,1,0,0:0:0:40:drumpad.wav
384,192,106323,1,0,0:0:0:45:drum_Emphasis2.wav
469,192,106481,1,2,0:0:0:0:
384,192,106639,1,0,0:0:0:0:
128,192,106639,1,0,0:0:0:0:
42,192,106639,1,0,0:0:0:40:drumpad.wav
298,192,106718,1,0,0:0:0:0:
213,192,106797,1,0,0:0:0:0:
128,192,106876,1,0,0:0:0:0:
384,192,106955,1,0,0:0:0:0:
42,192,106955,1,0,0:0:0:40:drumpad.wav
469,192,106955,1,0,0:0:0:45:drum_Emphasis2.wav
128,192,107034,1,0,0:0:0:0:
213,192,107112,1,0,0:0:0:0:
298,192,107191,1,0,0:0:0:0:
384,192,107270,1,0,0:0:0:0:
128,192,107270,1,0,0:0:0:40:drumpad.wav
213,192,107349,1,0,0:0:0:0:
298,192,107428,1,0,0:0:0:0:
384,192,107507,1,0,0:0:0:0:
42,192,107586,1,0,0:0:0:0:
128,192,107586,1,0,0:0:0:40:drumpad.wav
469,192,107586,1,0,0:0:0:45:drum_Emphasis2.wav
384,192,107665,1,0,0:0:0:0:
298,192,107744,1,0,0:0:0:0:
213,192,107823,1,0,0:0:0:0:
384,192,107902,1,0,0:0:0:45:drum_Emphasis2.wav
128,192,107902,1,0,0:0:0:0:
42,192,107902,1,0,0:0:0:0:
469,192,107902,1,0,0:0:0:40:drumpad.wav
384,192,108060,1,0,0:0:0:0:
469,192,108060,1,0,0:0:0:40:drumpad.wav
42,192,108218,1,0,0:0:0:0:
128,192,108218,1,0,0:0:0:0:
469,192,108218,1,0,0:0:0:40:drumpad.wav
384,192,108218,1,0,0:0:0:45:drum_Emphasis2.wav
384,192,108376,1,0,0:0:0:0:
469,192,108376,1,0,0:0:0:40:drumpad.wav
384,192,108534,1,0,0:0:0:0:
469,192,108534,1,0,0:0:0:0:
42,192,108534,1,0,0:0:0:40:drumpad.wav
128,192,108534,1,0,0:0:0:45:drum_Emphasis2.wav
128,192,108691,1,0,0:0:0:0:
42,192,108691,1,0,0:0:0:40:drumpad.wav
469,192,108849,1,0,0:0:0:0:
42,192,108849,1,0,0:0:0:40:drumpad.wav
384,192,108849,1,0,0:0:0:0:
128,192,108849,1,0,0:0:0:45:drum_Emphasis2.wav
128,192,109007,1,0,0:0:0:0:
42,192,109007,1,0,0:0:0:40:drumpad.wav
384,192,109165,1,0,0:0:0:0:
469,192,109165,1,0,0:0:0:0:
42,192,109165,1,0,0:0:0:40:drumpad.wav
128,192,109165,1,0,0:0:0:45:drum_Emphasis2.wav
384,192,110270,1,0,0:0:0:0:
469,192,110270,1,0,0:0:0:0:
42,192,110270,1,0,0:0:0:40:drumpad.wav
128,192,110270,1,0,0:0:0:45:drum_Emphasis2.wav
384,192,111060,1,0,0:0:0:0:
469,192,111060,1,0,0:0:0:0:
42,192,111060,1,0,0:0:0:40:drumpad.wav
128,192,111060,1,0,0:0:0:45:drum_Emphasis2.wav
384,192,111376,1,0,0:0:0:0:
469,192,111376,1,0,0:0:0:0:
42,192,111376,1,0,0:0:0:40:drumpad.wav
128,192,111376,1,0,0:0:0:45:drum_Emphasis2.wav
213,192,111534,1,0,0:0:0:25:drumpad.wav
298,192,111612,1,0,0:0:0:25:drumpad.wav
128,192,111691,1,0,0:0:0:0:
469,192,111691,1,0,0:0:0:0:
42,192,111691,1,0,0:0:0:40:drumpad.wav
384,192,111691,1,0,0:0:0:45:drum_Emphasis2.wav
128,192,112797,1,0,0:0:0:0:
469,192,112797,1,0,0:0:0:0:
42,192,112797,1,0,0:0:0:40:drumpad.wav
384,192,112797,1,0,0:0:0:45:drum_Emphasis2.wav
128,192,113586,1,0,0:0:0:0:
469,192,113586,1,0,0:0:0:0:
42,192,113586,1,0,0:0:0:40:drumpad.wav
384,192,113586,1,0,0:0:0:45:drum_Emphasis2.wav
128,192,113902,1,8,0:2:0:20:
213,192,113902,1,8,0:2:0:20:
298,192,113902,1,8,0:2:0:20:
384,192,113902,1,8,0:2:0:20:
42,192,113902,1,0,0:0:0:40:drumpad.wav
469,192,113902,1,0,0:0:0:45:drum_Emphasis2.wav
298,192,114060,1,0,0:0:0:25:drumpad.wav
213,192,114139,1,0,0:0:0:25:drumpad.wav
128,192,114218,1,0,0:0:0:0:
384,192,114218,1,0,0:0:0:0:
469,192,114218,1,4,0:2:0:0:
42,192,114218,1,0,0:0:0:40:drumpad.wav
213,192,114376,1,2,0:0:0:0:
298,192,114534,1,0,0:0:0:0:
42,192,114534,1,0,0:0:0:40:drumpad.wav
384,192,114534,1,0,0:0:0:45:drum_Emphasis2.wav
384,192,114691,1,2,0:0:0:0:
298,192,114849,1,0,0:0:0:0:
128,192,114849,1,0,0:0:0:40:drumpad.wav
384,192,115007,1,2,0:0:0:0:
213,192,115165,1,0,0:0:0:0:
42,192,115165,1,0,0:0:0:40:drumpad.wav
298,192,115165,1,0,0:0:0:45:drum_Emphasis2.wav
469,192,115323,1,4,0:2:0:0:
213,192,115323,128,2,115639:0:0:0:0:
128,192,115323,1,0,0:0:0:45:drum_Emphasis2.wav
384,192,115481,1,0,0:0:0:0:
298,192,115481,1,0,0:0:0:40:drumpad.wav
42,192,115639,1,2,0:0:0:0:
213,192,115797,1,0,0:0:0:0:
128,192,115797,1,0,0:0:0:40:drumpad.wav
384,192,115797,1,0,0:0:0:45:drum_Emphasis2.wav
298,192,115955,1,2,0:0:0:0:
384,192,116112,1,0,0:0:0:0:
42,192,116112,1,0,0:0:0:40:drumpad.wav
213,192,116270,1,2,0:0:0:0:
298,192,116428,1,0,0:0:0:0:
128,192,116428,1,0,0:0:0:40:drumpad.wav
469,192,116428,1,0,0:0:0:45:drum_Emphasis2.wav
384,192,116586,1,2,0:0:0:0:
469,192,116744,1,4,0:2:0:0:
213,192,116744,1,0,0:0:0:0:
128,192,116744,1,0,0:0:0:0:
42,192,116744,1,0,0:0:0:40:drumpad.wav
298,192,116902,1,2,0:0:0:0:
213,192,117060,1,0,0:0:0:0:
42,192,117060,1,0,0:0:0:40:drumpad.wav
384,192,117060,1,0,0:0:0:45:drum_Emphasis2.wav
42,192,117218,1,2,0:0:0:0:
298,192,117376,1,0,0:0:0:0:
213,192,117376,1,0,0:0:0:40:drumpad.wav
42,192,117534,1,2,0:0:0:0:
298,192,117691,1,0,0:0:0:0:
213,192,117691,1,0,0:0:0:40:drumpad.wav
469,192,117691,1,0,0:0:0:45:drum_Emphasis2.wav
469,192,117849,128,0,118797:0:0:0:0:
213,192,117849,1,2,0:0:0:0:
128,192,118007,1,0,0:0:0:0:
42,192,118007,1,0,0:0:0:40:drumpad.wav
213,192,118165,1,2,0:0:0:0:
298,192,118323,1,0,0:0:0:45:drum_Emphasis2.wav
128,192,118323,1,0,0:0:0:0:
42,192,118323,1,0,0:0:0:40:drumpad.wav
298,192,118481,1,2,0:0:0:0:
384,192,118639,1,0,0:0:0:0:
42,192,118639,1,0,0:0:0:40:drumpad.wav
213,192,118797,128,2,119112:0:0:0:0:
384,192,118955,1,0,0:0:0:0:
128,192,118955,1,0,0:0:0:40:drumpad.wav
298,192,118955,1,0,0:0:0:45:drum_Emphasis2.wav
128,192,119112,128,0,119586:0:0:0:0:
469,192,119112,1,0,0:0:0:40:drumpad.wav
298,192,119112,1,0,0:0:0:45:drum_Emphasis2.wav
469,192,119428,128,0,119586:0:0:0:0:
213,192,119586,1,4,0:2:0:0:
298,192,119586,1,0,0:0:0:0:
42,192,119586,1,0,0:0:0:40:drumpad.wav
384,192,119586,1,0,0:0:0:45:drum_Emphasis2.wav
384,192,119744,128,0,120218:0:0:0:0:
42,192,120060,128,0,120218:0:0:0:0:
213,192,120218,1,0,0:0:0:0:
298,192,120218,1,4,0:2:0:0:
469,192,120218,1,0,0:0:0:40:drumpad.wav
128,192,120218,1,0,0:0:0:45:drum_Emphasis2.wav
213,192,120376,128,0,120849:0:0:0:0:
469,192,120691,128,0,120849:0:0:0:0:
128,192,120849,1,0,0:0:0:0:
298,192,120849,1,4,0:2:0:0:
42,192,120849,1,0,0:0:0:40:drumpad.wav
384,192,120849,1,0,0:0:0:45:drum_Emphasis2.wav
298,192,121007,128,0,121481:0:0:0:0:
42,192,121323,128,0,121481:0:0:0:0:
213,192,121481,1,4,0:2:0:0:
384,192,121481,1,0,0:0:0:0:
469,192,121481,1,0,0:0:0:40:drumpad.wav
128,192,121481,1,0,0:0:0:45:drum_Emphasis2.wav
469,192,121639,128,0,122112:0:0:0:0:
213,192,121955,128,0,122112:0:0:0:0:
128,192,122112,1,0,0:0:0:0:
298,192,122112,1,4,0:2:0:0:
42,192,122112,1,0,0:0:0:40:drumpad.wav
384,192,122112,1,0,0:0:0:45:drum_Emphasis2.wav
42,192,122270,128,0,122744:0:0:0:0:
298,192,122586,128,0,122744:0:0:0:0:
213,192,122744,1,4,0:2:0:0:
384,192,122744,1,0,0:0:0:0:
469,192,122744,1,0,0:0:0:40:drumpad.wav
128,192,122744,1,0,0:0:0:45:drum_Emphasis2.wav
213,192,123060,1,0,0:0:0:0:
298,192,123060,1,0,0:0:0:0:
384,192,123060,1,0,0:0:0:40:drumpad.wav
128,192,123060,1,0,0:0:0:45:drum_Emphasis2.wav
298,192,123218,1,0,0:0:0:0:
384,192,123218,1,0,0:0:0:40:drumpad.wav
213,192,123376,1,0,0:0:0:0:
298,192,123376,1,0,0:0:0:0:
128,192,123376,1,0,0:0:0:40:drumpad.wav
384,192,123376,1,0,0:0:0:45:drum_Emphasis2.wav
213,192,123534,1,0,0:0:0:0:
128,192,123534,1,0,0:0:0:40:drumpad.wav
213,192,123691,1,0,0:0:0:0:
298,192,123691,1,0,0:0:0:0:
384,192,123691,1,0,0:0:0:40:drumpad.wav
128,192,123691,1,0,0:0:0:45:drum_Emphasis2.wav
298,192,123849,1,0,0:0:0:0:
384,192,123849,1,0,0:0:0:40:drumpad.wav
42,192,124007,1,0,0:0:0:40:drumpad.wav
128,192,124007,1,8,0:2:0:20:
213,192,124007,1,8,0:2:0:20:
298,192,124007,1,8,0:2:0:20:
384,192,124007,1,8,0:2:0:20:
469,192,124007,1,0,0:0:0:45:drum_Emphasis2.wav
213,192,124165,1,0,0:0:0:0:
128,192,124165,1,0,0:0:0:40:drumpad.wav
213,192,124323,1,0,0:0:0:0:
298,192,124323,1,0,0:0:0:0:
384,192,124323,1,4,0:2:0:0:
128,192,124323,1,0,0:0:0:40:drumpad.wav
469,192,124481,1,2,0:0:0:0:
298,192,124639,1,0,0:0:0:0:
42,192,124639,1,0,0:0:0:40:drumpad.wav
384,192,124639,1,0,0:0:0:45:drum_Emphasis2.wav
128,192,124718,1,0,0:0:0:0:
213,192,124797,1,2,0:0:0:0:
469,192,124955,1,0,0:0:0:0:
128,192,124955,1,0,0:0:0:40:drumpad.wav
298,192,125112,1,2,0:0:0:0:
213,192,125191,1,0,0:0:0:0:
384,192,125270,1,0,0:0:0:0:
128,192,125270,1,0,0:0:0:40:drumpad.wav
469,192,125270,1,0,0:0:0:45:drum_Emphasis2.wav
298,192,125428,1,4,0:2:0:0:
469,192,125428,1,2,0:0:0:0:
213,192,125428,1,0,0:0:0:45:drum_Emphasis2.wav
213,192,125586,1,0,0:0:0:0:
42,192,125586,1,0,0:0:0:40:drumpad.wav
298,192,125744,1,2,0:0:0:0:
128,192,125902,1,0,0:0:0:0:
42,192,125902,1,0,0:0:0:40:drumpad.wav
384,192,125902,1,0,0:0:0:45:drum_Emphasis2.wav
298,192,125981,1,0,0:0:0:0:
213,192,126060,1,2,0:0:0:0:
384,192,126218,1,0,0:0:0:0:
298,192,126218,1,0,0:0:0:40:drumpad.wav
128,192,126376,1,2,0:0:0:0:
213,192,126455,1,0,0:0:0:0:
298,192,126534,1,0,0:0:0:0:
42,192,126534,1,0,0:0:0:40:drumpad.wav
469,192,126534,1,0,0:0:0:45:drum_Emphasis2.wav
469,192,126849,1,0,0:0:0:40:drumpad.wav
128,192,126849,128,0,127165:0:0:0:0:
298,192,127007,128,0,127165:0:0:0:0:
469,192,127165,128,0,127481:0:0:0:0:
213,192,127165,1,0,0:0:0:40:drumpad.wav
384,192,127165,1,0,0:0:0:45:drum_Emphasis2.wav
213,192,127323,128,0,127481:0:0:0:0:
298,192,127481,1,0,0:0:0:40:drumpad.wav
42,192,127481,128,0,127797:0:0:0:0:
298,192,127639,128,0,127797:0:0:0:0:
384,192,127797,128,0,128112:0:0:0:0:
128,192,127797,1,0,0:0:0:40:drumpad.wav
213,192,127797,1,0,0:0:0:45:drum_Emphasis2.wav
128,192,127955,128,0,128112:0:0:0:0:
42,192,128112,1,0,0:0:0:0:
213,192,128112,1,0,0:0:0:0:
469,192,128112,1,0,0:0:0:40:drumpad.wav
298,192,128112,1,0,0:0:0:45:drum_Emphasis2.wav
298,192,128270,1,0,0:0:0:0:
469,192,128270,1,0,0:0:0:40:drumpad.wav
42,192,128428,1,0,0:0:0:0:
213,192,128428,1,0,0:0:0:0:
469,192,128428,1,0,0:0:0:40:drumpad.wav
298,192,128428,1,0,0:0:0:45:drum_Emphasis2.wav
298,192,128586,1,0,0:0:0:0:
469,192,128586,1,0,0:0:0:40:drumpad.wav
298,192,128744,1,0,0:0:0:0:
469,192,128744,1,0,0:0:0:0:
42,192,128744,1,0,0:0:0:40:drumpad.wav
213,192,128744,1,0,0:0:0:45:drum_Emphasis2.wav
213,192,128902,1,0,0:0:0:0:
42,192,128902,1,0,0:0:0:40:drumpad.wav
469,192,129060,1,0,0:0:0:0:
298,192,129060,1,0,0:0:0:0:
42,192,129060,1,0,0:0:0:40:drumpad.wav
213,192,129060,1,0,0:0:0:45:drum_Emphasis2.wav
213,192,129218,1,0,0:0:0:0:
42,192,129218,1,0,0:0:0:40:drumpad.wav
213,192,129376,1,0,0:0:0:0:
469,192,129376,1,2,0:0:0:0:
42,192,129376,1,0,0:0:0:55:clock_1.wav
213,192,129691,1,0,0:0:0:0:
384,192,130007,1,0,0:0:0:0:
469,192,130007,1,2,0:0:0:0:
128,192,130007,1,0,0:0:0:55:clock_1.wav
298,192,130323,1,0,0:0:0:0:
213,192,130534,1,0,0:0:0:0:
298,192,130586,1,0,0:0:0:0:
384,192,130639,1,2,0:0:0:0:
128,192,130639,1,0,0:0:0:55:clock_1.wav
42,192,130639,1,0,0:0:0:0:
213,192,130955,1,0,0:0:0:0:
384,192,131270,1,2,0:0:0:0:
128,192,131270,1,0,0:0:0:55:clock_1.wav
298,192,131270,1,0,0:0:0:0:
469,192,131586,1,0,0:0:0:0:
384,192,131902,1,2,0:0:0:0:
298,192,131902,1,0,0:0:0:0:
42,192,131902,1,0,0:0:0:55:clock_1.wav
128,192,132218,1,0,0:0:0:0:
384,192,132218,1,0,0:0:0:0:
469,192,132534,1,2,0:0:0:0:
42,192,132534,1,0,0:0:0:55:clock_1.wav
298,192,132534,1,0,0:0:0:0:
128,192,132691,1,0,0:0:0:0:
213,192,132849,1,0,0:0:0:0:
298,192,133007,1,0,0:0:0:0:
384,192,133165,1,2,0:0:0:0:
42,192,133165,1,0,0:0:0:55:clock_1.wav
128,192,133165,1,0,0:0:0:0:
298,192,133481,1,0,0:0:0:0:
213,192,133797,128,0,134112:0:0:0:55:clock_1.wav
213,192,134428,1,0,0:0:0:0:
298,192,134428,1,0,0:0:0:0:
42,192,134428,1,0,0:0:0:40:drumpad.wav
469,192,134428,1,0,0:0:0:45:drum_Emphasis2.wav
213,192,135691,1,0,0:0:0:0:
298,192,135691,1,0,0:0:0:0:
128,192,135691,1,0,0:0:0:40:drumpad.wav
469,192,135691,1,0,0:0:0:45:drum_Emphasis2.wav
298,192,136955,1,0,0:0:0:0:
213,192,136955,1,0,0:0:0:0:
128,192,136955,1,0,0:0:0:40:drumpad.wav
384,192,136955,1,0,0:0:0:45:drum_Emphasis2.wav
213,192,137270,1,0,0:0:0:0:
298,192,137270,1,0,0:0:0:0:
128,192,137270,1,0,0:0:0:40:drumpad.wav
384,192,137270,1,0,0:0:0:45:drum_Emphasis2.wav
298,192,137586,1,0,0:0:0:0:
213,192,137586,1,0,0:0:0:0:
128,192,137586,1,0,0:0:0:40:drumpad.wav
384,192,137586,1,0,0:0:0:45:drum_Emphasis2.wav
42,192,137902,1,0,0:0:0:40:drumpad.wav
128,192,137902,1,8,0:2:0:20:
213,192,137902,1,8,0:2:0:20:
298,192,137902,1,8,0:2:0:20:
384,192,137902,1,8,0:2:0:20:
469,192,137902,1,0,0:0:0:45:drum_Emphasis2.wav
469,192,138218,1,0,0:0:0:40:drumpad.wav
213,192,138218,1,0,0:0:0:0:
384,192,138297,1,0,0:0:0:0:
298,192,138376,1,0,0:0:0:0:
213,192,138455,1,0,0:0:0:0:
384,192,138534,1,0,0:0:0:0:
469,192,138534,1,0,0:0:0:40:drumpad.wav
128,192,138534,1,0,0:0:0:45:drum_Emphasis2.wav
384,192,138691,1,0,0:0:0:0:
42,192,138691,1,0,0:0:0:40:drumpad.wav
213,192,138849,1,0,0:0:0:0:
298,192,138928,1,0,0:0:0:0:
384,192,139007,1,0,0:0:0:0:
128,192,139007,1,0,0:0:0:40:drumpad.wav
213,192,139086,1,0,0:0:0:0:
298,192,139165,1,0,0:0:0:0:
42,192,139165,1,0,0:0:0:40:drumpad.wav
469,192,139165,1,0,0:0:0:45:drum_Emphasis2.wav
298,192,139323,1,0,0:0:0:0:
213,192,139323,1,0,0:0:0:40:drumpad.wav
128,192,139481,1,0,0:0:0:0:
42,192,139481,1,0,0:0:0:40:drumpad.wav
469,192,139481,1,0,0:0:0:0:
213,192,139560,1,0,0:0:0:0:
298,192,139639,1,0,0:0:0:0:
384,192,139718,1,0,0:0:0:0:
213,192,139797,1,0,0:0:0:0:
128,192,139797,1,0,0:0:0:40:drumpad.wav
469,192,139797,1,0,0:0:0:45:drum_Emphasis2.wav
384,192,139955,1,0,0:0:0:0:
128,192,139955,1,0,0:0:0:40:drumpad.wav
298,192,140112,1,0,0:0:0:0:
213,192,140191,1,0,0:0:0:0:
384,192,140270,1,0,0:0:0:0:
128,192,140270,1,0,0:0:0:40:drumpad.wav
298,192,140349,1,0,0:0:0:0:
213,192,140428,1,0,0:0:0:0:
42,192,140428,1,0,0:0:0:40:drumpad.wav
469,192,140428,1,0,0:0:0:45:drum_Emphasis2.wav
298,192,140586,1,0,0:0:0:0:
213,192,140586,1,0,0:0:0:40:drumpad.wav
384,192,140744,1,0,0:0:0:0:
128,192,140744,1,0,0:0:0:40:drumpad.wav
469,192,140744,1,0,0:0:0:0:
213,192,140823,1,0,0:0:0:0:
298,192,140902,1,0,0:0:0:0:
42,192,140902,1,0,0:0:0:0:
384,192,140981,1,0,0:0:0:0:
213,192,141060,1,0,0:0:0:0:
128,192,141060,1,0,0:0:0:40:drumpad.wav
469,192,141060,1,0,0:0:0:45:drum_Emphasis2.wav
384,192,141218,1,0,0:0:0:0:
128,192,141218,1,0,0:0:0:40:drumpad.wav
298,192,141376,1,0,0:0:0:0:
384,192,141376,1,0,0:0:0:0:
213,192,141455,1,0,0:0:0:0:
469,192,141534,1,0,0:0:0:0:
128,192,141534,1,0,0:0:0:40:drumpad.wav
384,192,141612,1,0,0:0:0:0:
213,192,141691,1,0,0:0:0:0:
42,192,141691,1,0,0:0:0:40:drumpad.wav
298,192,141691,1,0,0:0:0:45:drum_Emphasis2.wav
298,192,141849,1,0,0:0:0:0:
213,192,141849,1,0,0:0:0:40:drumpad.wav
384,192,142007,1,0,0:0:0:0:
128,192,142034,1,0,0:0:0:0:
213,192,142323,1,0,0:0:0:0:
298,192,142323,1,0,0:0:0:0:
42,192,142323,1,0,0:0:0:40:drumpad.wav
469,192,142323,1,0,0:0:0:45:drum_Emphasis2.wav
213,192,142639,1,0,0:0:0:0:
298,192,142639,1,0,0:0:0:0:
128,192,142639,1,0,0:0:0:40:drumpad.wav
384,192,142639,1,0,0:0:0:45:drum_Emphasis2.wav
469,192,142955,1,0,0:0:0:25:drum_Emphasis2.wav
42,192,142955,1,0,0:0:0:25:drum_Emphasis2.wav
213,192,143270,1,0,0:0:0:0:
298,192,143270,1,0,0:0:0:0:
128,192,143270,1,0,0:0:0:40:drumpad.wav
384,192,143270,1,0,0:0:0:45:drum_Emphasis2.wav
213,192,144534,1,0,0:0:0:0:
298,192,144534,1,0,0:0:0:0:
42,192,144534,1,0,0:0:0:40:drumpad.wav
384,192,144534,1,0,0:0:0:45:drum_Emphasis2.wav
213,192,145797,1,0,0:0:0:0:
298,192,145797,1,0,0:0:0:0:
42,192,145797,1,0,0:0:0:40:drumpad.wav
469,192,145797,1,0,0:0:0:45:drum_Emphasis2.wav
298,192,146112,1,0,0:0:0:0:
213,192,146112,1,0,0:0:0:0:
42,192,146112,1,0,0:0:0:40:drumpad.wav
469,192,146112,1,0,0:0:0:45:drum_Emphasis2.wav
213,192,146428,1,0,0:0:0:0:
298,192,146428,1,0,0:0:0:0:
42,192,146428,1,0,0:0:0:40:drumpad.wav
469,192,146428,1,0,0:0:0:45:drum_Emphasis2.wav
42,192,146744,1,0,0:0:0:40:drumpad.wav
128,192,146744,1,8,0:2:0:20:
213,192,146744,1,8,0:2:0:20:
298,192,146744,1,8,0:2:0:20:
384,192,146744,1,8,0:2:0:20:
469,192,146744,1,0,0:0:0:45:drum_Emphasis2.wav
298,192,147060,1,0,0:0:0:0:
42,192,147060,1,0,0:0:0:40:drumpad.wav
128,192,147139,1,0,0:0:0:0:
213,192,147218,1,0,0:0:0:0:
469,192,147218,1,0,0:0:0:0:
298,192,147297,1,0,0:0:0:0:
128,192,147376,1,0,0:0:0:0:
42,192,147376,1,0,0:0:0:40:drumpad.wav
384,192,147376,1,0,0:0:0:45:drum_Emphasis2.wav
298,192,147534,1,0,0:0:0:0:
128,192,147534,1,0,0:0:0:40:drumpad.wav
42,192,147691,1,0,0:0:0:0:
384,192,147691,1,0,0:0:0:0:
298,192,147770,1,0,0:0:0:0:
469,192,147849,1,0,0:0:0:0:
213,192,147849,1,0,0:0:0:40:drumpad.wav
384,192,147928,1,0,0:0:0:0:
128,192,148007,1,0,0:0:0:0:
42,192,148007,1,0,0:0:0:40:drumpad.wav
298,192,148007,1,0,0:0:0:45:drum_Emphasis2.wav
298,192,148165,1,0,0:0:0:0:
213,192,148165,1,0,0:0:0:40:drumpad.wav
384,192,148323,1,0,0:0:0:0:
128,192,148323,1,0,0:0:0:40:drumpad.wav
469,192,148323,1,0,0:0:0:45:drum_Emphasis2.wav
213,192,148402,1,0,0:0:0:0:
298,192,148481,1,0,0:0:0:0:
42,192,148481,1,0,0:0:0:0:
384,192,148560,1,0,0:0:0:0:
213,192,148639,1,0,0:0:0:0:
128,192,148639,1,0,0:0:0:40:drumpad.wav
469,192,148639,1,0,0:0:0:45:drum_Emphasis2.wav
384,192,148797,1,0,0:0:0:0:
128,192,148797,1,0,0:0:0:40:drumpad.wav
213,192,148955,1,0,0:0:0:0:
469,192,148955,1,0,0:0:0:0:
298,192,149034,1,0,0:0:0:0:
384,192,149112,1,0,0:0:0:0:
42,192,149112,1,0,0:0:0:40:drumpad.wav
128,192,149191,1,0,0:0:0:0:
298,192,149270,1,0,0:0:0:0:
213,192,149270,1,0,0:0:0:40:drumpad.wav
469,192,149270,1,0,0:0:0:45:drum_Emphasis2.wav
298,192,149428,1,0,0:0:0:0:
213,192,149428,1,0,0:0:0:40:drumpad.wav
128,192,149586,1,0,0:0:0:0:
42,192,149586,1,0,0:0:0:40:drumpad.wav
469,192,149586,1,0,0:0:0:45:drum_Emphasis2.wav
384,192,149665,1,0,0:0:0:0:
298,192,149744,1,0,0:0:0:0:
42,192,149744,1,0,0:0:0:0:
213,192,149823,1,0,0:0:0:0:
384,192,149902,1,0,0:0:0:0:
128,192,149902,1,0,0:0:0:40:drumpad.wav
469,192,149902,1,0,0:0:0:45:drum_Emphasis2.wav
384,192,150060,1,0,0:0:0:0:
213,192,150060,1,0,0:0:0:40:drumpad.wav
469,192,150218,1,0,0:0:0:0:
128,192,150218,1,0,0:0:0:0:
213,192,150297,1,0,0:0:0:0:
298,192,150376,1,0,0:0:0:0:
42,192,150376,1,0,0:0:0:40:drumpad.wav
128,192,150455,1,0,0:0:0:0:
384,192,150534,1,0,0:0:0:0:
213,192,150534,1,0,0:0:0:40:drumpad.wav
469,192,150534,1,0,0:0:0:45:drum_Emphasis2.wav
298,192,150691,1,0,0:0:0:0:
213,192,150691,1,0,0:0:0:40:drumpad.wav
128,192,150849,1,0,0:0:0:0:
384,192,150876,1,0,0:0:0:0:
128,192,151165,1,0,0:0:0:0:
384,192,151165,1,0,0:0:0:0:
42,192,151165,1,0,0:0:0:40:drumpad.wav
469,192,151165,1,0,0:0:0:45:drum_Emphasis2.wav
213,192,151481,1,0,0:0:0:0:
298,192,151481,1,0,0:0:0:0:
42,192,151481,1,0,0:0:0:40:drumpad.wav
469,192,151481,1,0,0:0:0:45:drum_Emphasis2.wav
384,192,151797,1,0,0:0:0:25:drum_Emphasis2.wav
128,192,151797,1,0,0:0:0:25:drum_Emphasis2.wav
128,192,152112,1,0,0:0:0:0:
469,192,152112,1,0,0:0:0:0:
42,192,152112,1,0,0:0:0:35:drumpad.wav
298,192,152270,1,0,0:0:0:0:
213,192,152428,1,0,0:0:0:0:
42,192,152428,1,0,0:0:0:35:drumpad.wav
384,192,152428,1,0,0:0:0:40:drum_Emphasis2.wav
298,192,152586,1,0,0:0:0:0:
128,192,152586,1,0,0:0:0:35:drumpad.wav
469,192,152744,1,0,0:0:0:0:
298,192,152902,1,0,0:0:0:0:
213,192,152902,1,0,0:0:0:35:drumpad.wav
128,192,153060,1,0,0:0:0:0:
42,192,153060,1,0,0:0:0:35:drumpad.wav
469,192,153060,1,0,0:0:0:40:drum_Emphasis2.wav
384,192,153218,1,0,0:0:0:0:
213,192,153218,1,0,0:0:0:35:drumpad.wav
298,192,153376,1,0,0:0:0:0:
42,192,153376,1,0,0:0:0:35:drumpad.wav
384,192,153376,1,0,0:0:0:40:drum_Emphasis2.wav
213,192,153534,1,0,0:0:0:0:
298,192,153691,1,0,0:0:0:0:
128,192,153691,1,0,0:0:0:35:drumpad.wav
469,192,153691,1,0,0:0:0:40:drum_Emphasis2.wav
384,192,153849,1,0,0:0:0:0:
213,192,153849,1,0,0:0:0:35:drumpad.wav
42,192,154007,1,0,0:0:0:0:
298,192,154165,1,0,0:0:0:0:
213,192,154165,1,0,0:0:0:35:drumpad.wav
384,192,154323,1,0,0:0:0:0:
42,192,154323,1,0,0:0:0:35:drumpad.wav
469,192,154323,1,0,0:0:0:40:drum_Emphasis2.wav
298,192,154481,1,0,0:0:0:0:
128,192,154481,1,0,0:0:0:35:drumpad.wav
213,192,154639,1,0,0:0:0:0:
469,192,154639,1,0,0:0:0:0:
128,192,154639,1,0,0:0:0:35:drumpad.wav
384,192,154797,1,0,0:0:0:0:
42,192,154955,1,0,0:0:0:0:
128,192,154955,1,0,0:0:0:35:drumpad.wav
298,192,154955,1,0,0:0:0:40:drum_Emphasis2.wav
469,192,155112,1,0,0:0:0:0:
213,192,155112,1,0,0:0:0:35:drumpad.wav
298,192,155270,1,0,0:0:0:0:
384,192,155428,1,0,0:0:0:0:
42,192,155428,1,0,0:0:0:35:drumpad.wav
213,192,155586,1,0,0:0:0:0:
128,192,155586,1,0,0:0:0:35:drumpad.wav
469,192,155586,1,0,0:0:0:40:drum_Emphasis2.wav
384,192,155744,1,0,0:0:0:0:
298,192,155744,1,0,0:0:0:35:drumpad.wav
213,192,155902,1,0,0:0:0:0:
42,192,155902,1,0,0:0:0:35:drumpad.wav
298,192,155902,1,0,0:0:0:40:drum_Emphasis2.wav
469,192,156060,1,0,0:0:0:0:
128,192,156218,1,0,0:0:0:0:
42,192,156218,1,0,0:0:0:35:drumpad.wav
384,192,156218,1,0,0:0:0:40:drum_Emphasis2.wav
298,192,156376,1,0,0:0:0:0:
213,192,156376,1,0,0:0:0:35:drumpad.wav
469,192,156534,1,0,0:0:0:0:
298,192,156691,1,0,0:0:0:0:
42,192,156691,1,0,0:0:0:35:drumpad.wav
213,192,156849,128,0,157007:0:0:0:0:
128,192,156849,1,0,0:0:0:35:drumpad.wav
384,192,156849,1,0,0:0:0:40:drum_Emphasis2.wav
469,192,157007,1,0,0:0:0:0:
298,192,157007,1,0,0:0:0:35:drumpad.wav
213,192,157165,1,0,0:0:0:0:
469,192,157165,128,0,158428:0:0:0:0:
42,192,157165,1,0,0:0:0:35:drumpad.wav
298,192,157323,1,0,0:0:0:0:
128,192,157481,1,0,0:0:0:0:
42,192,157481,1,0,0:0:0:35:drumpad.wav
384,192,157481,1,0,0:0:0:40:drum_Emphasis2.wav
298,192,157639,1,0,0:0:0:0:
213,192,157639,1,0,0:0:0:35:drumpad.wav
42,192,157797,1,0,0:0:0:0:
298,192,157955,1,0,0:0:0:0:
128,192,157955,1,0,0:0:0:35:drumpad.wav
298,192,158112,1,0,0:0:0:0:
213,192,158112,1,0,0:0:0:35:drumpad.wav
384,192,158112,1,0,0:0:0:40:drum_Emphasis2.wav
128,192,158270,1,0,0:0:0:0:
213,192,158270,1,0,0:0:0:35:drumpad.wav
128,192,158428,1,0,0:0:0:35:drumpad.wav
384,192,158428,1,0,0:0:0:0:
42,192,158428,128,0,159691:0:0:0:0:
298,192,158586,1,0,0:0:0:0:
128,192,158744,1,0,0:0:0:35:drumpad.wav
213,192,158744,1,0,0:0:0:0:
469,192,158744,1,0,0:0:0:40:drum_Emphasis2.wav
298,192,158902,1,0,0:0:0:35:drumpad.wav
384,192,158902,1,0,0:0:0:0:
213,192,159060,1,0,0:0:0:0:
128,192,159218,1,0,0:0:0:35:drumpad.wav
384,192,159218,1,0,0:0:0:0:
213,192,159376,1,0,0:0:0:35:drumpad.wav
298,192,159376,1,0,0:0:0:0:
384,192,159376,1,0,0:0:0:40:drum_Emphasis2.wav
213,192,159534,1,0,0:0:0:35:drumpad.wav
298,192,159534,1,0,0:0:0:0:
384,192,159691,128,0,160955:0:0:0:0:
42,192,160007,128,0,160323:0:0:0:0:
298,192,160323,1,0,0:0:0:0:
128,192,160481,1,0,0:0:0:0:
298,192,160639,128,0,160955:0:0:0:0:
213,192,160955,1,0,0:0:0:0:
128,192,160955,1,0,0:0:0:0:
213,192,161270,1,0,0:0:0:0:
298,192,161270,1,0,0:0:0:0:
128,192,161270,1,0,0:0:0:0:
213,192,161586,1,0,0:0:0:0:
298,192,161586,1,0,0:0:0:0:
384,192,161586,1,0,0:0:0:0:
128,192,161586,1,0,0:0:0:0:
128,192,161902,1,8,0:2:0:20:
213,192,161902,1,8,0:2:0:20:
298,192,161902,1,8,0:2:0:20:
384,192,161902,1,8,0:2:0:20:
469,192,161902,1,0,0:0:0:0:
42,192,161902,1,0,0:0:0:0:
469,192,162218,1,4,0:2:0:0:
213,192,162218,1,0,0:0:0:0:
384,192,162218,1,0,0:0:0:0:
42,192,162218,1,0,0:0:0:40:drumpad.wav
298,192,162376,1,0,0:0:0:0:
213,192,162376,1,2,0:0:0:0:
128,192,162534,1,0,0:0:0:0:
42,192,162534,1,0,0:0:0:40:drumpad.wav
384,192,162534,1,0,0:0:0:45:drum_Emphasis2.wav
469,192,162691,1,0,0:0:0:0:
128,192,162691,1,2,0:0:0:0:
298,192,162849,1,0,0:0:0:0:
213,192,162849,1,0,0:0:0:40:drumpad.wav
384,192,163007,1,2,0:0:0:0:
469,192,163007,1,0,0:0:0:0:
128,192,163165,1,0,0:0:0:0:
213,192,163165,1,0,0:0:0:40:drumpad.wav
298,192,163165,1,0,0:0:0:45:drum_Emphasis2.wav
42,192,163323,1,0,0:0:0:0:
213,192,163323,1,2,0:0:0:0:
469,192,163481,1,0,0:0:0:0:
384,192,163481,1,0,0:0:0:40:drumpad.wav
128,192,163639,128,0,163797:0:0:0:0:
298,192,163639,1,2,0:0:0:0:
298,192,163797,1,0,0:0:0:0:
213,192,163797,1,0,0:0:0:40:drumpad.wav
384,192,163797,1,0,0:0:0:45:drum_Emphasis2.wav
213,192,163955,1,2,0:0:0:0:
469,192,163955,1,0,0:0:0:0:
128,192,164112,1,0,0:0:0:0:
469,192,164112,1,4,0:2:0:0:
298,192,164112,1,0,0:0:0:0:
42,192,164112,1,0,0:0:0:40:drumpad.wav
128,192,164428,1,0,0:0:0:0:
469,192,164428,1,4,0:2:0:0:
298,192,164428,1,0,0:0:0:0:
42,192,164428,1,0,0:0:0:40:drumpad.wav
384,192,164744,1,0,0:0:0:0:
213,192,164744,1,0,0:0:0:0:
469,192,164744,1,4,0:2:0:0:
42,192,164744,1,0,0:0:0:40:drumpad.wav
128,192,164902,1,2,0:0:0:0:
384,192,164902,1,0,0:0:0:0:
298,192,165060,1,0,0:0:0:0:
213,192,165060,1,0,0:0:0:40:drumpad.wav
469,192,165060,1,0,0:0:0:45:drum_Emphasis2.wav
42,192,165218,1,0,0:0:0:0:
298,192,165218,1,2,0:0:0:0:
213,192,165376,1,0,0:0:0:0:
128,192,165376,1,0,0:0:0:40:drumpad.wav
469,192,165534,1,0,0:0:0:0:
384,192,165534,1,2,0:0:0:0:
213,192,165691,1,0,0:0:0:0:
42,192,165691,1,0,0:0:0:40:drumpad.wav
384,192,165691,1,0,0:0:0:45:drum_Emphasis2.wav
298,192,165849,1,0,0:0:0:0:
213,192,165849,1,2,0:0:0:0:
128,192,166007,1,0,0:0:0:0:
42,192,166007,1,0,0:0:0:40:drumpad.wav
384,192,166165,128,0,166323:0:0:0:0:
213,192,166165,1,2,0:0:0:0:
213,192,166323,1,0,0:0:0:0:
128,192,166323,1,0,0:0:0:40:drumpad.wav
298,192,166323,1,0,0:0:0:45:drum_Emphasis2.wav
298,192,166481,1,2,0:0:0:0:
42,192,166481,1,0,0:0:0:0:
469,192,166639,1,0,0:0:0:0:
384,192,166639,1,4,0:2:0:0:
213,192,166639,1,0,0:0:0:0:
42,192,166639,1,0,0:0:0:40:drumpad.wav
213,192,166955,1,0,0:0:0:0:
384,192,166955,1,4,0:2:0:0:
469,192,166955,1,0,0:0:0:0:
42,192,166955,1,0,0:0:0:40:drumpad.wav
298,192,167270,1,0,0:0:0:0:
384,192,167270,1,4,0:2:0:0:
128,192,167270,1,0,0:0:0:0:
42,192,167270,1,0,0:0:0:40:drumpad.wav
469,192,167428,1,0,0:0:0:0:
128,192,167428,1,2,0:0:0:0:
213,192,167586,1,0,0:0:0:0:
42,192,167586,1,0,0:0:0:40:drumpad.wav
298,192,167586,1,0,0:0:0:45:drum_Emphasis2.wav
213,192,167744,1,2,0:0:0:0:
384,192,167744,1,0,0:0:0:0:
298,192,167902,1,0,0:0:0:0:
128,192,167902,1,0,0:0:0:40:drumpad.wav
469,192,168060,1,0,0:0:0:0:
384,192,168060,1,2,0:0:0:0:
213,192,168218,1,0,0:0:0:0:
42,192,168218,1,0,0:0:0:40:drumpad.wav
298,192,168218,1,0,0:0:0:45:drum_Emphasis2.wav
469,192,168376,1,4,0:2:0:0:
298,192,168376,128,2,168691:0:0:0:0:
128,192,168376,1,0,0:0:0:45:drum_Emphasis2.wav
384,192,168534,1,0,0:0:0:0:
213,192,168534,1,0,0:0:0:40:drumpad.wav
42,192,168691,1,0,0:0:0:0:
128,192,168691,1,2,0:0:0:0:
384,192,168849,1,0,0:0:0:0:
213,192,168849,1,0,0:0:0:40:drumpad.wav
298,192,168849,1,0,0:0:0:45:drum_Emphasis2.wav
469,192,169007,1,2,0:0:0:0:
298,192,169165,1,0,0:0:0:0:
42,192,169165,1,0,0:0:0:40:drumpad.wav
128,192,169323,1,0,0:0:0:0:
384,192,169323,1,2,0:0:0:0:
298,192,169481,1,0,0:0:0:0:
213,192,169481,1,0,0:0:0:40:drumpad.wav
469,192,169481,1,0,0:0:0:45:drum_Emphasis2.wav
42,192,169639,1,2,0:0:0:0:
128,192,169797,1,0,0:0:0:0:
384,192,169797,1,0,0:0:0:0:
469,192,169797,1,0,0:0:0:0:
213,192,169797,1,0,0:0:0:40:drumpad.wav
298,192,169955,1,0,0:0:0:0:
469,192,169955,1,2,0:0:0:0:
42,192,170112,1,0,0:0:0:0:
213,192,170112,1,0,0:0:0:40:drumpad.wav
384,192,170112,1,0,0:0:0:45:drum_Emphasis2.wav
384,192,170270,1,2,0:0:0:0:
128,192,170270,1,0,0:0:0:0:
298,192,170428,1,0,0:0:0:0:
213,192,170428,1,0,0:0:0:40:drumpad.wav
469,192,170586,1,0,0:0:0:0:
128,192,170586,1,2,0:0:0:0:
42,192,170744,1,0,0:0:0:0:
213,192,170744,1,0,0:0:0:40:drumpad.wav
298,192,170744,1,0,0:0:0:45:drum_Emphasis2.wav
469,192,170902,1,4,0:2:0:0:
213,192,170902,128,2,171691:0:0:0:0:
384,192,170902,1,0,0:0:0:45:drum_Emphasis2.wav
298,192,171060,1,0,0:0:0:0:
384,192,171060,1,0,0:0:0:40:drumpad.wav
42,192,171218,1,0,0:0:0:0:
128,192,171218,1,2,0:0:0:0:
298,192,171376,1,0,0:0:0:0:
42,192,171376,1,0,0:0:0:40:drumpad.wav
469,192,171376,1,0,0:0:0:45:drum_Emphasis2.wav
384,192,171534,1,0,0:0:0:0:
298,192,171534,1,2,0:0:0:0:
469,192,171691,1,0,0:0:0:0:
128,192,171691,1,0,0:0:0:40:drumpad.wav
213,192,171849,1,0,0:0:0:0:
298,192,171849,1,2,0:0:0:0:
298,192,172007,1,0,0:0:0:0:
42,192,172007,1,0,0:0:0:40:drumpad.wav
469,192,172007,1,0,0:0:0:45:drum_Emphasis2.wav
213,192,172165,1,2,0:0:0:0:
128,192,172323,1,0,0:0:0:0:
384,192,172323,1,0,0:0:0:0:
469,192,172323,1,0,0:0:0:0:
42,192,172323,1,0,0:0:0:40:drumpad.wav
213,192,172481,1,2,0:0:0:0:
469,192,172481,1,0,0:0:0:0:
128,192,172639,1,0,0:0:0:0:
42,192,172639,1,0,0:0:0:40:drumpad.wav
384,192,172639,1,0,0:0:0:45:drum_Emphasis2.wav
213,192,172718,1,0,0:0:0:0:
298,192,172797,1,2,0:0:0:0:
213,192,172955,1,0,0:0:0:0:
128,192,172955,1,0,0:0:0:40:drumpad.wav
384,192,173112,1,2,0:0:0:0:
298,192,173191,1,0,0:0:0:0:
213,192,173270,1,0,0:0:0:0:
42,192,173270,1,0,0:0:0:40:drumpad.wav
469,192,173270,1,0,0:0:0:45:drum_Emphasis2.wav
128,192,173428,1,4,0:2:0:0:
384,192,173428,1,2,0:0:0:0:
42,192,173428,1,0,0:0:0:45:drum_Emphasis2.wav
298,192,173586,1,0,0:0:0:0:
213,192,173586,1,0,0:0:0:40:drumpad.wav
128,192,173744,1,2,0:0:0:0:
213,192,173823,1,0,0:0:0:0:
298,192,173902,1,0,0:0:0:0:
42,192,173902,1,0,0:0:0:40:drumpad.wav
469,192,173902,1,0,0:0:0:45:drum_Emphasis2.wav
128,192,174060,1,0,0:0:0:0:
298,192,174060,1,2,0:0:0:0:
469,192,174218,1,0,0:0:0:0:
213,192,174218,1,0,0:0:0:40:drumpad.wav
42,192,174376,1,0,0:0:0:0:
298,192,174376,1,2,0:0:0:0:
213,192,174534,1,0,0:0:0:0:
42,192,174534,1,0,0:0:0:40:drumpad.wav
469,192,174534,1,0,0:0:0:45:drum_Emphasis2.wav
128,192,174691,1,2,0:0:0:0:
384,192,174691,1,0,0:0:0:0:
213,192,174849,1,0,0:0:0:0:
298,192,174849,1,0,0:0:0:0:
469,192,174849,1,4,0:2:0:0:
128,192,174849,1,0,0:0:0:40:drumpad.wav
42,192,175007,1,0,0:0:0:0:
298,192,175007,1,2,0:0:0:0:
384,192,175165,1,0,0:0:0:0:
128,192,175165,1,0,0:0:0:40:drumpad.wav
469,192,175165,1,0,0:0:0:45:drum_Emphasis2.wav
298,192,175244,1,0,0:0:0:0:
213,192,175323,1,2,0:0:0:0:
384,192,175481,1,0,0:0:0:0:
298,192,175481,1,0,0:0:0:40:drumpad.wav
128,192,175639,1,2,0:0:0:0:
213,192,175718,1,0,0:0:0:0:
298,192,175797,1,0,0:0:0:0:
42,192,175797,1,0,0:0:0:40:drumpad.wav
469,192,175797,1,0,0:0:0:45:drum_Emphasis2.wav
384,192,175955,1,4,0:2:0:0:
469,192,175955,1,2,0:0:0:0:
128,192,175955,1,0,0:0:0:45:drum_Emphasis2.wav
298,192,176112,1,0,0:0:0:0:
213,192,176112,1,0,0:0:0:40:drumpad.wav
384,192,176270,1,2,0:0:0:0:
298,192,176349,1,0,0:0:0:0:
213,192,176428,1,0,0:0:0:0:
42,192,176428,1,0,0:0:0:40:drumpad.wav
469,192,176428,1,0,0:0:0:45:drum_Emphasis2.wav
213,192,176586,1,2,0:0:0:0:
298,192,176665,1,0,0:0:0:0:
128,192,176744,1,0,0:0:0:0:
469,192,176744,1,4,0:2:0:0:
384,192,176744,1,0,0:0:0:0:
42,192,176744,1,0,0:0:0:40:drumpad.wav
128,192,177060,1,0,0:0:0:0:
469,192,177060,1,4,0:2:0:0:
384,192,177060,1,0,0:0:0:0:
42,192,177060,1,0,0:0:0:40:drumpad.wav
298,192,177376,1,0,0:0:0:0:
469,192,177376,1,4,0:2:0:0:
213,192,177376,1,0,0:0:0:0:
42,192,177376,1,0,0:0:0:40:drumpad.wav
128,192,177534,1,0,0:0:0:0:
298,192,177534,1,2,0:0:0:0:
384,192,177691,1,0,0:0:0:0:
128,192,177691,1,0,0:0:0:40:drumpad.wav
469,192,177691,1,0,0:0:0:45:drum_Emphasis2.wav
213,192,177770,1,0,0:0:0:0:
298,192,177849,1,2,0:0:0:0:
384,192,178007,1,0,0:0:0:0:
42,192,178007,1,0,0:0:0:40:drumpad.wav
213,192,178165,1,2,0:0:0:0:
298,192,178244,1,0,0:0:0:0:
128,192,178323,1,0,0:0:0:0:
42,192,178323,1,0,0:0:0:40:drumpad.wav
384,192,178323,1,0,0:0:0:45:drum_Emphasis2.wav
469,192,178481,1,4,0:2:0:0:
384,192,178481,1,2,0:0:0:0:
213,192,178481,1,0,0:0:0:45:drum_Emphasis2.wav
298,192,178639,1,0,0:0:0:0:
42,192,178639,1,0,0:0:0:40:drumpad.wav
384,192,178797,1,2,0:0:0:0:
298,192,178876,1,0,0:0:0:0:
213,192,178955,1,0,0:0:0:0:
42,192,178955,1,0,0:0:0:40:drumpad.wav
469,192,178955,1,0,0:0:0:45:drum_Emphasis2.wav
298,192,179112,1,0,0:0:0:0:
384,192,179112,1,2,0:0:0:0:
128,192,179270,1,0,0:0:0:0:
42,192,179270,1,0,0:0:0:40:drumpad.wav
384,192,179270,1,0,0:0:0:45:drum_Emphasis2.wav
298,192,179428,1,2,0:0:0:0:
42,192,179428,1,0,0:0:0:0:
213,192,179586,1,0,0:0:0:0:
128,192,179586,1,0,0:0:0:40:drumpad.wav
469,192,179586,1,0,0:0:0:45:drum_Emphasis2.wav
298,192,179744,1,2,0:0:0:0:
469,192,179744,1,0,0:0:0:0:
128,192,179902,1,0,0:0:0:0:
42,192,179902,1,0,0:0:0:40:drumpad.wav
384,192,179902,1,0,0:0:0:0:
213,192,179981,1,0,0:0:0:0:
298,192,180060,1,0,0:0:0:0:
384,192,180139,1,0,0:0:0:0:
213,192,180218,1,0,0:0:0:0:
42,192,180218,1,0,0:0:0:40:drumpad.wav
469,192,180218,1,0,0:0:0:45:drum_Emphasis2.wav
384,192,180297,1,0,0:0:0:0:
298,192,180376,1,0,0:0:0:0:
213,192,180455,1,0,0:0:0:0:
384,192,180534,1,0,0:0:0:0:
128,192,180534,1,0,0:0:0:40:drumpad.wav
298,192,180612,1,0,0:0:0:0:
213,192,180691,1,0,0:0:0:0:
128,192,180770,1,0,0:0:0:0:
298,192,180849,1,0,0:0:0:0:
42,192,180849,1,0,0:0:0:40:drumpad.wav
469,192,180849,1,0,0:0:0:45:drum_Emphasis2.wav
128,192,180928,1,0,0:0:0:0:
213,192,181007,1,0,0:0:0:0:
298,192,181086,1,0,0:0:0:0:
128,192,181165,1,0,0:0:0:0:
384,192,181165,1,0,0:0:0:0:
42,192,181165,1,0,0:0:0:40:drumpad.wav
469,192,181165,1,0,0:0:0:45:drum_Emphasis2.wav
128,192,181323,1,0,0:0:0:0:
42,192,181323,1,0,0:0:0:40:drumpad.wav
128,192,181481,1,0,0:0:0:0:
384,192,181481,1,0,0:0:0:0:
42,192,181481,1,0,0:0:0:40:drumpad.wav
469,192,181481,1,0,0:0:0:45:drum_Emphasis2.wav
128,192,181639,1,0,0:0:0:0:
42,192,181639,1,0,0:0:0:40:drumpad.wav
42,192,181797,1,0,0:0:0:45:drum_Emphasis2.wav
128,192,181797,1,0,0:0:0:0:
384,192,181797,1,0,0:0:0:0:
469,192,181797,1,0,0:0:0:40:drumpad.wav
384,192,181955,1,0,0:0:0:0:
469,192,181955,1,0,0:0:0:40:drumpad.wav
42,192,182112,1,0,0:0:0:45:drum_Emphasis2.wav
384,192,182112,1,0,0:0:0:0:
128,192,182112,1,0,0:0:0:0:
469,192,182112,1,0,0:0:0:40:drumpad.wav
384,192,182270,1,0,0:0:0:0:
469,192,182270,1,0,0:0:0:40:drumpad.wav
384,192,182428,1,0,0:0:0:0:
128,192,182428,1,0,0:0:0:0:
42,192,182428,1,0,0:0:0:40:drumpad.wav
469,192,182428,1,0,0:0:0:45:drum_Emphasis2.wav
128,192,183534,1,0,0:0:0:0:
384,192,183534,1,0,0:0:0:0:
42,192,183534,1,0,0:0:0:40:drumpad.wav
469,192,183534,1,0,0:0:0:45:drum_Emphasis2.wav
128,192,184323,1,0,0:0:0:0:
384,192,184323,1,0,0:0:0:0:
42,192,184323,1,0,0:0:0:40:drumpad.wav
469,192,184323,1,0,0:0:0:45:drum_Emphasis2.wav
128,192,184639,1,0,0:0:0:0:
384,192,184639,1,0,0:0:0:0:
42,192,184639,1,0,0:0:0:40:drumpad.wav
469,192,184639,1,0,0:0:0:45:drum_Emphasis2.wav
298,192,184797,1,0,0:0:0:25:drumpad.wav
213,192,184876,1,0,0:0:0:25:drumpad.wav
469,192,184955,128,0,185586:0:0:0:45:drum_Emphasis2.wav
384,192,184955,128,0,185665:0:0:0:0:
128,192,184955,128,0,185744:0:0:0:0:
42,192,184955,128,0,185823:0:0:0:40:drumpad.wav
128,192,186060,1,0,0:0:0:0:
384,192,186060,1,0,0:0:0:0:
42,192,186060,1,0,0:0:0:40:drumpad.wav
469,192,186060,1,0,0:0:0:45:drum_Emphasis2.wav
128,192,186849,1,0,0:0:0:0:
384,192,186849,1,0,0:0:0:0:
42,192,186849,1,0,0:0:0:40:drumpad.wav
469,192,186849,1,0,0:0:0:45:drum_Emphasis2.wav
128,192,187165,1,8,0:2:0:20:
213,192,187165,1,8,0:2:0:20:
298,192,187165,1,8,0:2:0:20:
384,192,187165,1,8,0:2:0:20:
42,192,187165,1,0,0:0:0:40:drumpad.wav
469,192,187165,1,0,0:0:0:45:drum_Emphasis2.wav
213,192,187323,1,0,0:0:0:25:drumpad.wav
298,192,187402,1,0,0:0:0:25:drumpad.wav
128,192,187481,1,0,0:0:0:0:
384,192,187481,1,0,0:0:0:0:
469,192,187481,1,4,0:2:0:0:
42,192,187481,1,0,0:0:0:40:drumpad.wav
298,192,187639,1,2,0:0:0:0:
213,192,187797,1,0,0:0:0:40:drumpad.wav
42,192,187797,128,0,188744:0:0:0:0:
469,192,187797,1,0,0:0:0:45:drum_Emphasis2.wav
298,192,187955,1,2,0:0:0:0:
384,192,188112,1,0,0:0:0:40:drumpad.wav
128,192,188112,128,0,188744:0:0:0:0:
469,192,188270,1,2,0:0:0:0:
298,192,188428,1,0,0:0:0:40:drumpad.wav
213,192,188428,128,0,188744:0:0:0:0:
384,192,188428,1,0,0:0:0:45:drum_Emphasis2.wav
298,192,188586,128,4,189376:0:2:0:0:
469,192,188586,1,0,0:0:0:45:drum_Emphasis2.wav
469,192,188744,128,0,189376:0:0:0:40:drumpad.wav
42,192,188902,1,2,0:0:0:0:
384,192,189060,128,0,189376:0:0:0:0:
128,192,189060,1,0,0:0:0:40:drumpad.wav
213,192,189060,1,0,0:0:0:45:drum_Emphasis2.wav
42,192,189218,1,2,0:0:0:0:
213,192,189376,1,0,0:0:0:40:drumpad.wav
42,192,189376,128,0,190007:0:0:0:0:
298,192,189534,1,2,0:0:0:0:
128,192,189691,1,0,0:0:0:45:drum_Emphasis2.wav
213,192,189691,1,0,0:0:0:40:drumpad.wav
469,192,189691,128,0,190007:0:0:0:0:
298,192,189849,1,2,0:0:0:0:
213,192,190007,1,0,0:0:0:40:drumpad.wav
128,192,190007,1,0,0:0:0:0:
384,192,190007,1,0,0:0:0:0:
298,192,190007,1,4,0:2:0:0:
42,192,190165,1,2,0:0:0:0:
213,192,190323,1,0,0:0:0:0:
128,192,190323,1,0,0:0:0:40:drumpad.wav
469,192,190323,1,0,0:0:0:45:drum_Emphasis2.wav
469,192,190481,1,2,0:0:0:0:
384,192,190639,1,0,0:0:0:0:
213,192,190639,1,0,0:0:0:40:drumpad.wav
298,192,190797,1,2,0:0:0:0:
128,192,190797,1,0,0:0:0:0:
384,192,190955,1,0,0:0:0:0:
42,192,190955,1,0,0:0:0:40:drumpad.wav
469,192,190955,1,0,0:0:0:45:drum_Emphasis2.wav
42,192,191112,128,0,191902:0:0:0:0:
384,192,191112,1,2,0:0:0:0:
213,192,191270,1,0,0:0:0:40:drumpad.wav
298,192,191270,1,0,0:0:0:0:
213,192,191428,1,0,0:0:0:0:
469,192,191428,1,2,0:0:0:0:
128,192,191586,1,0,0:0:0:40:drumpad.wav
298,192,191586,1,0,0:0:0:0:
384,192,191586,1,0,0:0:0:45:drum_Emphasis2.wav
213,192,191744,1,0,0:0:0:0:
384,192,191744,1,2,0:0:0:0:
128,192,191902,1,0,0:0:0:40:drumpad.wav
469,192,191902,1,0,0:0:0:0:
298,192,192060,128,2,192376:0:0:0:0:
384,192,192218,1,0,0:0:0:40:drumpad.wav
128,192,192218,1,0,0:0:0:0:
213,192,192218,1,0,0:0:0:45:drum_Emphasis2.wav
384,192,192376,128,0,192849:0:0:0:0:
42,192,192376,1,0,0:0:0:40:drumpad.wav
213,192,192376,1,0,0:0:0:45:drum_Emphasis2.wav
42,192,192691,128,0,192849:0:0:0:0:
213,192,192849,1,4,0:2:0:0:
298,192,192849,1,0,0:0:0:0:
128,192,192849,1,0,0:0:0:40:drumpad.wav
469,192,192849,1,0,0:0:0:45:drum_Emphasis2.wav
128,192,193007,128,0,193481:0:0:0:0:
469,192,193323,128,0,193481:0:0:0:0:
298,192,193481,1,4,0:2:0:0:
213,192,193481,1,0,0:0:0:0:
42,192,193481,1,0,0:0:0:40:drumpad.wav
384,192,193481,1,0,0:0:0:45:drum_Emphasis2.wav
298,192,193639,128,0,194112:0:0:0:0:
42,192,193955,128,0,194112:0:0:0:0:
384,192,194112,1,0,0:0:0:0:
213,192,194112,1,4,0:2:0:0:
128,192,194112,1,0,0:0:0:40:drumpad.wav
469,192,194112,1,0,0:0:0:45:drum_Emphasis2.wav
213,192,194270,128,0,194744:0:0:0:0:
469,192,194586,128,0,194744:0:0:0:0:
298,192,194744,1,4,0:2:0:0:
128,192,194744,1,0,0:0:0:0:
42,192,194744,1,0,0:0:0:40:drumpad.wav
384,192,194744,1,0,0:0:0:45:drum_Emphasis2.wav
42,192,194902,128,0,195376:0:0:0:0:
298,192,195218,128,0,195376:0:0:0:0:
384,192,195376,1,0,0:0:0:0:
213,192,195376,1,4,0:2:0:0:
128,192,195376,1,0,0:0:0:40:drumpad.wav
469,192,195376,1,0,0:0:0:45:drum_Emphasis2.wav
469,192,195534,128,0,196007:0:0:0:0:
213,192,195849,128,0,196007:0:0:0:0:
298,192,196007,1,4,0:2:0:0:
128,192,196007,1,0,0:0:0:0:
42,192,196007,1,0,0:0:0:40:drumpad.wav
384,192,196007,1,0,0:0:0:45:drum_Emphasis2.wav
213,192,196323,1,0,0:0:0:0:
298,192,196323,1,0,0:0:0:0:
42,192,196323,1,0,0:0:0:40:drumpad.wav
469,192,196323,1,0,0:0:0:45:drum_Emphasis2.wav
213,192,196481,1,0,0:0:0:0:
42,192,196481,1,0,0:0:0:40:drumpad.wav
42,192,196639,1,0,0:0:0:45:drum_Emphasis2.wav
213,192,196639,1,0,0:0:0:0:
298,192,196639,1,0,0:0:0:0:
469,192,196639,1,0,0:0:0:40:drumpad.wav
298,192,196797,1,0,0:0:0:0:
469,192,196797,1,0,0:0:0:40:drumpad.wav
213,192,196955,1,0,0:0:0:0:
298,192,196955,1,0,0:0:0:0:
42,192,196955,1,0,0:0:0:40:drumpad.wav
469,192,196955,1,0,0:0:0:45:drum_Emphasis2.wav
213,192,197112,1,0,0:0:0:0:
42,192,197112,1,0,0:0:0:40:drumpad.wav
213,192,197270,1,8,0:2:0:20:
298,192,197270,1,8,0:2:0:20:
384,192,197270,1,8,0:2:0:20:
128,192,197270,1,8,0:2:0:20:
469,192,197270,1,0,0:0:0:40:drumpad.wav
42,192,197270,1,0,0:0:0:45:drum_Emphasis2.wav
298,192,197428,1,0,0:0:0:0:
469,192,197428,1,0,0:0:0:40:drumpad.wav
213,192,197586,1,0,0:0:0:0:
298,192,197586,1,0,0:0:0:0:
469,192,197586,1,4,0:2:0:0:
42,192,197586,1,0,0:0:0:40:drumpad.wav
42,192,197744,1,2,0:0:0:0:
213,192,197902,1,0,0:0:0:0:
128,192,197902,1,0,0:0:0:40:drumpad.wav
469,192,197902,1,0,0:0:0:45:drum_Emphasis2.wav
298,192,197981,1,0,0:0:0:0:
384,192,198060,1,2,0:0:0:0:
469,192,198218,1,0,0:0:0:0:
213,192,198218,1,0,0:0:0:40:drumpad.wav
298,192,198376,1,2,0:0:0:0:
213,192,198455,1,0,0:0:0:0:
384,192,198534,1,0,0:0:0:0:
128,192,198534,1,0,0:0:0:40:drumpad.wav
469,192,198534,1,0,0:0:0:45:drum_Emphasis2.wav
298,192,198691,1,4,0:2:0:0:
469,192,198691,1,0,0:0:0:45:drum_Emphasis2.wav
42,192,198691,1,2,0:0:0:0:
213,192,198849,1,0,0:0:0:0:
42,192,198849,1,0,0:0:0:40:drumpad.wav
213,192,199007,1,2,0:0:0:0:
298,192,199165,1,0,0:0:0:0:
42,192,199165,1,0,0:0:0:40:drumpad.wav
469,192,199165,1,0,0:0:0:45:drum_Emphasis2.wav
213,192,199244,1,0,0:0:0:0:
128,192,199323,1,2,0:0:0:0:
384,192,199481,1,0,0:0:0:0:
298,192,199481,1,0,0:0:0:40:drumpad.wav
213,192,199639,1,2,0:0:0:0:
298,192,199718,1,0,0:0:0:0:
128,192,199797,1,0,0:0:0:0:
42,192,199797,1,0,0:0:0:40:drumpad.wav
384,192,199797,1,0,0:0:0:45:drum_Emphasis2.wav
42,192,200112,1,0,0:0:0:45:drum_Emphasis2.wav
128,192,200112,1,0,0:0:0:0:
384,192,200112,1,0,0:0:0:0:
469,192,200112,1,0,0:0:0:40:drumpad.wav
384,192,200270,1,0,0:0:0:0:
469,192,200270,1,0,0:0:0:40:drumpad.wav
128,192,200428,1,0,0:0:0:0:
384,192,200428,1,0,0:0:0:0:
42,192,200428,1,0,0:0:0:40:drumpad.wav
469,192,200428,1,0,0:0:0:45:drum_Emphasis2.wav
128,192,200586,1,0,0:0:0:0:
42,192,200586,1,0,0:0:0:40:drumpad.wav
42,192,200744,1,0,0:0:0:45:drum_Emphasis2.wav
128,192,200744,1,0,0:0:0:0:
384,192,200744,1,0,0:0:0:0:
469,192,200744,1,0,0:0:0:40:drumpad.wav
384,192,200902,1,0,0:0:0:0:
469,192,200902,1,0,0:0:0:40:drumpad.wav
128,192,201060,1,0,0:0:0:0:
384,192,201060,1,0,0:0:0:0:
42,192,201060,1,0,0:0:0:40:drumpad.wav
469,192,201060,1,0,0:0:0:45:drum_Emphasis2.wav
128,192,201218,1,0,0:0:0:0:
42,192,201218,1,0,0:0:0:40:drumpad.wav
384,192,201376,1,0,0:0:0:0:
469,192,201376,1,0,0:0:0:40:drumpad.wav
298,192,201376,1,0,0:0:0:45:drum_Emphasis2.wav
384,192,201534,1,0,0:0:0:0:
469,192,201534,1,0,0:0:0:40:drumpad.wav
298,192,201534,1,0,0:0:0:45:drum_Emphasis2.wav
128,192,201691,1,0,0:0:0:0:
42,192,201691,1,0,0:0:0:40:drumpad.wav
213,192,201691,1,0,0:0:0:45:drum_Emphasis2.wav
128,192,201849,1,0,0:0:0:0:
42,192,201849,1,0,0:0:0:40:drumpad.wav
213,192,201849,1,0,0:0:0:45:drum_Emphasis2.wav
298,192,202007,1,0,0:0:0:45:drum_Emphasis2.wav
384,192,202007,1,0,0:0:0:0:
213,192,202007,1,0,0:0:0:0:
469,192,202007,1,0,0:0:0:40:drumpad.wav
384,192,202165,1,0,0:0:0:0:
213,192,202165,1,0,0:0:0:0:
469,192,202165,1,0,0:0:0:40:drumpad.wav
298,192,202165,1,0,0:0:0:45:drum_Emphasis2.wav
213,192,202323,1,0,0:0:0:45:drum_Emphasis2.wav
128,192,202323,1,0,0:0:0:0:
298,192,202323,1,0,0:0:0:0:
42,192,202323,1,0,0:0:0:40:drumpad.wav
213,192,202481,1,0,0:0:0:45:drum_Emphasis2.wav
128,192,202481,1,0,0:0:0:0:
298,192,202481,1,0,0:0:0:0:
42,192,202481,1,0,0:0:0:40:drumpad.wav
213,192,202639,1,0,0:0:0:0:
298,192,202639,1,0,0:0:0:0:
384,192,203270,1,0,0:0:0:0:
128,192,203270,1,0,0:0:0:0:
298,192,203586,128,0,203744:0:0:0:0:
469,192,203586,1,8,0:0:0:0:
42,192,203586,1,0,0:0:0:0:
128,192,203586,1,8,0:0:0:0:
213,192,203744,128,0,203902:0:0:0:0:
384,192,203902,1,0,0:0:0:0:
469,192,203902,1,4,0:2:0:0:
128,192,203902,1,0,0:0:0:0:
42,192,203902,1,0,0:0:0:40:drumpad.wav
213,192,204060,1,2,0:0:0:0:
298,192,204218,1,0,0:0:0:0:
42,192,204218,1,0,0:0:0:40:drumpad.wav
469,192,204218,1,0,0:0:0:45:drum_Emphasis2.wav
213,192,204376,1,0,0:0:0:0:
298,192,204376,1,2,0:0:0:0:
128,192,204534,1,0,0:0:0:0:
42,192,204534,1,0,0:0:0:40:drumpad.wav
384,192,204691,1,2,0:0:0:0:
469,192,204691,1,0,0:0:0:0:
213,192,204849,1,0,0:0:0:0:
128,192,204849,1,0,0:0:0:40:drumpad.wav
298,192,204849,1,0,0:0:0:45:drum_Emphasis2.wav
469,192,205007,1,2,0:0:0:0:
298,192,205165,1,0,0:0:0:0:
42,192,205165,1,0,0:0:0:40:drumpad.wav
213,192,205323,1,0,0:0:0:0:
384,192,205323,1,2,0:0:0:0:
213,192,205481,1,0,0:0:0:0:
128,192,205481,1,0,0:0:0:40:drumpad.wav
469,192,205481,1,0,0:0:0:45:drum_Emphasis2.wav
42,192,205639,128,0,205955:0:0:0:0:
298,192,205639,1,2,0:0:0:0:
213,192,205797,1,0,0:0:0:40:drumpad.wav
469,192,205797,1,4,0:2:0:0:
298,192,205797,1,0,0:0:0:0:
469,192,205955,128,2,206112:0:0:0:0:
42,192,206112,1,0,0:0:0:40:drumpad.wav
298,192,206112,1,4,0:2:0:0:
213,192,206112,128,0,206270:0:0:0:0:
298,192,206270,128,2,206428:0:0:0:0:
384,192,206428,1,0,0:0:0:0:
469,192,206428,1,4,0:2:0:0:
128,192,206428,1,0,0:0:0:0:
42,192,206428,1,0,0:0:0:40:drumpad.wav
298,192,206586,1,2,0:0:0:0:
213,192,206665,1,0,0:0:0:0:
384,192,206744,1,0,0:0:0:0:
128,192,206744,1,0,0:0:0:40:drumpad.wav
469,192,206744,1,0,0:0:0:45:drum_Emphasis2.wav
213,192,206902,1,2,0:0:0:0:
298,192,207060,1,0,0:0:0:0:
42,192,207060,1,0,0:0:0:40:drumpad.wav
128,192,207218,1,0,0:0:0:0:
469,192,207218,1,2,0:0:0:0:
298,192,207376,1,0,0:0:0:0:
213,192,207376,1,0,0:0:0:40:drumpad.wav
384,192,207376,1,0,0:0:0:45:drum_Emphasis2.wav
42,192,207534,1,2,0:0:0:0:
298,192,207691,1,0,0:0:0:0:
128,192,207691,1,0,0:0:0:40:drumpad.wav
469,192,207849,1,2,0:0:0:0:
384,192,207849,1,0,0:0:0:0:
213,192,208007,1,0,0:0:0:0:
42,192,208007,1,0,0:0:0:40:drumpad.wav
298,192,208007,1,0,0:0:0:45:drum_Emphasis2.wav
42,192,208165,1,0,0:0:0:0:
384,192,208165,1,2,0:0:0:0:
469,192,208323,128,0,208481:0:0:0:0:
298,192,208323,1,4,0:2:0:0:
128,192,208323,1,0,0:0:0:40:drumpad.wav
298,192,208481,128,2,208797:0:0:0:0:
213,192,208639,1,0,0:0:0:0:
384,192,208639,1,4,0:2:0:0:
42,192,208639,1,0,0:0:0:40:drumpad.wav
213,192,208797,128,2,208955:0:0:0:0:
384,192,208955,1,4,0:2:0:0:
469,192,208955,1,0,0:0:0:0:
128,192,208955,1,0,0:0:0:0:
42,192,208955,1,0,0:0:0:40:drumpad.wav
213,192,209112,1,2,0:0:0:0:
298,192,209191,1,0,0:0:0:0:
213,192,209270,1,0,0:0:0:0:
128,192,209270,1,0,0:0:0:40:drumpad.wav
384,192,209270,1,0,0:0:0:45:drum_Emphasis2.wav
42,192,209428,1,2,0:0:0:0:
298,192,209586,1,0,0:0:0:0:
128,192,209586,1,0,0:0:0:40:drumpad.wav
469,192,209744,1,2,0:0:0:0:
298,192,209902,1,0,0:0:0:0:
213,192,209902,1,0,0:0:0:40:drumpad.wav
384,192,209902,1,0,0:0:0:45:drum_Emphasis2.wav
213,192,210060,1,4,0:2:0:0:
298,192,210060,1,2,0:0:0:0:
42,192,210060,1,0,0:0:0:45:drum_Emphasis2.wav
469,192,210218,1,0,0:0:0:0:
128,192,210218,1,0,0:0:0:40:drumpad.wav
298,192,210376,1,2,0:0:0:0:
128,192,210534,1,0,0:0:0:0:
42,192,210534,1,0,0:0:0:40:drumpad.wav
384,192,210534,1,0,0:0:0:45:drum_Emphasis2.wav
213,192,210691,1,2,0:0:0:0:
469,192,210691,1,0,0:0:0:0:
298,192,210849,128,0,211007:0:0:0:0:
42,192,210849,1,0,0:0:0:40:drumpad.wav
213,192,211007,1,2,0:0:0:0:
128,192,211165,1,0,0:0:0:40:drumpad.wav
42,192,211165,128,0,211323:0:0:0:0:
384,192,211165,1,0,0:0:0:45:drum_Emphasis2.wav
469,192,211323,128,2,211481:0:0:0:0:
298,192,211481,1,0,0:0:0:0:
384,192,211481,1,4,0:2:0:0:
213,192,211481,128,0,211797:0:0:0:0:
42,192,211481,1,0,0:0:0:40:drumpad.wav
384,192,211797,1,0,0:0:0:0:
128,192,211797,1,0,0:0:0:40:drumpad.wav
469,192,211797,1,0,0:0:0:45:drum_Emphasis2.wav
298,192,211955,128,2,212270:0:0:0:0:
384,192,212112,1,0,0:0:0:0:
42,192,212112,1,0,0:0:0:40:drumpad.wav
213,192,212270,128,2,212428:0:0:0:0:
384,192,212428,1,0,0:0:0:0:
128,192,212428,1,0,0:0:0:40:drumpad.wav
469,192,212428,1,0,0:0:0:45:drum_Emphasis2.wav
384,192,212586,128,2,213376:0:0:0:0:
298,192,212586,1,4,0:2:0:0:
213,192,212586,1,0,0:0:0:45:drum_Emphasis2.wav
128,192,212744,1,0,0:0:0:0:
42,192,212744,1,0,0:0:0:40:drumpad.wav
42,192,212902,1,0,0:0:0:0:
298,192,212902,1,2,0:0:0:0:
213,192,213060,1,4,0:2:0:0:
128,192,213060,1,0,0:0:0:40:drumpad.wav
469,192,213060,1,0,0:0:0:45:drum_Emphasis2.wav
213,192,213218,1,0,0:0:0:0:
298,192,213218,1,2,0:0:0:0:
42,192,213376,1,0,0:0:0:40:drumpad.wav
128,192,213376,1,0,0:0:0:0:
469,192,213376,1,4,0:2:0:0:
213,192,213691,1,0,0:0:0:0:
42,192,213691,1,0,0:0:0:40:drumpad.wav
298,192,213691,1,0,0:0:0:0:
469,192,213691,1,4,0:2:0:0:
298,192,213849,1,2,0:0:0:0:
384,192,214007,1,0,0:0:0:0:
469,192,214007,1,4,0:2:0:0:
128,192,214007,1,0,0:0:0:0:
213,192,214007,1,0,0:0:0:40:drumpad.wav
469,192,214165,1,0,0:0:0:0:
213,192,214165,1,2,0:0:0:0:
298,192,214323,1,0,0:0:0:45:drum_Emphasis2.wav
469,192,214323,128,0,214639:0:0:0:0:
213,192,214323,1,0,0:0:0:40:drumpad.wav
128,192,214481,1,2,0:0:0:0:
298,192,214639,1,0,0:0:0:0:
42,192,214639,1,0,0:0:0:40:drumpad.wav
42,192,214797,1,0,0:0:0:0:
298,192,214797,1,2,0:0:0:0:
213,192,214955,1,0,0:0:0:40:drumpad.wav
42,192,214955,128,0,215428:0:0:0:0:
298,192,214955,1,0,0:0:0:45:drum_Emphasis2.wav
213,192,215112,1,0,0:0:0:45:drum_Emphasis2.wav
384,192,215112,1,4,0:2:0:0:
469,192,215112,1,2,0:0:0:0:
469,192,215270,1,0,0:0:0:40:drumpad.wav
298,192,215270,128,0,215428:0:0:0:0:
213,192,215428,128,2,215586:0:0:0:0:
384,192,215586,128,0,215744:0:0:0:0:
128,192,215586,1,0,0:0:0:40:drumpad.wav
469,192,215586,1,0,0:0:0:45:drum_Emphasis2.wav
213,192,215744,128,2,215902:0:0:0:0:
298,192,215902,128,0,216376:0:0:0:0:
384,192,215902,1,0,0:0:0:0:
42,192,215902,1,0,0:0:0:40:drumpad.wav
128,192,216060,1,0,0:0:0:0:
213,192,216060,1,2,0:0:0:0:
384,192,216218,1,0,0:0:0:0:
42,192,216218,1,0,0:0:0:40:drumpad.wav
469,192,216218,1,0,0:0:0:45:drum_Emphasis2.wav
128,192,216376,1,0,0:0:0:0:
213,192,216376,1,2,0:0:0:0:
298,192,216534,1,0,0:0:0:0:
469,192,216534,1,4,0:2:0:0:
213,192,216534,1,0,0:0:0:0:
42,192,216534,1,0,0:0:0:40:drumpad.wav
469,192,216691,128,2,217007:0:0:0:0:
298,192,216849,1,0,0:0:0:45:drum_Emphasis2.wav
213,192,216849,128,0,217007:0:0:0:0:
128,192,216849,1,0,0:0:0:40:drumpad.wav
298,192,217007,128,2,217797:0:0:0:0:
213,192,217165,1,0,0:0:0:0:
128,192,217165,1,0,0:0:0:40:drumpad.wav
128,192,217323,128,2,217797:0:0:0:0:
384,192,217481,1,0,0:0:0:45:drum_Emphasis2.wav
469,192,217481,128,0,217797:0:0:0:0:
213,192,217481,1,0,0:0:0:40:drumpad.wav
213,192,217639,128,2,217797:0:0:0:0:
384,192,217797,1,0,0:0:0:40:drumpad.wav
42,192,217797,128,0,218428:0:0:0:0:
213,192,217955,1,2,0:0:0:0:
298,192,217955,1,0,0:0:0:0:
213,192,218112,1,0,0:0:0:40:drumpad.wav
384,192,218112,1,0,0:0:0:45:drum_Emphasis2.wav
469,192,218112,1,0,0:0:0:0:
128,192,218270,1,2,0:0:0:0:
298,192,218270,1,0,0:0:0:0:
128,192,218428,1,0,0:0:0:40:drumpad.wav
384,192,218428,1,0,0:0:0:0:
469,192,218428,1,4,0:2:0:0:
213,192,218428,128,0,218744:0:0:0:0:
298,192,218744,1,4,0:2:0:0:
128,192,218744,1,0,0:0:0:0:
469,192,218744,128,0,219060:0:0:0:0:
42,192,218744,1,0,0:0:0:40:drumpad.wav
213,192,219060,1,0,0:0:0:40:drumpad.wav
298,192,219060,1,0,0:0:0:0:
384,192,219060,1,4,0:2:0:0:
42,192,219060,128,0,220007:0:0:0:0:
298,192,219218,1,2,0:0:0:0:
213,192,219376,1,0,0:0:0:40:drumpad.wav
384,192,219376,1,0,0:0:0:0:
469,192,219376,1,0,0:0:0:45:drum_Emphasis2.wav
128,192,219534,1,2,0:0:0:0:
213,192,219691,1,0,0:0:0:40:drumpad.wav
298,192,219691,1,0,0:0:0:0:
469,192,219849,1,2,0:0:0:0:
128,192,220007,1,0,0:0:0:40:drumpad.wav
384,192,220007,128,0,220165:0:0:0:0:
298,192,220007,1,0,0:0:0:45:drum_Emphasis2.wav
298,192,220165,1,4,0:2:0:0:
213,192,220165,128,2,220323:0:0:0:0:
42,192,220165,1,0,0:0:0:45:drum_Emphasis2.wav
469,192,220323,128,0,220481:0:0:0:0:
128,192,220323,1,0,0:0:0:40:drumpad.wav
298,192,220481,128,2,220639:0:0:0:0:
384,192,220639,128,0,220797:0:0:0:0:
42,192,220639,1,0,0:0:0:40:drumpad.wav
128,192,220639,1,0,0:0:0:45:drum_Emphasis2.wav
213,192,220797,128,2,220876:0:0:0:0:
213,192,220955,128,0,221428:0:0:0:0:
469,192,220955,1,0,0:0:0:40:drumpad.wav
298,192,221112,1,2,0:0:0:0:
384,192,221112,1,0,0:0:0:0:
298,192,221270,1,0,0:0:0:0:
42,192,221270,1,0,0:0:0:40:drumpad.wav
469,192,221270,1,0,0:0:0:45:drum_Emphasis2.wav
128,192,221428,1,2,0:0:0:0:
213,192,221586,1,0,0:0:0:0:
469,192,221586,1,0,0:0:0:0:
42,192,221586,1,0,0:0:0:40:drumpad.wav
384,192,221665,1,0,0:0:0:0:
298,192,221744,1,0,0:0:0:0:
213,192,221823,1,0,0:0:0:0:
384,192,221902,1,0,0:0:0:0:
128,192,221902,1,0,0:0:0:40:drumpad.wav
469,192,221902,1,0,0:0:0:45:drum_Emphasis2.wav
213,192,221981,1,0,0:0:0:0:
298,192,222060,1,0,0:0:0:0:
384,192,222139,1,0,0:0:0:0:
469,192,222218,1,0,0:0:0:0:
128,192,222218,1,0,0:0:0:40:drumpad.wav
213,192,222297,1,0,0:0:0:0:
298,192,222376,1,0,0:0:0:0:
384,192,222455,1,0,0:0:0:0:
213,192,222534,1,0,0:0:0:0:
42,192,222534,1,0,0:0:0:40:drumpad.wav
469,192,222534,1,0,0:0:0:45:drum_Emphasis2.wav
384,192,222612,1,0,0:0:0:0:
298,192,222691,1,0,0:0:0:0:
213,192,222770,1,0,0:0:0:0:
42,192,222849,1,0,0:0:0:45:drum_Emphasis2.wav
384,192,222849,1,0,0:0:0:0:
128,192,222849,1,0,0:0:0:0:
469,192,222849,1,0,0:0:0:40:drumpad.wav
384,192,223007,1,0,0:0:0:0:
469,192,223007,1,0,0:0:0:40:drumpad.wav
128,192,223165,1,0,0:0:0:0:
384,192,223165,1,0,0:0:0:0:
469,192,223165,1,0,0:0:0:40:drumpad.wav
42,192,223165,1,0,0:0:0:45:drum_Emphasis2.wav
384,192,223323,1,0,0:0:0:0:
469,192,223323,1,0,0:0:0:40:drumpad.wav
128,192,223481,1,0,0:0:0:0:
384,192,223481,1,0,0:0:0:0:
42,192,223481,1,0,0:0:0:40:drumpad.wav
469,192,223481,1,0,0:0:0:45:drum_Emphasis2.wav
128,192,223639,1,0,0:0:0:0:
42,192,223639,1,0,0:0:0:40:drumpad.wav
128,192,223797,1,0,0:0:0:0:
384,192,223797,1,0,0:0:0:0:
42,192,223797,1,0,0:0:0:40:drumpad.wav
469,192,223797,1,0,0:0:0:45:drum_Emphasis2.wav
128,192,223955,1,0,0:0:0:0:
42,192,223955,1,0,0:0:0:40:drumpad.wav
384,192,224112,1,0,0:0:0:0:
469,192,224112,1,2,0:0:0:0:
42,192,224112,1,0,0:0:0:0:
128,192,224112,1,0,0:0:0:0:
384,192,224744,1,0,0:0:0:0:
469,192,224744,1,2,0:0:0:0:
213,192,225376,1,2,0:0:0:0:
298,192,225376,1,0,0:0:0:0:
128,192,225376,1,0,0:0:0:0:
213,192,226007,1,2,0:0:0:0:
298,192,226007,1,0,0:0:0:0:
42,192,226639,1,2,0:0:0:0:
128,192,226639,1,0,0:0:0:0:
384,192,226639,1,0,0:0:0:0:
42,192,227270,1,2,0:0:0:0:
128,192,227270,1,0,0:0:0:0:
213,192,227902,1,2,0:0:0:0:
469,192,227902,1,0,0:0:0:0:
298,192,227902,1,0,0:0:0:0:
213,192,228534,1,2,0:0:0:0:
469,192,228534,1,0,0:0:0:0:
42,192,229165,1,0,0:0:0:0:
298,192,229165,1,2,0:0:0:0:
384,192,229165,1,0,0:0:0:0:
42,192,229797,1,0,0:0:0:0:
298,192,229797,1,2,0:0:0:0:
42,192,230428,1,0,0:0:0:0:
298,192,230428,1,2,0:0:0:0:
42,192,231060,1,0,0:0:0:0:
298,192,231060,1,2,0:0:0:0:
469,192,231691,1,2,0:0:0:0:
213,192,231691,1,0,0:0:0:0:
42,192,231691,1,0,0:0:0:0:
469,192,232323,1,2,0:0:0:0:
42,192,232323,1,0,0:0:0:0:
128,192,232955,1,2,0:0:0:0:
384,192,232955,1,0,0:0:0:0:
128,192,233270,1,2,0:0:0:0:
384,192,233270,1,0,0:0:0:0:
128,192,233586,1,2,0:0:0:0:
384,192,233586,1,0,0:0:0:0:
128,192,233902,1,2,0:0:0:0:
384,192,233902,1,0,0:0:0:0:
213,192,234218,1,0,0:0:0:0:
298,192,234218,1,0,0:0:0:0:
213,192,234534,1,0,0:0:0:0:
298,192,234534,1,0,0:0:0:0:
213,192,234849,1,0,0:0:0:0:
298,192,234849,1,0,0:0:0:0:
42,192,235165,1,0,0:0:0:0:
128,192,235165,1,8,0:2:0:20:
213,192,235165,1,8,0:2:0:20:
298,192,235165,1,8,0:2:0:20:
384,192,235165,1,8,0:2:0:20:
469,192,235165,1,0,0:0:0:0:
213,192,235481,1,0,0:0:0:0:
469,192,235481,1,4,0:2:0:0:
384,192,235481,1,0,0:0:0:0:
42,192,235481,1,0,0:0:0:40:drumpad.wav
298,192,235639,1,2,0:0:0:0:
128,192,235797,1,0,0:0:0:0:
42,192,235797,1,0,0:0:0:40:drumpad.wav
384,192,235797,1,0,0:0:0:45:drum_Emphasis2.wav
128,192,235955,1,2,0:0:0:0:
469,192,236112,128,0,236428:0:0:0:0:
213,192,236112,1,0,0:0:0:40:drumpad.wav
42,192,236270,1,2,0:0:0:0:
128,192,236428,1,0,0:0:0:45:drum_Emphasis2.wav
384,192,236428,128,0,236744:0:0:0:0:
213,192,236428,1,0,0:0:0:40:drumpad.wav
42,192,236586,1,2,0:0:0:0:
298,192,236744,128,0,237060:0:0:0:0:
213,192,236744,1,0,0:0:0:40:drumpad.wav
128,192,236902,1,2,0:0:0:0:
384,192,237060,1,0,0:0:0:0:
42,192,237060,1,0,0:0:0:40:drumpad.wav
469,192,237060,1,0,0:0:0:45:drum_Emphasis2.wav
298,192,237218,1,2,0:0:0:0:
213,192,237376,1,0,0:0:0:0:
384,192,237376,1,4,0:2:0:0:
42,192,237376,1,0,0:0:0:40:drumpad.wav
298,192,237534,1,2,0:0:0:0:
213,192,237534,1,0,0:0:0:0:
469,192,237691,1,4,0:2:0:0:
298,192,237691,1,0,0:0:0:0:
128,192,237691,1,0,0:0:0:40:drumpad.wav
42,192,237849,1,0,0:0:0:0:
384,192,237849,1,2,0:0:0:0:
469,192,238007,1,4,0:2:0:0:
213,192,238007,1,0,0:0:0:0:
298,192,238007,1,0,0:0:0:0:
42,192,238007,1,0,0:0:0:40:drumpad.wav
128,192,238165,1,2,0:0:0:0:
298,192,238323,1,0,0:0:0:0:
42,192,238323,1,0,0:0:0:40:drumpad.wav
384,192,238323,1,0,0:0:0:45:drum_Emphasis2.wav
384,192,238481,1,2,0:0:0:0:
213,192,238481,1,0,0:0:0:0:
469,192,238639,1,0,0:0:0:0:
128,192,238639,1,0,0:0:0:40:drumpad.wav
42,192,238797,1,0,0:0:0:0:
298,192,238797,1,2,0:0:0:0:
298,192,238955,1,0,0:0:0:0:
213,192,238955,1,0,0:0:0:40:drumpad.wav
384,192,238955,1,0,0:0:0:45:drum_Emphasis2.wav
128,192,239112,1,2,0:0:0:0:
469,192,239270,1,0,0:0:0:0:
213,192,239270,1,0,0:0:0:40:drumpad.wav
298,192,239428,1,0,0:0:0:0:
213,192,239428,1,2,0:0:0:0:
128,192,239586,1,0,0:0:0:0:
42,192,239586,1,0,0:0:0:40:drumpad.wav
384,192,239586,1,0,0:0:0:45:drum_Emphasis2.wav
298,192,239744,1,0,0:0:0:0:
128,192,239744,1,2,0:0:0:0:
298,192,239902,1,0,0:0:0:40:drumpad.wav
469,192,239902,1,4,0:2:0:0:
42,192,239902,128,0,240060:0:0:0:0:
128,192,240060,128,2,240218:0:0:0:0:
213,192,240218,128,0,240376:0:0:0:0:
384,192,240218,1,0,0:0:0:40:drumpad.wav
469,192,240218,1,4,0:2:0:0:
298,192,240376,128,2,240534:0:0:0:0:
384,192,240534,1,4,0:2:0:0:
128,192,240534,1,0,0:0:0:0:
469,192,240534,128,0,243060:0:0:0:0:
42,192,240534,1,0,0:0:0:40:drumpad.wav
213,192,240691,1,2,0:0:0:0:
384,192,240849,1,0,0:0:0:45:drum_Emphasis2.wav
298,192,240849,1,0,0:0:0:0:
42,192,240849,1,0,0:0:0:40:drumpad.wav
42,192,241007,1,2,0:0:0:0:
298,192,241165,1,0,0:0:0:0:
128,192,241165,1,0,0:0:0:40:drumpad.wav
384,192,241323,1,2,0:0:0:0:
213,192,241481,1,0,0:0:0:0:
42,192,241481,1,0,0:0:0:40:drumpad.wav
298,192,241481,1,0,0:0:0:45:drum_Emphasis2.wav
42,192,241639,1,4,0:2:0:0:
128,192,241639,1,2,0:0:0:0:
384,192,241639,1,0,0:0:0:45:drum_Emphasis2.wav
298,192,241797,1,0,0:0:0:0:
213,192,241797,1,0,0:0:0:40:drumpad.wav
128,192,241955,1,2,0:0:0:0:
298,192,242112,1,0,0:0:0:0:
42,192,242112,1,0,0:0:0:40:drumpad.wav
384,192,242112,1,0,0:0:0:45:drum_Emphasis2.wav
128,192,242270,1,2,0:0:0:0:
384,192,242428,1,0,0:0:0:0:
213,192,242428,1,0,0:0:0:40:drumpad.wav
298,192,242586,1,0,0:0:0:0:
384,192,242586,1,2,0:0:0:0:
128,192,242744,1,0,0:0:0:0:
42,192,242744,1,0,0:0:0:40:drumpad.wav
298,192,242744,1,0,0:0:0:45:drum_Emphasis2.wav
128,192,242902,1,2,0:0:0:0:
213,192,242902,1,0,0:0:0:0:
213,192,243060,1,0,0:0:0:0:
384,192,243060,1,4,0:2:0:0:
298,192,243060,1,0,0:0:0:0:
42,192,243060,1,0,0:0:0:40:drumpad.wav
469,192,243218,1,2,0:0:0:0:
213,192,243376,1,0,0:0:0:0:
128,192,243376,1,0,0:0:0:40:drumpad.wav
384,192,243376,1,0,0:0:0:45:drum_Emphasis2.wav
128,192,243534,1,0,0:0:0:0:
384,192,243534,1,2,0:0:0:0:
298,192,243691,1,0,0:0:0:0:
213,192,243691,1,0,0:0:0:40:drumpad.wav
469,192,243849,1,2,0:0:0:0:
213,192,243849,1,0,0:0:0:0:
298,192,244007,1,0,0:0:0:0:
42,192,244007,1,0,0:0:0:40:drumpad.wav
384,192,244007,1,0,0:0:0:45:drum_Emphasis2.wav
128,192,244165,1,4,0:2:0:0:
298,192,244165,1,2,0:0:0:0:
469,192,244165,1,0,0:0:0:45:drum_Emphasis2.wav
213,192,244323,1,0,0:0:0:0:
128,192,244323,1,0,0:0:0:40:drumpad.wav
128,192,244481,1,0,0:0:0:0:
213,192,244481,1,0,0:0:0:0:
213,192,244639,1,0,0:0:0:0:
298,192,244639,1,0,0:0:0:0:
128,192,244639,1,0,0:0:0:40:drumpad.wav
384,192,244639,1,0,0:0:0:45:drum_Emphasis2.wav
128,192,244797,1,0,0:0:0:0:
213,192,244797,1,0,0:0:0:0:
298,192,244955,1,0,0:0:0:0:
384,192,244955,1,0,0:0:0:40:drumpad.wav
298,192,245112,1,0,0:0:0:0:
384,192,245112,1,0,0:0:0:0:
213,192,245270,1,0,0:0:0:0:
298,192,245270,1,0,0:0:0:0:
384,192,245270,1,0,0:0:0:40:drumpad.wav
128,192,245270,1,0,0:0:0:45:drum_Emphasis2.wav
298,192,245428,1,0,0:0:0:0:
384,192,245428,1,0,0:0:0:0:
298,192,245586,1,0,0:0:0:0:
384,192,245586,1,4,0:2:0:0:
128,192,245586,128,0,246849:0:0:0:0:
213,192,245586,1,0,0:0:0:40:drumpad.wav
469,192,245744,1,2,0:0:0:0:
42,192,245902,1,0,0:0:0:40:drumpad.wav
469,192,245902,1,0,0:0:0:45:drum_Emphasis2.wav
384,192,245902,1,0,0:0:0:0:
298,192,245981,1,0,0:0:0:0:
213,192,246060,1,2,0:0:0:0:
384,192,246218,1,0,0:0:0:0:
298,192,246218,1,0,0:0:0:40:drumpad.wav
213,192,246376,1,2,0:0:0:0:
298,192,246455,1,0,0:0:0:0:
384,192,246534,1,0,0:0:0:0:
42,192,246534,1,0,0:0:0:40:drumpad.wav
469,192,246534,1,0,0:0:0:45:drum_Emphasis2.wav
213,192,246691,1,2,0:0:0:0:
298,192,246691,1,4,0:2:0:0:
469,192,246691,1,0,0:0:0:45:drum_Emphasis2.wav
384,192,246849,1,0,0:0:0:0:
213,192,246849,1,0,0:0:0:40:drumpad.wav
128,192,247007,1,2,0:0:0:0:
213,192,247086,1,0,0:0:0:0:
298,192,247165,1,0,0:0:0:0:
42,192,247165,1,0,0:0:0:40:drumpad.wav
469,192,247165,1,0,0:0:0:45:drum_Emphasis2.wav
213,192,247323,1,2,0:0:0:0:
298,192,247481,1,0,0:0:0:0:
128,192,247481,1,0,0:0:0:40:drumpad.wav
384,192,247639,1,0,0:0:0:0:
128,192,247639,1,2,0:0:0:0:
384,192,247797,1,0,0:0:0:0:
213,192,247797,1,0,0:0:0:40:drumpad.wav
469,192,247797,1,0,0:0:0:45:drum_Emphasis2.wav
213,192,247955,1,2,0:0:0:0:
298,192,247955,1,0,0:0:0:0:
128,192,248112,1,0,0:0:0:0:
298,192,248112,1,0,0:0:0:0:
469,192,248112,1,4,0:2:0:0:
42,192,248112,1,0,0:0:0:40:drumpad.wav
213,192,248270,1,2,0:0:0:0:
384,192,248428,1,0,0:0:0:0:
128,192,248428,1,0,0:0:0:40:drumpad.wav
469,192,248428,1,0,0:0:0:45:drum_Emphasis2.wav
213,192,248507,1,0,0:0:0:0:
298,192,248586,1,2,0:0:0:0:
213,192,248744,1,0,0:0:0:0:
128,192,248744,1,0,0:0:0:40:drumpad.wav
384,192,248902,1,2,0:0:0:0:
298,192,248981,1,0,0:0:0:0:
213,192,249060,1,0,0:0:0:0:
42,192,249060,1,0,0:0:0:40:drumpad.wav
469,192,249060,1,0,0:0:0:45:drum_Emphasis2.wav
42,192,249218,1,4,0:2:0:0:
128,192,249218,1,2,0:0:0:0:
384,192,249218,1,0,0:0:0:45:drum_Emphasis2.wav
298,192,249376,1,0,0:0:0:0:
213,192,249376,1,0,0:0:0:40:drumpad.wav
213,192,249534,1,2,0:0:0:0:
298,192,249612,1,0,0:0:0:0:
128,192,249691,1,0,0:0:0:0:
42,192,249691,1,0,0:0:0:40:drumpad.wav
384,192,249691,1,0,0:0:0:45:drum_Emphasis2.wav
128,192,249849,1,2,0:0:0:0:
469,192,249849,1,0,0:0:0:0:
298,192,250007,1,0,0:0:0:0:
469,192,250007,1,0,0:0:0:0:
213,192,250007,1,0,0:0:0:40:drumpad.wav
42,192,250165,1,0,0:0:0:0:
298,192,250165,1,2,0:0:0:0:
384,192,250323,1,0,0:0:0:0:
469,192,250323,1,0,0:0:0:0:
128,192,250323,1,0,0:0:0:40:drumpad.wav
128,192,250481,1,0,0:0:0:0:
298,192,250481,1,2,0:0:0:0:
298,192,250639,1,0,0:0:0:0:
384,192,250639,1,4,0:2:0:0:
213,192,250639,1,0,0:0:0:0:
42,192,250639,1,0,0:0:0:40:drumpad.wav
469,192,250797,1,2,0:0:0:0:
128,192,250955,1,0,0:0:0:0:
42,192,250955,1,0,0:0:0:40:drumpad.wav
384,192,250955,1,0,0:0:0:45:drum_Emphasis2.wav
213,192,251034,1,0,0:0:0:0:
298,192,251112,1,2,0:0:0:0:
213,192,251270,1,0,0:0:0:0:
128,192,251270,1,0,0:0:0:40:drumpad.wav
384,192,251428,1,2,0:0:0:0:
298,192,251507,1,0,0:0:0:0:
213,192,251586,1,0,0:0:0:0:
42,192,251586,1,0,0:0:0:40:drumpad.wav
469,192,251586,1,0,0:0:0:45:drum_Emphasis2.wav
298,192,251744,1,2,0:0:0:0:
384,192,251744,1,0,0:0:0:45:drum_Emphasis2.wav
42,192,251744,1,4,0:2:0:0:
213,192,251902,1,0,0:0:0:0:
128,192,251902,1,0,0:0:0:40:drumpad.wav
298,192,252060,1,2,0:0:0:0:
384,192,252218,1,0,0:0:0:0:
42,192,252218,1,0,0:0:0:40:drumpad.wav
469,192,252218,1,0,0:0:0:45:drum_Emphasis2.wav
128,192,252297,1,0,0:0:0:0:
213,192,252376,1,2,0:0:0:0:
469,192,252534,1,0,0:0:0:0:
128,192,252534,1,0,0:0:0:40:drumpad.wav
213,192,252691,1,2,0:0:0:0:
298,192,252691,1,0,0:0:0:0:
213,192,252849,1,0,0:0:0:0:
42,192,252849,1,0,0:0:0:40:drumpad.wav
384,192,252849,1,0,0:0:0:45:drum_Emphasis2.wav
469,192,253007,1,2,0:0:0:0:
384,192,253165,1,0,0:0:0:0:
128,192,253165,1,0,0:0:0:0:
42,192,253165,1,0,0:0:0:40:drumpad.wav
298,192,253244,1,0,0:0:0:0:
213,192,253323,1,0,0:0:0:0:
128,192,253402,1,0,0:0:0:0:
384,192,253481,1,0,0:0:0:0:
42,192,253481,1,0,0:0:0:40:drumpad.wav
469,192,253481,1,0,0:0:0:45:drum_Emphasis2.wav
128,192,253560,1,0,0:0:0:0:
213,192,253639,1,0,0:0:0:0:
298,192,253718,1,0,0:0:0:0:
384,192,253797,1,0,0:0:0:0:
128,192,253797,1,0,0:0:0:40:drumpad.wav
213,192,253876,1,0,0:0:0:0:
298,192,253955,1,0,0:0:0:0:
384,192,254034,1,0,0:0:0:0:
128,192,254112,1,0,0:0:0:0:
42,192,254112,1,0,0:0:0:40:drumpad.wav
469,192,254112,1,0,0:0:0:45:drum_Emphasis2.wav
384,192,254191,1,0,0:0:0:0:
298,192,254270,1,0,0:0:0:0:
213,192,254349,1,0,0:0:0:0:
42,192,254428,1,0,0:0:0:45:drum_Emphasis2.wav
384,192,254428,1,0,0:0:0:0:
128,192,254428,1,0,0:0:0:0:
469,192,254428,1,0,0:0:0:40:drumpad.wav
384,192,254586,1,0,0:0:0:0:
469,192,254586,1,0,0:0:0:40:drumpad.wav
128,192,254744,1,0,0:0:0:0:
384,192,254744,1,0,0:0:0:0:
469,192,254744,1,0,0:0:0:40:drumpad.wav
42,192,254744,1,0,0:0:0:45:drum_Emphasis2.wav
384,192,254902,1,0,0:0:0:0:
469,192,254902,1,0,0:0:0:40:drumpad.wav
128,192,255060,1,0,0:0:0:0:
384,192,255060,1,0,0:0:0:0:
42,192,255060,1,0,0:0:0:40:drumpad.wav
469,192,255060,1,0,0:0:0:45:drum_Emphasis2.wav
128,192,255218,1,0,0:0:0:0:
42,192,255218,1,0,0:0:0:40:drumpad.wav
128,192,255376,1,0,0:0:0:0:
384,192,255376,1,0,0:0:0:0:
42,192,255376,1,0,0:0:0:40:drumpad.wav
469,192,255376,1,0,0:0:0:45:drum_Emphasis2.wav
128,192,255534,1,0,0:0:0:0:
42,192,255534,1,0,0:0:0:40:drumpad.wav
42,192,255691,1,0,0:0:0:0:
128,192,255691,1,0,0:0:0:0:
384,192,255691,1,0,0:0:0:0:
469,192,255691,1,2,0:1:0:0:
213,192,255849,1,2,0:1:0:0:
298,192,256007,1,2,0:1:0:0:
213,192,256165,1,2,0:1:0:0:
384,192,256244,1,2,0:1:0:0:
42,192,256323,1,0,0:0:0:0:
384,192,256402,1,2,0:1:0:0:
128,192,256481,1,0,0:0:0:0:
384,192,256560,1,2,0:1:0:0:
213,192,256639,1,2,0:1:0:0:
384,192,256797,1,0,0:0:0:0:
128,192,256955,1,2,0:1:0:0:
469,192,257112,1,2,0:1:0:0:
213,192,257270,1,2,0:1:0:0:
298,192,257428,1,2,0:1:0:0:
128,192,257507,1,2,0:1:0:0:
469,192,257586,1,0,0:0:0:0:
128,192,257665,1,2,0:1:0:0:
384,192,257744,1,0,0:0:0:0:
128,192,257823,1,2,0:1:0:0:
298,192,257902,1,2,0:1:0:0:
128,192,258060,1,0,0:0:0:0:
213,192,258218,1,0,0:0:0:0:
469,192,258218,1,2,0:1:0:0:
298,192,258376,1,2,0:1:0:0:
128,192,258534,1,2,0:1:0:0:
213,192,258691,1,2,0:1:0:0:
469,192,258770,1,2,0:1:0:0:
42,192,258849,1,0,0:0:0:0:
469,192,258928,1,2,0:1:0:0:
128,192,259007,1,0,0:0:0:0:
469,192,259086,1,2,0:1:0:0:
213,192,259165,1,2,0:1:0:0:
469,192,259323,1,0,0:0:0:0:
298,192,259481,1,0,0:0:0:0:
213,192,259481,1,0,0:0:0:25:drumpad.wav
298,192,259639,1,0,0:0:0:0:
213,192,259639,1,0,0:0:0:25:drumpad.wav
298,192,259797,1,0,0:0:0:0:
213,192,259797,1,0,0:0:0:30:drumpad.wav
298,192,259955,1,0,0:0:0:0:
213,192,259955,1,0,0:0:0:30:drumpad.wav
213,192,260112,1,0,0:0:0:0:
298,192,260112,1,0,0:0:0:0:
128,192,260112,1,0,0:0:0:25:drumpad.wav
384,192,260112,1,0,0:0:0:25:drumpad.wav
384,192,260270,1,0,0:0:0:25:drumpad.wav
128,192,260270,1,0,0:0:0:25:drumpad.wav
298,192,260270,1,0,0:0:0:0:
213,192,260270,1,0,0:0:0:0:
213,192,260428,1,8,0:2:0:20:
298,192,260428,1,8,0:2:0:20:
384,192,260428,1,8,0:2:0:20:
42,192,260428,1,0,0:0:0:40:drumpad.wav
128,192,260428,1,8,0:2:0:20:
469,192,260428,1,0,0:0:0:45:drum_Emphasis2.wav
469,192,260586,1,0,0:0:0:25:drumpad.wav
42,192,260586,1,0,0:0:0:25:drumpad.wav
128,192,260586,1,0,0:0:0:0:
384,192,260586,1,0,0:0:0:0:
213,192,260744,1,0,0:0:0:0:
298,192,260744,1,0,0:0:0:0:
469,192,260744,1,4,0:2:0:0:
42,192,260744,1,0,0:0:0:40:drumpad.wav
213,192,260902,1,2,0:0:0:0:
384,192,261060,1,0,0:0:0:0:
128,192,261060,1,0,0:0:0:40:drumpad.wav
469,192,261060,1,0,0:0:0:45:drum_Emphasis2.wav
384,192,261218,1,0,0:0:0:0:
213,192,261218,1,2,0:0:0:0:
128,192,261376,1,0,0:0:0:0:
298,192,261376,1,0,0:0:0:0:
42,192,261376,1,0,0:0:0:40:drumpad.wav
42,192,261534,1,0,0:0:0:0:
384,192,261534,1,2,0:0:0:0:
213,192,261691,1,0,0:0:0:0:
128,192,261691,1,0,0:0:0:40:drumpad.wav
298,192,261691,1,0,0:0:0:45:drum_Emphasis2.wav
384,192,261849,1,4,0:2:0:0:
128,192,261849,128,2,262165:0:0:0:0:
469,192,261849,1,0,0:0:0:45:drum_Emphasis2.wav
298,192,262007,1,0,0:0:0:0:
213,192,262007,1,0,0:0:0:40:drumpad.wav
469,192,262165,1,2,0:0:0:0:
128,192,262323,1,0,0:0:0:0:
42,192,262323,1,0,0:0:0:40:drumpad.wav
384,192,262323,1,0,0:0:0:45:drum_Emphasis2.wav
298,192,262481,1,2,0:0:0:0:
469,192,262639,1,0,0:0:0:0:
213,192,262639,1,0,0:0:0:40:drumpad.wav
213,192,262797,1,0,0:0:0:0:
384,192,262797,1,2,0:0:0:0:
213,192,262955,1,0,0:0:0:0:
42,192,262955,1,0,0:0:0:40:drumpad.wav
298,192,262955,1,0,0:0:0:45:drum_Emphasis2.wav
128,192,263112,1,2,0:0:0:0:
298,192,263112,1,0,0:0:0:0:
469,192,263270,1,4,0:2:0:0:
213,192,263270,1,0,0:0:0:0:
298,192,263270,1,0,0:0:0:0:
128,192,263270,1,0,0:0:0:40:drumpad.wav
42,192,263428,1,2,0:0:0:0:
298,192,263586,1,0,0:0:0:0:
128,192,263586,1,0,0:0:0:40:drumpad.wav
384,192,263586,1,0,0:0:0:45:drum_Emphasis2.wav
384,192,263744,1,2,0:0:0:0:
298,192,263902,1,0,0:0:0:0:
213,192,263902,1,0,0:0:0:40:drumpad.wav
42,192,264060,1,0,0:0:0:0:
298,192,264060,1,2,0:0:0:0:
213,192,264218,1,0,0:0:0:0:
128,192,264218,1,0,0:0:0:40:drumpad.wav
469,192,264218,1,0,0:0:0:45:drum_Emphasis2.wav
469,192,264376,128,0,265165:0:0:0:0:
128,192,264376,1,2,0:0:0:0:
298,192,264534,1,0,0:0:0:0:
213,192,264534,1,0,0:0:0:40:drumpad.wav
42,192,264691,1,0,0:0:0:0:
298,192,264691,1,2,0:0:0:0:
384,192,264849,1,0,0:0:0:45:drum_Emphasis2.wav
213,192,264849,1,0,0:0:0:0:
128,192,264849,1,0,0:0:0:40:drumpad.wav
128,192,265007,1,0,0:0:0:0:
298,192,265007,1,2,0:0:0:0:
384,192,265165,1,0,0:0:0:0:
42,192,265165,1,0,0:0:0:40:drumpad.wav
213,192,265323,128,2,265639:0:0:0:0:
298,192,265481,1,0,0:0:0:0:
128,192,265481,1,0,0:0:0:40:drumpad.wav
384,192,265481,1,0,0:0:0:45:drum_Emphasis2.wav
128,192,265639,128,2,266112:0:0:0:0:
469,192,265639,1,0,0:0:0:40:drumpad.wav
298,192,265639,1,0,0:0:0:45:drum_Emphasis2.wav
469,192,265955,128,0,266112:0:0:0:0:
213,192,266112,1,4,0:2:0:0:
298,192,266112,1,0,0:0:0:0:
42,192,266112,1,0,0:0:0:40:drumpad.wav
384,192,266112,1,0,0:0:0:45:drum_Emphasis2.wav
384,192,266270,128,0,266744:0:0:0:0:
42,192,266586,128,0,266744:0:0:0:0:
128,192,266744,1,0,0:0:0:0:
298,192,266744,1,4,0:2:0:0:
469,192,266744,1,0,0:0:0:40:drumpad.wav
213,192,266744,1,0,0:0:0:45:drum_Emphasis2.wav
213,192,266902,128,0,267376:0:0:0:0:
469,192,267218,128,0,267376:0:0:0:0:
128,192,267376,1,4,0:2:0:0:
384,192,267376,1,0,0:0:0:0:
42,192,267376,1,0,0:0:0:40:drumpad.wav
298,192,267376,1,0,0:0:0:45:drum_Emphasis2.wav
298,192,267534,128,0,268007:0:0:0:0:
42,192,267849,128,0,268007:0:0:0:0:
213,192,268007,1,0,0:0:0:0:
384,192,268007,1,4,0:2:0:0:
469,192,268007,1,0,0:0:0:40:drumpad.wav
128,192,268007,1,0,0:0:0:45:drum_Emphasis2.wav
469,192,268165,128,0,268639:0:0:0:0:
213,192,268481,128,0,268639:0:0:0:0:
128,192,268639,1,4,0:2:0:0:
384,192,268639,1,0,0:0:0:0:
42,192,268639,1,0,0:0:0:40:drumpad.wav
298,192,268639,1,0,0:0:0:45:drum_Emphasis2.wav
42,192,268797,128,0,269270:0:0:0:0:
298,192,269112,128,0,269270:0:0:0:0:
213,192,269270,1,0,0:0:0:0:
384,192,269270,1,4,0:2:0:0:
469,192,269270,1,0,0:0:0:40:drumpad.wav
128,192,269270,1,0,0:0:0:45:drum_Emphasis2.wav
128,192,269586,1,0,0:0:0:0:
384,192,269586,1,0,0:0:0:0:
469,192,269586,1,0,0:0:0:40:drumpad.wav
42,192,269586,1,0,0:0:0:45:drum_Emphasis2.wav
384,192,269744,1,0,0:0:0:0:
469,192,269744,1,0,0:0:0:40:drumpad.wav
128,192,269902,1,0,0:0:0:0:
384,192,269902,1,0,0:0:0:0:
42,192,269902,1,0,0:0:0:40:drumpad.wav
469,192,269902,1,0,0:0:0:45:drum_Emphasis2.wav
128,192,270060,1,0,0:0:0:0:
42,192,270060,1,0,0:0:0:40:drumpad.wav
128,192,270218,1,0,0:0:0:0:
384,192,270218,1,0,0:0:0:0:
469,192,270218,1,0,0:0:0:40:drumpad.wav
42,192,270218,1,0,0:0:0:45:drum_Emphasis2.wav
384,192,270376,1,0,0:0:0:0:
469,192,270376,1,0,0:0:0:40:drumpad.wav
128,192,270534,1,8,0:2:0:20:
213,192,270534,1,8,0:2:0:20:
298,192,270534,1,8,0:2:0:20:
384,192,270534,1,8,0:2:0:20:
42,192,270534,1,0,0:0:0:40:drumpad.wav
469,192,270534,1,0,0:0:0:45:drum_Emphasis2.wav
128,192,270691,1,0,0:0:0:0:
42,192,270691,1,0,0:0:0:40:drumpad.wav
128,192,270849,1,0,0:0:0:0:
384,192,270849,1,0,0:0:0:0:
469,192,270849,1,4,0:2:0:0:
42,192,270849,1,0,0:0:0:40:drumpad.wav
213,192,271007,1,2,0:0:0:0:
384,192,271165,1,0,0:0:0:0:
42,192,271165,1,0,0:0:0:40:drumpad.wav
469,192,271165,1,0,0:0:0:45:drum_Emphasis2.wav
298,192,271244,1,0,0:0:0:0:
213,192,271323,1,2,0:0:0:0:
384,192,271481,1,0,0:0:0:0:
298,192,271481,1,0,0:0:0:40:drumpad.wav
128,192,271639,1,2,0:0:0:0:
213,192,271718,1,0,0:0:0:0:
298,192,271797,1,0,0:0:0:0:
42,192,271797,1,0,0:0:0:40:drumpad.wav
469,192,271797,1,0,0:0:0:45:drum_Emphasis2.wav
384,192,271955,1,2,0:0:0:0:
128,192,271955,1,4,0:2:0:0:
469,192,271955,1,0,0:0:0:45:drum_Emphasis2.wav
213,192,272112,1,0,0:0:0:40:drumpad.wav
298,192,272112,1,0,0:0:0:0:
213,192,272270,1,2,0:0:0:0:
128,192,272428,1,0,0:0:0:0:
42,192,272428,1,0,0:0:0:40:drumpad.wav
469,192,272428,1,0,0:0:0:45:drum_Emphasis2.wav
213,192,272507,1,0,0:0:0:0:
298,192,272586,1,2,0:0:0:0:
213,192,272744,1,0,0:0:0:0:
128,192,272744,1,0,0:0:0:40:drumpad.wav
384,192,272902,1,2,0:0:0:0:
298,192,272981,1,0,0:0:0:0:
213,192,273060,1,0,0:0:0:0:
42,192,273060,1,0,0:0:0:40:drumpad.wav
469,192,273060,1,0,0:0:0:45:drum_Emphasis2.wav
298,192,273218,1,2,0:0:0:0:
384,192,273376,1,0,0:0:0:0:
469,192,273376,1,0,0:0:0:0:
128,192,273376,1,0,0:0:0:0:
42,192,273376,1,0,0:0:0:40:drumpad.wav
42,192,273534,128,0,274639:0:0:0:0:
213,192,273691,1,0,0:0:0:40:drumpad.wav
298,192,273691,1,0,0:0:0:0:
469,192,273691,1,0,0:0:0:45:drum_Emphasis2.wav
469,192,273849,128,0,274639:0:0:0:0:
128,192,274007,1,0,0:0:0:40:drumpad.wav
298,192,274007,1,0,0:0:0:0:
128,192,274165,128,0,274639:0:0:0:0:
298,192,274323,1,0,0:0:0:45:drum_Emphasis2.wav
384,192,274323,1,0,0:0:0:40:drumpad.wav
213,192,274323,1,0,0:0:0:0:
384,192,274481,128,0,274639:0:0:0:0:
213,192,274639,1,0,0:0:0:40:drumpad.wav
298,192,274639,1,0,0:0:0:45:drum_Emphasis2.wav
128,192,274797,1,0,0:0:0:0:
213,192,274797,1,0,0:0:0:40:drumpad.wav
298,192,274797,1,0,0:0:0:45:drum_Emphasis2.wav
128,192,274955,1,0,0:0:0:0:
213,192,274955,1,0,0:0:0:40:drumpad.wav
298,192,274955,1,0,0:0:0:45:drum_Emphasis2.wav
128,192,275112,1,0,0:0:0:0:
384,192,275112,1,0,0:0:0:45:drum_Emphasis2.wav
298,192,275270,1,0,0:0:0:40:drumpad.wav
384,192,275270,1,0,0:0:0:0:
128,192,275270,1,0,0:0:0:0:
213,192,275270,1,0,0:0:0:45:drum_Emphasis2.wav
384,192,275428,1,0,0:0:0:0:
298,192,275428,1,0,0:0:0:40:drumpad.wav
213,192,275428,1,0,0:0:0:45:drum_Emphasis2.wav
384,192,275586,1,0,0:0:0:0:
298,192,275586,1,0,0:0:0:40:drumpad.wav
213,192,275586,1,0,0:0:0:45:drum_Emphasis2.wav
128,192,275744,1,0,0:0:0:0:
213,192,275744,1,0,0:0:0:40:drumpad.wav
469,192,275744,1,0,0:0:0:45:drum_Emphasis2.wav
128,192,275902,1,0,0:0:0:0:
298,192,275902,1,0,0:0:0:0:
42,192,276534,1,0,0:0:0:0:
469,192,276534,1,0,0:0:0:0:
42,192,276849,1,8,0:0:0:0:
213,192,276849,128,0,277007:0:0:0:0:
469,192,276849,1,0,0:0:0:0:
384,192,276849,1,8,0:0:0:0:
298,192,277007,128,0,277165:0:0:0:0:
384,192,277165,1,0,0:0:0:0:
128,192,277165,1,0,0:0:0:0:
469,192,277165,1,4,0:2:0:0:
42,192,277165,1,0,0:0:0:40:drumpad.wav
298,192,277323,1,2,0:0:0:0:
213,192,277481,1,0,0:0:0:0:
42,192,277481,1,0,0:0:0:40:drumpad.wav
384,192,277481,1,0,0:0:0:45:drum_Emphasis2.wav
213,192,277639,1,0,0:0:0:0:
298,192,277639,1,2,0:0:0:0:
128,192,277797,1,0,0:0:0:0:
42,192,277797,1,0,0:0:0:40:drumpad.wav
213,192,277955,1,2,0:0:0:0:
384,192,277955,1,0,0:0:0:0:
298,192,278112,1,0,0:0:0:0:
128,192,278112,1,0,0:0:0:40:drumpad.wav
384,192,278112,1,0,0:0:0:45:drum_Emphasis2.wav
42,192,278270,1,2,0:0:0:0:
469,192,278428,1,0,0:0:0:0:
213,192,278428,1,0,0:0:0:40:drumpad.wav
128,192,278586,1,0,0:0:0:0:
298,192,278586,1,2,0:0:0:0:
384,192,278744,1,0,0:0:0:0:
128,192,278744,1,0,0:0:0:40:drumpad.wav
469,192,278744,1,0,0:0:0:45:drum_Emphasis2.wav
213,192,278902,1,2,0:0:0:0:
469,192,278902,128,0,279218:0:0:0:0:
213,192,279060,1,0,0:0:0:0:
298,192,279060,1,4,0:2:0:0:
42,192,279060,1,0,0:0:0:40:drumpad.wav
42,192,279218,128,0,279376:0:0:0:0:
469,192,279376,1,4,0:2:0:0:
298,192,279376,128,0,279534:0:0:0:0:
213,192,279376,1,0,0:0:0:40:drumpad.wav
213,192,279534,128,0,279691:0:0:0:0:
128,192,279691,1,0,0:0:0:0:
384,192,279691,1,0,0:0:0:0:
469,192,279691,1,4,0:2:0:0:
42,192,279691,1,0,0:0:0:40:drumpad.wav
213,192,279849,1,2,0:0:0:0:
298,192,279928,1,0,0:0:0:0:
128,192,280007,1,0,0:0:0:0:
42,192,280007,1,0,0:0:0:40:drumpad.wav
384,192,280007,1,0,0:0:0:45:drum_Emphasis2.wav
298,192,280165,1,2,0:0:0:0:
469,192,280323,1,0,0:0:0:0:
213,192,280323,1,0,0:0:0:40:drumpad.wav
42,192,280481,1,0,0:0:0:0:
298,192,280481,1,2,0:0:0:0:
213,192,280639,1,0,0:0:0:0:
42,192,280639,1,0,0:0:0:40:drumpad.wav
384,192,280639,1,0,0:0:0:45:drum_Emphasis2.wav
298,192,280797,1,2,0:0:0:0:
213,192,280955,1,0,0:0:0:0:
128,192,280955,1,0,0:0:0:40:drumpad.wav
128,192,281112,1,2,0:0:0:0:
384,192,281112,1,0,0:0:0:0:
384,192,281270,1,0,0:0:0:0:
213,192,281270,1,0,0:0:0:40:drumpad.wav
469,192,281270,1,0,0:0:0:45:drum_Emphasis2.wav
42,192,281428,1,0,0:0:0:0:
298,192,281428,1,2,0:0:0:0:
469,192,281586,1,4,0:2:0:0:
128,192,281586,128,0,281744:0:0:0:0:
298,192,281586,1,0,0:0:0:40:drumpad.wav
213,192,281744,128,0,282060:0:0:0:0:
384,192,281902,1,4,0:2:0:0:
298,192,281902,1,0,0:0:0:0:
42,192,281902,1,0,0:0:0:40:drumpad.wav
298,192,282060,128,0,282218:0:0:0:0:
384,192,282218,1,0,0:0:0:0:
469,192,282218,1,4,0:2:0:0:
128,192,282218,1,0,0:0:0:0:
42,192,282218,1,0,0:0:0:40:drumpad.wav
298,192,282376,1,2,0:0:0:0:
213,192,282455,1,0,0:0:0:0:
298,192,282534,1,0,0:0:0:0:
128,192,282534,1,0,0:0:0:40:drumpad.wav
384,192,282534,1,0,0:0:0:45:drum_Emphasis2.wav
469,192,282691,1,2,0:0:0:0:
298,192,282849,1,0,0:0:0:0:
213,192,282849,1,0,0:0:0:40:drumpad.wav
42,192,283007,1,2,0:0:0:0:
213,192,283165,1,0,0:0:0:0:
128,192,283165,1,0,0:0:0:40:drumpad.wav
384,192,283165,1,0,0:0:0:45:drum_Emphasis2.wav
128,192,283323,1,4,0:2:0:0:
298,192,283323,1,2,0:0:0:0:
469,192,283323,1,0,0:0:0:45:drum_Emphasis2.wav
384,192,283481,1,0,0:0:0:0:
213,192,283481,1,0,0:0:0:40:drumpad.wav
42,192,283639,1,2,0:0:0:0:
213,192,283797,1,0,0:0:0:0:
128,192,283797,1,0,0:0:0:40:drumpad.wav
469,192,283797,1,0,0:0:0:45:drum_Emphasis2.wav
298,192,283955,1,2,0:0:0:0:
384,192,284112,128,0,284270:0:0:0:0:
42,192,284112,1,0,0:0:0:40:drumpad.wav
213,192,284270,1,2,0:0:0:0:
128,192,284428,128,0,284586:0:0:0:0:
298,192,284428,1,0,0:0:0:40:drumpad.wav
469,192,284428,1,0,0:0:0:45:drum_Emphasis2.wav
469,192,284586,128,2,284744:0:0:0:0:
213,192,284744,1,0,0:0:0:40:drumpad.wav
298,192,284744,1,0,0:0:0:0:
384,192,284744,1,4,0:2:0:0:
42,192,284744,128,0,285060:0:0:0:0:
298,192,285060,1,0,0:0:0:0:
213,192,285060,1,0,0:0:0:40:drumpad.wav
469,192,285060,1,0,0:0:0:45:drum_Emphasis2.wav
384,192,285218,128,2,285534:0:0:0:0:
213,192,285376,1,0,0:0:0:0:
128,192,285376,1,0,0:0:0:40:drumpad.wav
298,192,285534,128,2,285691:0:0:0:0:
213,192,285691,1,0,0:0:0:0:
42,192,285691,1,0,0:0:0:40:drumpad.wav
384,192,285691,1,0,0:0:0:45:drum_Emphasis2.wav
213,192,285849,128,2,286639:0:0:0:0:
128,192,285849,1,4,0:2:0:0:
469,192,285849,1,0,0:0:0:45:drum_Emphasis2.wav
384,192,286007,1,0,0:0:0:0:
298,192,286007,1,0,0:0:0:40:drumpad.wav
42,192,286165,1,0,0:0:0:0:
298,192,286165,1,2,0:0:0:0:
384,192,286323,1,4,0:2:0:0:
128,192,286323,1,0,0:0:0:40:drumpad.wav
469,192,286323,1,0,0:0:0:45:drum_Emphasis2.wav
128,192,286481,1,2,0:0:0:0:
298,192,286481,1,0,0:0:0:0:
384,192,286639,1,0,0:0:0:0:
469,192,286639,1,4,0:2:0:0:
42,192,286639,1,0,0:0:0:40:drumpad.wav
213,192,286955,1,0,0:0:0:0:
298,192,286955,1,0,0:0:0:0:
469,192,286955,1,4,0:2:0:0:
128,192,286955,1,0,0:0:0:40:drumpad.wav
213,192,287112,1,2,0:0:0:0:
128,192,287270,1,0,0:0:0:0:
384,192,287270,1,4,0:2:0:0:
298,192,287270,1,0,0:0:0:0:
42,192,287270,1,0,0:0:0:40:drumpad.wav
42,192,287428,1,0,0:0:0:0:
298,192,287428,1,2,0:0:0:0:
213,192,287586,1,0,0:0:0:40:drumpad.wav
42,192,287586,128,0,287902:0:0:0:0:
298,192,287586,1,0,0:0:0:45:drum_Emphasis2.wav
384,192,287744,1,2,0:0:0:0:
469,192,287902,1,0,0:0:0:0:
213,192,287902,1,0,0:0:0:40:drumpad.wav
469,192,288060,1,2,0:0:0:0:
213,192,288060,1,0,0:0:0:0:
298,192,288218,1,0,0:0:0:45:drum_Emphasis2.wav
469,192,288218,128,0,288691:0:0:0:0:
213,192,288218,1,0,0:0:0:40:drumpad.wav
298,192,288376,1,0,0:0:0:45:drum_Emphasis2.wav
128,192,288376,1,2,0:0:0:0:
42,192,288376,1,4,0:2:0:0:
213,192,288534,128,0,288691:0:0:0:0:
42,192,288534,1,0,0:0:0:40:drumpad.wav
298,192,288691,128,2,288849:0:0:0:0:
128,192,288849,128,0,289007:0:0:0:0:
42,192,288849,1,0,0:0:0:40:drumpad.wav
384,192,288849,1,0,0:0:0:45:drum_Emphasis2.wav
298,192,289007,128,2,289165:0:0:0:0:
213,192,289165,128,0,289639:0:0:0:0:
469,192,289165,1,0,0:0:0:0:
128,192,289165,1,0,0:0:0:40:drumpad.wav
384,192,289323,1,0,0:0:0:0:
298,192,289323,1,2,0:0:0:0:
128,192,289481,1,0,0:0:0:0:
42,192,289481,1,0,0:0:0:40:drumpad.wav
469,192,289481,1,0,0:0:0:45:drum_Emphasis2.wav
384,192,289639,1,0,0:0:0:0:
298,192,289639,1,2,0:0:0:0:
213,192,289797,1,0,0:0:0:0:
469,192,289797,1,4,0:2:0:0:
298,192,289797,1,0,0:0:0:0:
42,192,289797,1,0,0:0:0:40:drumpad.wav
42,192,289955,128,2,290270:0:0:0:0:
213,192,290112,1,0,0:0:0:40:drumpad.wav
298,192,290112,128,0,290270:0:0:0:0:
384,192,290112,1,0,0:0:0:45:drum_Emphasis2.wav
384,192,290270,128,2,291060:0:0:0:0:
298,192,290428,1,0,0:0:0:0:
213,192,290428,1,0,0:0:0:40:drumpad.wav
213,192,290586,128,2,291060:0:0:0:0:
128,192,290744,1,0,0:0:0:0:
42,192,290744,1,0,0:0:0:40:drumpad.wav
298,192,290744,1,0,0:0:0:45:drum_Emphasis2.wav
298,192,290902,128,2,291060:0:0:0:0:
128,192,291060,1,0,0:0:0:0:
469,192,291060,128,0,291691:0:0:0:0:
42,192,291060,1,0,0:0:0:40:drumpad.wav
298,192,291218,1,2,0:0:0:0:
213,192,291218,1,0,0:0:0:0:
384,192,291376,1,0,0:0:0:45:drum_Emphasis2.wav
213,192,291376,1,0,0:0:0:0:
42,192,291376,1,0,0:0:0:40:drumpad.wav
128,192,291534,1,0,0:0:0:0:
298,192,291534,1,2,0:0:0:0:
298,192,291691,128,0,292007:0:0:0:0:
384,192,291691,1,4,0:2:0:0:
213,192,291691,1,0,0:0:0:0:
42,192,291691,1,0,0:0:0:40:drumpad.wav
213,192,292007,1,0,0:0:0:40:drumpad.wav
42,192,292007,128,0,292323:0:0:0:0:
384,192,292007,1,4,0:2:0:0:
469,192,292007,1,0,0:0:0:0:
213,192,292323,1,0,0:0:0:0:
298,192,292323,1,4,0:2:0:0:
469,192,292323,128,0,293270:0:0:0:0:
128,192,292323,1,0,0:0:0:40:drumpad.wav
213,192,292481,1,2,0:0:0:0:
384,192,292639,1,0,0:0:0:45:drum_Emphasis2.wav
128,192,292639,1,0,0:0:0:0:
42,192,292639,1,0,0:0:0:40:drumpad.wav
298,192,292797,1,2,0:0:0:0:
213,192,292955,1,0,0:0:0:0:
128,192,292955,1,0,0:0:0:40:drumpad.wav
298,192,293112,1,2,0:0:0:0:
213,192,293270,1,0,0:0:0:40:drumpad.wav
42,192,293270,128,0,293428:0:0:0:0:
384,192,293270,1,0,0:0:0:45:drum_Emphasis2.wav
298,192,293428,1,0,0:0:0:45:drum_Emphasis2.wav
384,192,293428,128,2,293586:0:0:0:0:
128,192,293428,1,4,0:2:0:0:
213,192,293586,128,0,293744:0:0:0:0:
298,192,293586,1,0,0:0:0:40:drumpad.wav
469,192,293744,128,2,293902:0:0:0:0:
213,192,293902,1,0,0:0:0:40:drumpad.wav
42,192,293902,128,0,294060:0:0:0:0:
298,192,293902,1,0,0:0:0:45:drum_Emphasis2.wav
298,192,294060,128,2,294139:0:0:0:0:
298,192,294218,128,0,294691:0:0:0:0:
128,192,294218,1,0,0:0:0:40:drumpad.wav
213,192,294376,1,2,0:0:0:0:
469,192,294376,1,0,0:0:0:0:
128,192,294534,1,0,0:0:0:0:
42,192,294534,1,0,0:0:0:40:drumpad.wav
384,192,294534,1,0,0:0:0:45:drum_Emphasis2.wav
213,192,294691,1,2,0:0:0:0:
298,192,294849,1,0,0:0:0:0:
469,192,294849,1,0,0:0:0:0:
42,192,294849,1,0,0:0:0:40:drumpad.wav
128,192,294928,1,0,0:0:0:0:
213,192,295007,1,0,0:0:0:0:
298,192,295086,1,0,0:0:0:0:
128,192,295165,1,0,0:0:0:0:
42,192,295165,1,0,0:0:0:40:drumpad.wav
384,192,295165,1,0,0:0:0:45:drum_Emphasis2.wav
298,192,295244,1,0,0:0:0:0:
213,192,295323,1,0,0:0:0:0:
128,192,295402,1,0,0:0:0:0:
384,192,295481,1,0,0:0:0:0:
42,192,295481,1,0,0:0:0:40:drumpad.wav
298,192,295560,1,0,0:0:0:0:
213,192,295639,1,0,0:0:0:0:
128,192,295718,1,0,0:0:0:0:
298,192,295797,1,0,0:0:0:0:
42,192,295797,1,0,0:0:0:40:drumpad.wav
469,192,295797,1,0,0:0:0:45:drum_Emphasis2.wav
128,192,295876,1,0,0:0:0:0:
213,192,295955,1,0,0:0:0:0:
298,192,296034,1,0,0:0:0:0:
128,192,296112,1,0,0:0:0:0:
384,192,296112,1,0,0:0:0:0:
42,192,296112,1,0,0:0:0:40:drumpad.wav
469,192,296112,1,0,0:0:0:45:drum_Emphasis2.wav
128,192,296270,1,0,0:0:0:0:
42,192,296270,1,0,0:0:0:40:drumpad.wav
384,192,296428,1,0,0:0:0:0:
128,192,296428,1,0,0:0:0:0:
42,192,296428,1,0,0:0:0:40:drumpad.wav
469,192,296428,1,0,0:0:0:45:drum_Emphasis2.wav
128,192,296586,1,0,0:0:0:0:
42,192,296586,1,0,0:0:0:40:drumpad.wav
42,192,296744,1,0,0:0:0:45:drum_Emphasis2.wav
384,192,296744,1,0,0:0:0:0:
469,192,296744,1,0,0:0:0:40:drumpad.wav
128,192,296744,1,0,0:0:0:0:
384,192,296902,1,0,0:0:0:0:
469,192,296902,1,0,0:0:0:40:drumpad.wav
42,192,297060,1,0,0:0:0:45:drum_Emphasis2.wav
384,192,297060,1,0,0:0:0:0:
128,192,297060,1,0,0:0:0:0:
469,192,297060,1,0,0:0:0:40:drumpad.wav
384,192,297218,1,0,0:0:0:0:
469,192,297218,1,0,0:0:0:40:drumpad.wav
128,192,297376,1,0,0:0:0:0:
42,192,297376,1,0,0:0:0:0:
469,192,297376,1,2,0:0:0:0:
384,192,297376,1,0,0:0:0:0:
469,192,297691,1,2,0:0:0:0:
213,192,298007,1,0,0:0:0:0:
469,192,298007,1,2,0:0:0:0:
469,192,298323,1,2,0:0:0:0:
42,192,298639,1,2,0:0:0:0:
298,192,298639,1,0,0:0:0:0:
384,192,298639,1,0,0:0:0:0:
42,192,298955,1,2,0:0:0:0:
42,192,299270,1,2,0:0:0:0:
298,192,299270,1,0,0:0:0:0:
42,192,299586,1,2,0:0:0:0:
213,192,299902,1,0,0:0:0:0:
298,192,299902,1,0,0:0:0:0:
128,192,299902,1,0,0:0:0:40:drumpad.wav
384,192,299902,1,0,0:0:0:45:drum_Emphasis2.wav
128,192,300218,1,0,0:0:0:0:
298,192,300218,1,0,0:0:0:0:
42,192,300218,1,0,0:0:0:40:drumpad.wav
469,192,300218,1,0,0:0:0:45:drum_Emphasis2.wav
213,192,300534,1,0,0:0:0:0:
298,192,300534,1,0,0:0:0:0:
42,192,300534,1,0,0:0:0:40:drumpad.wav
384,192,300534,1,0,0:0:0:45:drum_Emphasis2.wav
298,192,300849,1,0,0:0:0:0:
213,192,300849,1,0,0:0:0:0:
128,192,300849,1,0,0:0:0:40:drumpad.wav
469,192,300849,1,0,0:0:0:45:drum_Emphasis2.wav
469,192,301165,1,0,0:0:0:45:drum_Emphasis2.wav
213,192,301165,128,0,301797:0:0:0:0:
298,192,301165,128,0,301797:0:0:0:0:
42,192,301165,1,0,0:0:0:40:drumpad.wav
384,192,301797,1,0,0:0:0:0:
128,192,301797,1,0,0:0:0:0:
469,192,301797,128,0,303691:0:0:0:0:
42,192,301797,128,0,303691:0:0:0:0:
