osu file format v14

[General]
AudioFilename: audio.mp3
AudioLeadIn: 0
PreviewTime: 87589
Countdown: 0
SampleSet: Soft
StackLeniency: 0.2
Mode: 0
LetterboxInBreaks: 0
WidescreenStoryboard: 1

[Editor]
Bookmarks: 111432,172616,203563,235458,250616
DistanceSpacing: 0.2
BeatDivisor: 8
GridSize: 8
TimelineZoom: 2.6

[Metadata]
Title:SANTA SAN
TitleUnicode:サンタさん
Artist:MOMOIRO CLOVER Z
ArtistUnicode:ももいろクローバーZ
Creator:A r M i N
Version:SCHOOLBOY'S EXTRA ft. DJULUS
Source:
Tags:Armin A_r_M_i_N Reform Kujinn SMOKELIND schoolboy Komore Curi [Curi] [C_u_r_i] Reillia Iljaaz Djulus Stixy メリー クリスマス ココナッツ merry christmas coconuts momoclo takagi reni momota kanako ariyasu momoka tamai shiori sasaki ayaka xmas japanese jpop pop
BeatmapID:2227698
BeatmapSetID:1045600

[Difficulty]
HPDrainRate:6
CircleSize:4.5
OverallDifficulty:9
ApproachRate:9.3
SliderMultiplier:1.6
SliderTickRate:1

[Events]
//Background and Video events
0,0,"SANTA BG.jpg",0,0
//Break Periods
//Storyboard Layer 0 (Background)
//Storyboard Layer 1 (Fail)
//Storyboard Layer 2 (Pass)
//Storyboard Layer 3 (Foreground)
//Storyboard Layer 4 (Overlay)
//Storyboard Sound Samples

[TimingPoints]
476,315.789473684211,4,2,1,50,1,0
1739,-166.666666666667,4,2,1,50,0,0
15476,-166.666666666667,4,2,1,5,0,0
15554,-166.666666666667,4,2,1,50,0,0
16147,-166.666666666667,4,2,1,5,0,0
16226,-66.6666666666667,4,2,1,50,0,0
16383,-66.6666666666667,4,2,1,15,0,0
16818,-100,4,2,1,50,0,0
17054,-100,4,2,1,5,0,0
17133,-100,4,2,1,50,0,0
17370,-100,4,2,1,5,0,0
17449,-76.9230769230769,4,2,1,50,0,0
17765,-100,4,2,1,5,0,0
17844,-43.4782608695652,4,2,1,50,0,0
18160,-90.9090909090909,4,2,1,70,0,0
27949,-66.6666666666667,4,2,1,70,0,0
28186,-66.6666666666667,4,2,1,25,0,0
28265,-125,4,2,1,60,0,0
33002,-66.6666666666667,4,2,1,60,0,0
33318,-125,4,2,1,60,0,0
38370,-142.857142857143,4,2,1,50,0,0
47449,-142.857142857143,4,2,1,5,0,0
47528,-66.6666666666667,4,2,1,50,0,0
47765,-66.6666666666667,4,2,1,5,0,0
47844,-90.9090909090909,4,2,1,50,0,0
48081,-90.9090909090909,4,2,1,5,0,0
48160,-66.6666666666667,4,2,1,50,0,0
48397,-66.6666666666667,4,2,1,5,0,0
48476,-100,4,2,1,70,0,0
68410,-100,4,2,1,5,0,0
68686,-125,4,2,1,60,0,0
77528,-100,4,2,1,60,0,0
78791,-166.666666666667,4,2,1,50,0,0
79265,-166.666666666667,4,2,1,5,0,0
79423,-166.666666666667,4,2,1,50,0,0
81791,-166.666666666667,4,2,1,5,0,0
81949,-166.666666666667,4,2,1,50,0,0
82423,-166.666666666667,4,2,1,5,0,0
82581,-166.666666666667,4,2,1,50,0,0
83844,-166.666666666667,4,2,1,50,0,0
85107,-166.666666666667,4,2,1,50,0,0
87476,-166.666666666667,4,2,1,5,0,0
87633,-100,4,2,1,60,0,0
87870,-166.666666666667,4,2,1,5,0,0
87949,-76.9230769230769,4,2,1,60,0,0
88186,-100,4,2,1,5,0,0
88265,-66.6666666666667,4,2,1,60,0,0
88502,-50,4,2,1,5,0,0
88581,-50,4,2,1,60,0,0
88897,-90.9090909090909,4,2,1,75,0,1
109107,-90.9090909090909,4,2,1,70,0,0
114160,-90.9090909090909,4,2,1,75,0,1
119054,-83.3333333333333,4,2,1,70,0,1
119212,-125,4,2,1,70,0,0
119449,-125,4,2,1,5,0,0
119528,-125,4,2,1,70,0,0
120081,-125,4,2,1,5,0,0
120160,-125,4,2,1,70,0,0
120712,-125,4,2,1,5,0,0
120791,-125,4,2,1,70,0,0
121344,-125,4,2,1,5,0,0
121423,-125,4,2,1,70,0,0
121976,-125,4,2,1,5,0,0
122054,-125,4,2,1,70,0,0
122607,-125,4,2,1,5,0,0
122686,-90.9090909090909,4,2,1,70,0,0
122923,-90.9090909090909,4,2,1,5,0,0
123002,-90.9090909090909,4,2,1,70,0,0
124265,-90.9090909090909,4,2,1,75,0,1
129318,-166.666666666667,4,2,1,38,0,0
133502,-166.666666666667,4,2,1,5,0,0
133581,-100,4,2,1,50,0,0
134370,-100,4,2,1,60,0,0
137883,-100,4,2,1,5,0,0
138160,-100,4,2,1,60,0,0
142107,-100,4,2,1,15,0,0
142265,-76.9230769230769,4,2,1,60,0,0
142502,-76.9230769230769,4,2,1,5,0,0
142581,-76.9230769230769,4,2,1,60,0,0
142818,-76.9230769230769,4,2,1,5,0,0
142897,-100,4,2,1,60,0,0
143133,-100,4,2,1,5,0,0
143212,-100,4,2,1,60,0,0
146726,-100,4,2,1,5,0,0
146844,-100,4,2,1,60,0,0
150949,-100,4,2,1,15,0,0
151107,-66.6666666666667,4,2,1,60,0,0
151344,-66.6666666666667,4,2,1,5,0,0
151423,-66.6666666666667,4,2,1,60,0,0
151660,-66.6666666666667,4,2,1,5,0,0
151739,-83.3333333333333,4,2,1,60,0,0
151976,-83.3333333333333,4,2,1,5,0,0
152054,-111.111111111111,4,2,1,60,0,0
159633,-200,4,2,1,60,0,0
160818,-200,4,2,1,5,0,0
160897,-66.6666666666667,4,2,1,60,0,0
161133,-100,4,2,1,5,0,0
161212,-76.9230769230769,4,2,1,60,0,0
161449,-100,4,2,1,5,0,0
161528,-58.8235294117647,4,2,1,60,0,0
161765,-100,4,2,1,5,0,0
161844,-50,4,2,1,60,0,0
162160,-90.9090909090909,4,2,1,75,0,1
182370,-83.3333333333333,4,2,1,70,0,0
187423,-83.3333333333333,4,2,1,75,0,1
192476,-250,4,2,1,70,0,0
192712,-125,4,2,1,5,0,0
192791,-125,4,2,1,70,0,0
193344,-125,4,2,1,5,0,0
193423,-166.666666666667,4,2,1,70,0,0
193976,-125,4,2,1,5,0,0
194054,-125,4,2,1,70,0,0
194607,-125,4,2,1,5,0,0
194686,-125,4,2,1,70,0,0
195239,-125,4,2,1,5,0,0
195318,-142.857142857143,4,2,1,70,0,0
195870,-125,4,2,1,5,0,0
195949,-83.3333333333333,4,2,1,70,0,0
196186,-83.3333333333333,4,2,1,5,0,0
196265,-83.3333333333333,4,2,1,70,0,0
197528,-83.3333333333333,4,2,1,75,0,1
202581,-250,4,2,1,60,0,0
203528,-133.333333333333,4,2,1,70,0,0
203844,-90.9090909090909,4,2,1,70,0,0
217423,-71.4285714285714,4,2,1,70,0,0
217739,-90.9090909090909,4,2,1,70,0,0
222791,-76.9230769230769,4,2,1,70,0,0
223423,-66.6666666666667,4,2,1,70,0,0
224054,-166.666666666667,4,2,1,60,0,0
228160,-166.666666666667,4,2,69,60,0,0
228239,-166.666666666667,4,2,1,60,0,0
233212,-166.666666666667,4,2,69,60,0,0
233291,-166.666666666667,4,2,1,60,0,0
234160,-100,4,2,1,60,0,0
234397,-100,4,2,1,5,0,0
234476,-100,4,2,1,60,0,0
234712,-100,4,2,1,5,0,0
234791,-100,4,2,1,60,0,0
235028,-100,4,2,1,5,0,0
235107,-66.6666666666667,4,2,1,60,0,0
235423,-90.9090909090909,4,2,1,75,0,1
255002,-71.4285714285714,4,2,1,75,0,1
255633,-125,4,2,1,60,0,0
260686,-90.9090909090909,4,2,1,75,0,1
265976,-125,4,2,1,5,0,0
266054,-125,4,2,1,70,0,0
266607,-125,4,2,1,5,0,0
266686,-125,4,2,1,70,0,0
267239,-125,4,2,1,5,0,0
267318,-125,4,2,1,70,0,0
267870,-125,4,2,1,5,0,0
267949,-125,4,2,1,70,0,0
268502,-125,4,2,1,5,0,0
268581,-125,4,2,1,70,0,0
269133,-125,4,2,1,5,0,0
269212,-83.3333333333333,4,2,1,70,0,0
269844,-90.9090909090909,4,2,1,70,0,0
270791,-90.9090909090909,4,2,1,75,0,1
275844,-166.666666666667,4,2,1,44,0,0
278370,-66.6666666666667,4,2,1,75,0,1
279633,-52.6315789473684,4,2,1,75,0,0
279870,-52.6315789473684,4,2,1,5,0,0
279949,-66.6666666666667,4,2,1,75,0,0
280186,-66.6666666666667,4,2,1,5,0,0
280265,-52.6315789473684,4,2,1,75,0,0
280502,-52.6315789473684,4,2,1,5,0,0
280581,-133.333333333333,4,2,1,30,0,0
281331,-25,4,2,1,30,0,0

[Colours]
Combo1 : 98,179,91
Combo2 : 255,121,57
Combo3 : 199,71,94

[HitObjects]
153,315,1739,6,0,P|198:324|239:301,1,95.9999970703126,2|2,0:0|0:0,0:0:0:0:
440,248,2370,2,0,P|393:238|346:228,1,95.9999970703126,2|0,0:0|0:0,0:0:0:0:
242,64,3002,2,0,L|257:158,1,95.9999970703126,2|2,0:0|0:0,0:0:0:0:
106,372,3633,2,0,P|96:325|116:283,1,95.9999970703126,2|0,0:0|0:0,0:0:0:0:
116,283,4265,6,0,P|93:291|69:294,1,47.9999985351563,2|0,0:0|0:0,0:0:0:0:
194,221,4581,2,0,P|235:228|258:237,1,47.9999985351563,2|0,0:0|0:0,0:0:0:0:
121,160,4897,2,0,P|103:117|111:70,1,95.9999970703126,2|0,0:0|0:0,0:0:0:0:
177,7,5370,1,2,0:0:0:0:
194,221,5528,6,0,B|97:193|112:267|8:244,1,191.999994140625,2|0,0:0|0:0,0:0:0:0:
205,36,6791,6,0,P|212:58|212:82,1,47.9999985351563,2|0,0:0|0:0,0:0:0:0:
282,173,7107,2,0,P|286:134|296:115,1,47.9999985351563,2|0,0:0|0:0,0:0:0:0:
365,75,7423,2,0,L|463:94,1,95.9999970703126,2|0,0:0|0:0,0:0:0:0:
431,3,7897,1,2,0:0:0:0:
399,163,8054,6,0,L|405:213,1,47.9999985351563,2|0,0:0|0:0,0:0:0:0:
487,284,8370,2,0,P|488:258|499:228,1,47.9999985351563,2|0,0:0|0:0,0:0:0:0:
327,346,8686,2,0,P|326:320|315:290,1,47.9999985351563,2|0,0:0|0:0,0:0:0:0:
428,375,9002,1,2,0:0:0:0:
428,375,9160,1,2,0:0:0:0:
235,333,9318,6,0,P|188:334|141:344,1,95.9999970703126,2|2,0:0|0:0,0:0:0:0:
418,207,9949,2,0,P|465:213|512:221,1,95.9999970703126,2|2,0:0|0:0,0:0:0:0:
267,85,10581,5,2,0:0:0:0:
256,192,10660,12,2,11844,0:0:0:0:
256,192,11923,12,2,13107,0:0:0:0:
256,192,13186,12,2,14370,0:0:0:0:
256,192,14449,12,0,15476,0:0:0:0:
19,343,15633,6,0,B|58:323|58:281|58:281|83:316|127:307,1,155.999995239258,2|0,0:0|0:0,0:0:0:0:
184,252,16226,6,0,P|175:311|166:370,1,120.000004577637,2|0,0:0|0:0,0:0:0:0:
512,191,16818,6,0,P|486:148|413:163,1,120,2|0,0:0|0:0,0:0:0:0:
339,121,17133,6,0,P|313:67|317:8,1,120,2|0,0:0|0:0,0:0:0:0:
272,181,17449,6,0,B|162:151|183:243|73:214,1,207.999990478516,2|0,0:0|0:0,0:0:0:0:
6,129,17844,6,0,B|45:96|86:110|114:138|112:178|112:178|80:329,1,276.000005264282,6|0,0:0|0:0,0:0:0:0:
12,355,18160,6,0,P|5:311|-1:265,1,88.000002685547,6|2,1:2|0:0,0:0:0:0:
232,355,18476,2,0,P|185:376|142:348,1,88.000002685547,10|2,0:2|0:0,0:0:0:0:
148,358,18712,1,2,0:0:0:0:
142,353,18791,1,2,1:2:0:0:
302,265,18949,1,2,0:0:0:0:
203,122,19107,2,0,P|198:165|194:215,1,88.000002685547,10|0,0:2|0:0,0:0:0:0:
417,384,19423,6,0,P|427:337|404:295,1,88.000002685547,2|0,1:2|0:0,0:0:0:0:
294,143,19739,1,10,0:2:0:0:
383,210,19897,1,2,0:0:0:0:
388,214,19976,1,2,0:0:0:0:
393,218,20054,2,0,L|480:206,1,88.000002685547,2|0,1:2|0:0,0:0:0:0:
203,122,20370,1,8,0:2:0:0:
319,295,20528,1,0,0:0:0:0:
350,28,20686,6,0,P|374:63|370:106,1,88.000002685547,6|0,1:2|0:0,0:0:0:0:
219,303,21002,2,0,L|232:188,1,88.000002685547,10|2,0:2|0:0,0:0:0:0:
170,155,21239,1,2,0:0:0:0:
163,151,21318,2,0,P|121:137|65:172,1,88.000002685547,2|0,1:2|0:0,0:0:0:0:
329,260,21633,2,0,L|440:251,1,88.000002685547,10|0,0:2|0:0,0:0:0:0:
140,371,21949,6,0,P|122:332|136:280,1,88.000002685547,6|2,1:2|0:0,0:0:0:0:
264,100,22265,1,10,0:2:0:0:
218,240,22423,1,2,0:0:0:0:
124,75,22581,1,6,1:2:0:0:
362,181,22739,1,10,0:2:0:0:
130,289,22897,2,0,L|32:281,1,88.000002685547,10|2,0:2|0:0,0:0:0:0:
252,12,23212,6,0,L|265:108,1,88.000002685547,6|0,1:2|0:0,0:0:0:0:
407,268,23528,2,0,P|423:227|405:180,1,88.000002685547,10|2,0:2|0:0,0:0:0:0:
404,182,23765,1,2,0:0:0:0:
398,178,23844,1,2,1:2:0:0:
249,288,24002,1,0,0:0:0:0:
421,365,24160,2,0,L|508:355,1,88.000002685547,10|0,0:2|0:0,0:0:0:0:
118,238,24476,6,0,L|30:247,1,88.000002685547,6|0,1:2|0:0,0:0:0:0:
180,38,24791,2,0,P|200:71|196:119,1,88.000002685547,10|2,0:2|0:0,0:0:0:0:
324,358,25028,1,2,0:0:0:0:
313,352,25107,2,0,P|292:318|296:270,1,88.000002685547,2|0,1:2|0:0,0:0:0:0:
386,193,25423,2,0,L|478:202,1,88.000002685547,10|0,0:2|0:0,0:0:0:0:
292,54,25739,5,6,1:2:0:0:
104,201,25897,1,0,0:0:0:0:
248,301,26054,2,0,L|237:207,1,88.000002685547,10|0,0:2|0:0,0:0:0:0:
166,120,26370,1,6,1:2:0:0:
387,207,26528,1,0,0:0:0:0:
146,327,26686,2,0,P|103:338|55:309,1,88.000002685547,10|0,0:2|0:0,0:0:0:0:
481,177,27002,5,14,0:2:0:0:
114,228,27318,1,8,0:2:0:0:
326,376,27633,1,12,0:2:0:0:
326,376,27949,2,0,B|316:324|346:267|386:263|386:263|368:278|363:302,1,180.000006866455,4|0,0:2|0:0,0:0:0:0:
364,294,28265,6,0,P|306:259|244:282,1,128,6|8,1:2|0:2,0:0:0:0:
114,227,28739,2,0,L|128:299,1,64,2|2,1:2|0:0,0:0:0:0:
208,150,29054,2,0,L|194:222,1,64,2|8,1:2|0:2,0:0:0:0:
111,17,29370,6,0,L|129:143,1,128,2|2,0:0|0:0,0:0:0:0:
258,79,29844,2,0,P|215:68|189:68,1,64,10|2,0:2|1:2,0:0:0:0:
66,155,30160,2,0,P|109:144|135:144,1,64,2|0,0:0|1:2,0:0:0:0:
189,209,30476,1,10,0:2:0:0:
189,209,30791,6,0,L|173:336,1,128,2|10,1:2|0:2,0:0:0:0:
98,247,31265,1,0,1:2:0:0:
264,305,31423,2,0,B|327:317|333:286|390:296,1,128,2|10,0:0|0:2,0:0:0:0:
483,239,31897,6,0,P|417:252|382:189,1,128,2|2,0:0|0:0,0:0:0:0:
436,137,32370,2,0,L|509:124,1,64,10|0,0:2|1:2,0:0:0:0:
302,228,32686,2,0,L|200:213,1,96,2|0,0:0|0:0,0:0:0:0:
139,167,33002,6,2,P|139:128|206:142,1,120.000004577637,10|2,0:2|1:2,0:0:0:0:
207,214,33318,6,0,L|80:231,1,128,6|8,1:2|0:2,0:0:0:0:
0,138,33791,2,0,P|43:144|75:157,1,64,2|2,1:2|0:0,0:0:0:0:
172,60,34107,2,0,P|142:72|110:74,1,64,2|8,1:2|0:2,0:0:0:0:
239,141,34423,6,0,P|305:103|360:128,1,128,2|2,1:2|0:0,0:0:0:0:
427,76,34897,2,0,L|441:8,1,64,10|2,0:2|1:2,0:0:0:0:
512,183,35212,2,0,P|510:156|498:115,1,64,2|2,0:0|1:2,0:0:0:0:
381,232,35528,1,10,0:2:0:0:
503,305,35686,1,0,1:2:0:0:
381,232,35844,6,0,P|334:232|295:258,1,96,2|0,1:2|0:0,0:0:0:0:
280,246,36160,2,0,P|281:215|286:183,1,64,10|0,0:2|0:0,0:0:0:0:
194,37,36476,2,0,L|204:142,1,96,2|0,1:2|0:0,0:0:0:0:
142,188,36791,2,0,P|111:188|82:175,1,64,10|2,0:2|0:0,0:0:0:0:
311,77,37107,5,8,0:2:0:0:
189,296,37265,1,2,1:2:0:0:
366,198,37423,1,10,0:2:0:0:
126,102,37581,1,0,1:2:0:0:
291,293,37739,1,10,0:2:0:0:
389,48,37897,1,0,1:2:0:0:
227,127,38054,1,12,0:2:0:0:
366,198,38212,1,0,1:2:0:0:
257,0,38370,5,4,1:2:0:0:
257,0,38528,2,0,L|265:57,2,55.9999982910157,2|2|2,0:0|0:0|0:0,0:0:0:0:
356,117,39002,2,0,P|357:90|364:60,1,55.9999982910157,2|2,0:0|0:0,0:0:0:0:
207,197,39318,2,0,P|206:170|199:140,1,55.9999982910157,2|2,0:0|0:0,0:0:0:0:
119,94,39633,6,0,L|51:104,2,55.9999982910157,2|2|2,0:0|1:2|0:0,0:0:0:0:
186,35,40107,1,2,0:0:0:0:
266,106,40265,1,2,0:0:0:0:
344,15,40423,1,2,1:2:0:0:
405,87,40581,2,0,P|414:113|415:140,1,55.9999982910157,2|2,0:0|0:0,0:0:0:0:
352,240,40897,5,0,1:2:0:0:
428,281,41054,2,0,P|486:278|498:279,2,55.9999982910157,2|2|2,0:0|0:0|0:0,0:0:0:0:
300,313,41528,1,2,0:0:0:0:
346,184,41686,2,0,L|353:253,2,55.9999982910157,2|2|2,0:0|0:0|0:0,0:0:0:0:
421,123,42160,6,0,P|457:136|487:135,1,55.9999982910157,2|2,0:0|1:2,0:0:0:0:
305,73,42476,2,0,L|247:81,1,55.9999982910157,2|0,0:0|0:0,0:0:0:0:
397,1,42791,1,2,1:2:0:0:
346,184,42949,1,0,0:0:0:0:
346,184,43107,2,0,B|300:160|300:160|226:170,1,111.999996582031,0|0,0:0|0:0,0:0:0:0:
155,124,43581,6,0,L|143:64,1,55.9999982910157,2|2,1:2|0:0,0:0:0:0:
38,199,43897,2,0,L|50:139,1,55.9999982910157,2|2,0:0|0:0,0:0:0:0:
135,219,44212,1,2,0:0:0:0:
48,292,44370,1,2,0:0:0:0:
144,211,44528,1,2,0:0:0:0:
211,348,44686,6,0,P|239:348|265:337,1,55.9999982910157,2|2,0:0|1:2,0:0:0:0:
435,282,45002,2,0,P|409:274|381:269,1,55.9999982910157,2|2,0:0|0:0,0:0:0:0:
270,172,45318,1,2,0:0:0:0:
299,260,45476,1,2,1:2:0:0:
362,136,45633,1,2,0:0:0:0:
182,222,45791,1,2,0:0:0:0:
361,362,45949,5,2,1:2:0:0:
427,311,46107,2,0,P|430:277|438:231,1,55.9999982910157,2|0,0:0|0:0,0:0:0:0:
283,179,46423,5,2,0:0:0:0:
217,127,46581,2,0,P|214:72|208:16,1,111.999996582031,2|0,1:2|0:0,0:0:0:0:
37,224,47054,5,2,0:0:0:0:
99,289,47212,2,0,P|132:285|179:323,1,83.9999974365235,2|2,1:2|0:0,0:0:0:0:
247,261,47528,6,0,B|271:227|282:177|249:132|188:148|195:190,1,180.000006866455,2|0,1:2|0:0,0:0:0:0:
317,317,47844,6,0,B|385:325|385:288|444:296,1,132.00000402832,2|0,1:2|0:0,0:0:0:0:
512,239,48160,6,0,P|489:163|428:220,1,180.000006866455,4|0,0:2|0:0,0:0:0:0:
445,296,48476,6,0,P|435:329|432:375,1,80,6|0,1:2|0:0,0:0:0:0:
291,144,48791,2,0,P|301:111|304:65,1,80,10|2,0:2|1:2,0:0:0:0:
236,10,49028,1,2,0:0:0:0:
241,22,49107,1,2,0:0:0:0:
410,115,49265,1,0,1:2:0:0:
206,200,49423,2,0,P|171:186|130:195,1,80,8|0,0:2|0:0,0:0:0:0:
343,336,49739,6,0,P|381:345|418:331,1,80,6|0,1:2|0:0,0:0:0:0:
390,93,50054,2,0,L|379:181,1,80,10|2,0:2|1:2,0:0:0:0:
384,179,50291,1,2,0:0:0:0:
388,185,50370,1,2,0:0:0:0:
470,41,50528,1,0,1:2:0:0:
281,142,50686,1,8,0:2:0:0:
473,232,50844,1,0,0:0:0:0:
281,142,51002,6,0,P|239:108|162:145,1,120,6|0,1:2|0:0,0:0:0:0:
102,87,51318,2,0,P|81:53|79:13,1,80,10|2,0:2|1:2,0:0:0:0:
0,197,51554,1,2,0:0:0:0:
10,205,51633,2,0,L|94:191,1,80,2|0,0:0|1:2,0:0:0:0:
262,295,51949,2,0,P|226:309|183:297,1,80,10|0,0:2|0:0,0:0:0:0:
96,112,52265,5,6,1:2:0:0:
96,112,52581,2,0,L|87:201,1,80,10|0,0:2|1:2,0:0:0:0:
214,339,52897,2,0,P|215:300|198:264,1,80,2|0,0:0|1:2,0:0:0:0:
296,181,53212,2,0,P|336:188|379:196,1,80,10|0,0:2|0:0,0:0:0:0:
474,108,53528,5,2,1:2:0:0:
482,303,53686,2,0,P|497:266|499:226,1,80,2|8,0:0|0:2,0:0:0:0:
355,95,54002,2,0,L|368:185,1,80,2|0,1:2|0:0,0:0:0:0:
431,27,54318,1,2,1:2:0:0:
275,145,54476,2,0,L|259:235,1,80,10|0,0:2|0:0,0:0:0:0:
419,368,54791,6,0,P|380:315|289:328,1,160,2|10,1:2|0:2,0:0:0:0:
98,231,55265,2,0,B|121:339|121:339|149:344|164:322,1,160,2|0,1:2|1:2,0:0:0:0:
276,235,55739,2,0,L|193:223,1,80,10|0,0:2|0:0,0:0:0:0:
0,145,56054,6,0,P|43:150|102:116,1,80,2|0,1:2|0:0,0:0:0:0:
200,8,56370,2,0,L|189:87,1,80,10|0,0:2|1:2,0:0:0:0:
264,314,56686,2,0,L|275:235,1,80,2|0,0:0|1:2,0:0:0:0:
352,181,57002,2,0,L|447:169,1,80,10|0,0:2|0:0,0:0:0:0:
179,266,57318,5,6,1:2:0:0:
159,263,57396,1,2,0:0:0:0:
139,261,57475,1,2,0:0:0:0:
119,258,57554,1,2,0:0:0:0:
99,256,57633,2,0,P|83:221|86:167,1,80,6|2,1:2|0:0,0:0:0:0:
160,109,57949,1,6,1:2:0:0:
109,346,58107,1,2,0:0:0:0:
107,353,58186,1,2,0:0:0:0:
105,360,58265,2,0,P|66:364|26:369,1,80,14|0,0:2|0:0,0:0:0:0:
255,247,58581,6,0,L|341:262,1,80,6|0,1:2|0:0,0:0:0:0:
512,165,58897,2,0,P|458:148|413:172,1,80,10|2,0:2|1:2,0:0:0:0:
431,157,59133,1,2,0:0:0:0:
424,161,59212,1,2,0:2:0:0:
257,111,59370,1,0,1:2:0:0:
353,0,59528,2,0,L|362:84,1,80,8|0,0:2|0:0,0:0:0:0:
201,271,59844,6,0,P|185:238|199:180,1,80,2|0,1:2|0:0,0:0:0:0:
416,326,60160,2,0,L|328:318,1,80,10|2,0:2|1:2,0:0:0:0:
271,369,60397,1,2,0:0:0:0:
276,381,60476,1,2,0:0:0:0:
72,242,60633,1,0,1:2:0:0:
282,156,60791,1,8,0:2:0:0:
160,355,60949,1,0,0:0:0:0:
175,76,61107,6,0,L|192:222,1,120,2|0,1:2|0:0,0:0:0:0:
122,245,61423,2,0,P|80:252|31:220,1,80,10|2,0:2|1:2,0:0:0:0:
282,156,61660,1,2,0:0:0:0:
291,150,61739,2,0,L|392:167,1,80,2|0,0:0|1:2,0:0:0:0:
147,64,62054,2,0,L|68:77,1,80,10|0,0:2|0:0,0:0:0:0:
261,3,62370,5,2,1:2:0:0:
286,377,62686,2,0,L|301:286,1,80,10|0,0:2|1:2,0:0:0:0:
173,197,63002,2,0,L|179:248,3,40,2|2|2|2,0:0|0:0|1:2|0:0,0:0:0:0:
117,294,63318,2,0,P|78:307|35:282,1,80,10|0,0:2|0:0,0:0:0:0:
372,197,63633,6,0,L|461:184,1,80,2|2,1:2|0:0,0:0:0:0:
270,124,63949,1,8,0:2:0:0:
382,285,64107,2,0,L|471:272,1,80,2|0,1:2|0:0,0:0:0:0:
182,156,64423,1,2,1:2:0:0:
259,382,64581,2,0,P|272:333|267:289,1,80,10|0,0:2|0:0,0:0:0:0:
27,229,64897,6,0,B|109:210|103:263|182:250,1,160,2|8,1:2|0:2,0:0:0:0:
300,142,65370,2,0,P|260:87|223:164,1,160,2|0,1:2|1:2,0:0:0:0:
338,235,65844,2,0,L|451:218,1,80,10|0,0:2|0:0,0:0:0:0:
511,67,66160,6,0,L|496:158,1,80,2|0,1:2|0:0,0:0:0:0:
490,364,66476,2,0,P|507:315|504:268,1,80,10|0,0:2|1:2,0:0:0:0:
348,121,66791,1,2,0:0:0:0:
391,316,66949,1,0,1:2:0:0:
352,108,67107,1,10,0:2:0:0:
321,355,67265,1,0,0:0:0:0:
279,57,67423,5,6,1:2:0:0:
14,370,67739,5,4,1:2:0:0:
446,212,68054,5,4,1:2:0:0:
163,11,68370,6,0,L|168:42,1,20,8|0,0:2|0:0,0:0:0:0:
166,30,68686,6,0,L|237:18,1,64,6|2,1:2|0:0,0:0:0:0:
95,89,69002,1,10,0:2:0:0:
205,157,69160,1,2,1:2:0:0:
125,206,69318,2,0,P|59:216|9:165,1,128,2|10,1:2|0:2,0:0:0:0:
205,263,69791,1,2,0:0:0:0:
104,355,69949,5,0,1:2:0:0:
125,206,70107,1,2,1:2:0:0:
0,288,70265,2,0,P|31:283|63:278,1,64,10|0,0:2|1:2,0:0:0:0:
234,379,70581,2,0,P|185:350|107:362,1,128,2|8,1:2|0:2,0:0:0:0:
290,303,71054,1,0,0:0:0:0:
352,371,71212,6,0,B|417:376|416:350|478:355,1,128,2|10,1:2|0:2,0:0:0:0:
384,257,71686,1,2,1:2:0:0:
454,203,71844,2,0,L|466:136,1,64,2|2,1:2|0:0,0:0:0:0:
336,17,72160,1,10,0:2:0:0:
288,90,72318,6,0,P|347:108|408:63,1,128,2|0,0:0|1:2,0:0:0:0:
498,169,72791,1,10,0:2:0:0:
417,216,72949,1,0,1:2:0:0:
489,82,73107,1,2,1:2:0:0:
487,287,73265,5,8,0:2:0:0:
375,53,73423,1,8,0:2:0:0:
375,53,73739,6,0,P|325:15|244:33,1,128,2|10,1:2|0:2,0:0:0:0:
106,110,74212,1,2,1:2:0:0:
196,146,74370,2,0,L|181:18,1,128,2|8,1:2|0:2,0:0:0:0:
44,97,74844,6,0,P|73:108|115:108,1,64,2|0,0:0|1:2,0:0:0:0:
270,231,75160,2,0,P|238:232|208:243,1,64,2|8,1:2|0:2,0:0:0:0:
137,307,75476,1,2,1:2:0:0:
25,216,75633,2,0,L|45:342,1,128,2|10,1:2|0:2,0:0:0:0:
356,376,76265,5,2,1:2:0:0:
380,287,76423,1,2,0:0:0:0:
268,354,76581,1,10,0:2:0:0:
292,265,76739,1,2,1:2:0:0:
439,350,76897,2,0,P|511:340|526:338,1,64,2|0,1:2|0:0,0:0:0:0:
204,288,77212,2,0,P|132:298|117:300,1,64,10|0,0:2|0:0,0:0:0:0:
394,83,77528,5,2,1:2:0:0:
342,286,77686,1,2,0:0:0:0:
398,75,77844,2,0,P|418:108|414:147,1,80,2|2,1:2|0:0,0:0:0:0:
257,232,78160,2,0,B|186:217|178:266|101:250,1,160,2|10,1:2|0:2,0:0:0:0:
101,250,78791,6,0,P|120:186|188:184,1,143.999995605469,6|0,0:0|0:0,0:0:0:0:
258,147,79423,2,0,P|275:108|272:54,1,95.9999970703126,2|0,0:0|0:0,0:0:0:0:
212,8,79897,1,2,0:0:0:0:
273,56,80054,6,0,B|367:75|375:14|459:32,1,191.999994140625,2|0,0:0|0:0,0:0:0:0:
261,179,81002,1,2,0:0:0:0:
381,323,81318,6,0,P|406:258|380:192,1,143.999995605469,2|0,0:0|0:0,0:0:0:0:
417,121,81949,2,0,B|376:127|355:157|355:157|324:136|267:148,1,143.999995605469,2|0,0:0|0:0,0:0:0:0:
220,186,82581,6,0,B|161:188|110:213|110:213|63:200|61:154,1,191.999994140625,2|0,0:0|0:0,0:0:0:0:
226,22,83528,1,2,0:0:0:0:
214,334,83844,6,0,P|156:274|43:276,1,191.999994140625,2|0,0:0|0:0,0:0:0:0:
292,188,84791,1,2,0:0:0:0:
194,60,85107,6,0,B|178:130|178:130|192:176|192:176|172:253,1,191.999994140625,2|0,0:0|0:0,0:0:0:0:
328,384,86054,1,2,0:0:0:0:
328,384,86370,6,0,B|365:337|319:270|266:273|172:270|233:407|88:373,1,335.999989746094,2|0,0:0|0:0,0:0:0:0:
10,359,87633,6,0,P|7:304|61:292,1,120,2|0,1:2|0:0,0:0:0:0:
130,229,87949,6,0,B|154:121|154:121|139:143|103:154,1,155.999992858887,2|0,1:2|0:0,0:0:0:0:
78,62,88265,6,0,P|152:87|186:3,1,180.000006866455,2|0,1:2|0:0,0:0:0:0:
270,114,88581,6,0,B|332:48|438:83|438:83|393:92|381:167,1,240,14|0,0:2|0:0,0:0:0:0:
437,341,88897,6,0,P|451:255|466:168,1,176.000005371094,6|10,1:2|0:2,0:0:0:0:
218,282,89370,2,0,P|271:302|306:332,1,88.000002685547,2|0,0:2|1:2,0:0:0:0:
279,135,89686,2,0,P|235:170|191:186,1,88.000002685547,2|8,0:2|0:2,0:0:0:0:
371,260,90002,2,0,P|361:204|370:158,1,88.000002685547,2|0,0:2|1:2,0:0:0:0:
459,25,90318,5,2,0:2:0:0:
279,135,90476,1,8,0:2:0:0:
476,216,90633,1,2,0:2:0:0:
343,354,90791,2,0,L|357:242,1,88.000002685547,6|0,1:2|0:0,0:0:0:0:
169,110,91107,2,0,L|183:222,1,88.000002685547,14|0,0:2|0:0,0:0:0:0:
103,325,91344,1,2,0:0:0:0:
98,312,91423,6,0,P|157:250|242:259,1,176.000005371094,6|10,1:2|0:2,0:0:0:0:
435,129,91897,2,0,P|391:142|340:121,1,88.000002685547,2|0,0:2|1:2,0:0:0:0:
202,13,92212,2,0,L|216:101,1,88.000002685547,2|8,0:2|0:2,0:0:0:0:
98,301,92528,2,0,P|80:261|90:219,1,88.000002685547,2|0,0:2|1:2,0:0:0:0:
353,373,92844,5,2,0:2:0:0:
179,269,93002,1,8,0:2:0:0:
406,168,93160,1,2,0:2:0:0:
336,257,93318,2,0,P|295:244|251:242,1,88.000002685547,6|0,1:2|0:0,0:0:0:0:
34,161,93633,2,0,P|77:165|115:144,1,88.000002685547,14|0,0:2|0:0,0:0:0:0:
186,34,93870,1,2,0:0:0:0:
177,24,93949,6,0,L|200:210,1,176.000005371094,6|10,1:2|0:2,0:0:0:0:
384,130,94423,2,0,P|306:114|276:116,1,88.000002685547,2|0,0:2|1:2,0:0:0:0:
72,289,94739,2,0,P|150:273|180:275,1,88.000002685547,2|8,0:2|0:2,0:0:0:0:
365,372,95054,6,0,B|327:340|276:352|276:352|250:385|202:381,1,176.000005371094,6|0,0:2|0:0,0:0:0:0:
45,235,95528,2,0,L|64:329,1,88.000002685547,10|0,0:2|0:0,0:0:0:0:
197,156,95844,1,2,1:2:0:0:
157,273,96002,1,0,0:0:0:0:
63,103,96160,1,10,0:2:0:0:
250,273,96318,1,0,0:0:0:0:
0,218,96476,6,0,B|46:203|85:234|85:234|113:192|162:193,1,176.000005371094,6|10,1:2|0:2,0:0:0:0:
363,96,96949,2,0,B|257:61|257:61|220:81|225:121,1,176.000005371094,2|2,0:2|0:2,0:0:0:0:
282,329,97423,2,0,P|296:288|296:244,1,88.000002685547,8|2,0:2|0:2,0:0:0:0:
120,102,97739,5,2,1:2:0:0:
154,308,97897,1,0,0:0:0:0:
117,91,98054,1,10,0:2:0:0:
157,319,98212,1,0,0:0:0:0:
229,57,98370,5,2,1:2:0:0:
9,213,98528,1,0,0:0:0:0:
249,304,98686,2,0,P|295:299|336:295,1,88.000002685547,10|0,0:2|0:0,0:0:0:0:
409,337,98923,1,2,0:0:0:0:
419,345,99002,6,0,P|449:264|441:177,1,176.000005371094,6|10,1:2|0:2,0:0:0:0:
363,14,99476,2,0,L|353:101,1,88.000002685547,2|0,0:2|1:2,0:0:0:0:
161,235,99791,2,0,P|147:196|160:151,1,88.000002685547,2|8,0:2|0:2,0:0:0:0:
380,333,100107,2,0,P|346:312|299:314,1,88.000002685547,6|0,0:2|1:2,0:0:0:0:
124,370,100423,5,2,0:2:0:0:
288,196,100581,1,8,0:2:0:0:
50,268,100739,1,2,0:2:0:0:
227,361,100897,1,0,1:2:0:0:
50,268,101054,1,0,0:0:0:0:
227,361,101212,1,8,0:2:0:0:
124,110,101370,2,0,L|134:164,1,44.0000013427735,2|2,0:0|0:0,0:0:0:0:
151,236,101528,6,0,P|92:246|17:163,1,176.000005371094,6|10,1:2|0:2,0:0:0:0:
230,332,102002,2,0,L|358:319,1,88.000002685547,2|0,0:2|1:2,0:0:0:0:
480,188,102318,2,0,L|452:305,1,88.000002685547,2|8,0:2|0:2,0:0:0:0:
263,100,102633,2,0,L|291:217,1,88.000002685547,6|0,0:2|1:2,0:0:0:0:
405,20,102949,5,2,0:2:0:0:
382,142,103107,1,8,0:2:0:0:
483,45,103265,1,2,0:2:0:0:
305,114,103423,1,0,1:2:0:0:
483,45,103581,1,0,0:0:0:0:
226,146,103739,1,8,0:2:0:0:
483,45,103897,2,0,L|433:35,1,44.0000013427735,2|2,0:0|0:0,0:0:0:0:
356,16,104054,6,0,B|407:54|407:54|382:188,1,176.000005371094,6|10,1:2|0:2,0:0:0:0:
466,369,104528,2,0,L|451:261,1,88.000002685547,2|0,0:2|1:2,0:0:0:0:
236,365,104844,2,0,P|277:377|318:364,1,88.000002685547,2|8,0:2|0:2,0:0:0:0:
311,153,105160,2,0,P|269:139|228:152,1,88.000002685547,6|0,0:2|1:2,0:0:0:0:
402,259,105476,2,0,L|504:242,1,88.000002685547,2|8,0:2|0:2,0:0:0:0:
142,299,105791,1,2,0:2:0:0:
142,299,105949,2,0,L|40:316,1,88.000002685547,2|0,1:2|0:0,0:0:0:0:
245,61,106265,2,0,B|262:74|262:74|245:209,1,132.00000402832,10|0,0:2|0:0,0:0:0:0:
235,264,106581,5,6,1:2:0:0:
232,285,106659,1,2,0:2:0:0:
229,307,106739,1,2,0:2:0:0:
226,329,106817,1,2,0:2:0:0:
225,350,106897,2,0,L|284:337,2,44.0000013427735,10|2|2,0:2|0:2|0:2,0:0:0:0:
113,276,107212,5,2,1:2:0:0:
402,222,107370,1,2,0:2:0:0:
136,134,107528,1,10,0:2:0:0:
357,341,107686,1,2,0:2:0:0:
274,57,107844,6,0,L|268:113,1,44.0000013427735,2|2,1:2|0:2,0:0:0:0:
256,193,108002,1,10,0:2:0:0:
171,6,108160,1,2,1:2:0:0:
171,6,108239,1,2,0:2:0:0:
171,6,108318,1,2,0:2:0:0:
378,120,108476,5,10,0:2:0:0:
134,204,108633,1,10,0:2:0:0:
436,173,108791,1,2,1:2:0:0:
93,70,108949,1,10,0:2:0:0:
243,356,109107,5,14,0:2:0:0:
243,356,110212,5,14,0:2:0:0:
243,356,111002,2,0,L|256:268,1,88.000002685547,14|0,0:2|0:0,0:0:0:0:
143,123,111318,2,0,L|156:210,1,88.000002685547,14|0,0:2|1:2,0:0:0:0:
91,260,111554,1,0,1:2:0:0:
76,257,111633,5,6,1:2:0:0:
76,257,112739,5,14,0:2:0:0:
475,164,113528,2,0,P|434:147|390:150,1,88.000002685547,14|0,0:0|0:0,0:0:0:0:
221,95,113844,2,0,P|262:106|303:91,1,88.000002685547,12|0,0:0|1:0,0:0:0:0:
360,33,114081,1,2,1:2:0:0:
353,16,114160,6,0,L|332:197,1,176.000005371094,6|10,1:2|0:2,0:0:0:0:
431,382,114633,2,0,P|446:334|425:280,1,88.000002685547,2|0,0:2|1:2,0:0:0:0:
223,207,114949,2,0,L|237:316,1,88.000002685547,2|8,0:0|0:2,0:0:0:0:
482,187,115265,6,0,B|435:174|401:202|401:202|373:162|316:168,1,176.000005371094,6|0,0:0|0:0,0:0:0:0:
138,92,115739,2,0,P|186:101|223:86,1,88.000002685547,10|0,0:2|0:0,0:0:0:0:
178,309,116054,2,0,P|163:264|171:218,1,88.000002685547,2|0,1:2|0:0,0:0:0:0:
381,32,116370,2,0,P|396:77|388:123,1,88.000002685547,8|0,0:0|0:0,0:0:0:0:
501,330,116686,6,0,P|414:339|330:364,1,176.000005371094,6|10,1:2|0:2,0:0:0:0:
116,223,117160,2,0,B|165:202|165:202|200:211|237:265|195:315,1,176.000005371094,2|2,0:0|0:0,0:0:0:0:
9,370,117633,2,0,P|43:344|87:341,1,88.000002685547,8|2,0:2|0:0,0:0:0:0:
334,243,117949,5,2,1:2:0:0:
121,151,118107,1,2,0:0:0:0:
344,248,118265,1,10,0:2:0:0:
111,146,118423,1,2,0:0:0:0:
262,29,118581,6,0,L|274:118,1,88.000002685547,2|2,1:2|0:0,0:0:0:0:
188,292,118897,1,8,0:2:0:0:
473,195,119054,6,0,B|500:166|482:114|410:109|346:167|386:266,1,239.999992675781,10|0,0:2|0:0,0:0:0:0:
435,311,119528,6,0,P|333:283|264:363,1,224,12|0,0:2|0:0,0:0:0:0:
188,315,120160,6,0,B|172:206|172:206|173:201|173:201|158:88,1,224,12|0,0:0|0:0,0:0:0:0:
205,32,120791,6,0,B|220:53|240:61|240:61|212:111|126:123|90:81|73:53,1,224,12|0,0:0|0:0,0:0:0:0:
32,14,121423,6,0,B|92:54|110:139|32:177|-8:141|3:104,1,224,12|0,0:0|0:0,0:0:0:0:
85,70,122054,6,0,B|143:43|189:82|189:82|190:86|190:86|245:132|311:90,1,224,12|0,0:0|0:0,0:0:0:0:
370,67,122686,6,0,P|366:30|270:40,1,132.00000402832,12|0,0:0|0:0,0:0:0:0:
291,100,123002,5,0,1:2:0:0:
400,230,123160,1,10,0:2:0:0:
511,81,123318,2,0,P|503:125|495:168,1,88.000002685547,8|2,0:2|1:2,0:0:0:0:
401,357,123633,5,8,0:2:0:0:
388,91,123791,1,8,0:2:0:0:
176,367,123949,1,8,0:2:0:0:
163,101,124107,1,8,0:2:0:0:
321,248,124265,6,0,B|391:242|439:268|439:268|470:248|475:215,1,176.000005371094,6|10,1:2|0:2,0:0:0:0:
388,64,124739,2,0,L|400:173,1,88.000002685547,2|0,0:0|1:2,0:0:0:0:
232,367,125054,2,0,P|221:326|235:285,1,88.000002685547,2|8,0:0|0:2,0:0:0:0:
114,218,125370,2,0,P|33:235|5:242,1,88.000002685547,2|0,0:0|1:2,0:0:0:0:
326,116,125686,2,0,P|369:124|412:134,1,88.000002685547,2|8,0:0|0:2,0:0:0:0:
187,14,126002,1,2,0:0:0:0:
187,14,126160,2,0,L|200:114,1,88.000002685547,2|0,1:2|0:0,0:0:0:0:
230,324,126476,2,0,B|243:319|263:314|263:314|167:293,1,132.00000402832,10|0,0:2|0:0,0:0:0:0:
18,367,126791,6,0,P|61:368|98:346,1,88.000002685547,6|2,1:2|0:2,0:0:0:0:
60,107,127107,2,0,L|52:214,1,88.000002685547,14|2,0:2|0:0,0:0:0:0:
227,373,127423,1,6,1:2:0:0:
161,162,127581,1,2,0:0:0:0:
40,282,127739,1,14,0:2:0:0:
294,225,127897,1,2,0:0:0:0:
175,17,128054,5,2,1:2:0:0:
173,38,128133,1,2,0:0:0:0:
171,59,128212,1,10,0:2:0:0:
169,80,128291,1,2,0:0:0:0:
168,102,128370,2,0,L|72:116,1,88.000002685547,10|2,0:2|0:0,0:0:0:0:
351,15,128686,5,10,0:2:0:0:
179,295,128844,1,10,0:2:0:0:
443,217,129002,1,2,1:2:0:0:
171,59,129160,1,10,0:2:0:0:
171,59,129318,6,0,P|178:88|178:112,1,47.9999985351563,6|0,0:2|0:0,0:0:0:0:
101,193,129633,2,0,P|102:169|108:145,1,47.9999985351563,2|0,0:0|0:0,0:0:0:0:
169,258,129949,2,0,P|121:265|74:273,1,95.9999970703126,2|0,0:0|0:0,0:0:0:0:
252,367,130423,2,0,L|254:351,2,15.9999995117188,2|2|2,0:0|0:0|0:0,0:0:0:0:
259,333,130581,6,0,P|256:311|250:272,1,47.9999985351563,2|0,0:0|0:0,0:0:0:0:
337,195,130897,2,0,L|329:242,1,47.9999985351563,2|0,0:0|0:0,0:0:0:0:
398,304,131212,2,0,P|445:315|486:274,1,95.9999970703126,2|0,0:0|0:0,0:0:0:0:
123,188,131844,6,0,P|75:195|28:202,1,95.9999970703126,2|2,0:0|0:0,0:0:0:0:
376,100,132476,2,0,P|423:106|470:114,1,95.9999970703126,2|2,0:0|0:0,0:0:0:0:
446,27,132949,1,0,0:0:0:0:
406,191,133107,6,0,P|350:206|301:175,1,119.999996337891,2|0,0:0|0:0,0:0:0:0:
245,124,133581,6,0,L|259:210,1,80,2|0,0:0|0:0,0:0:0:0:
87,365,134370,5,6,1:2:0:0:
87,365,135633,5,4,1:2:0:0:
87,365,136897,5,4,1:2:0:0:
301,18,137212,5,4,1:2:0:0:
508,318,137528,5,6,1:2:0:0:
1,130,137844,6,0,L|27:124,1,20,12|0,0:2|0:0,0:0:0:0:
20,125,138160,6,0,P|71:121|116:211,1,160,6|10,1:2|0:2,0:0:0:0:
22,322,138633,2,0,P|17:283|34:243,1,80,2|0,1:2|0:0,0:0:0:0:
214,318,138949,1,2,1:2:0:0:
130,369,139107,2,0,L|120:290,1,80,10|2,0:2|1:2,0:0:0:0:
229,158,139423,6,0,B|212:329,1,160,6|10,1:2|0:2,0:0:0:0:
382,373,139897,2,0,L|366:272,1,80,2|0,1:2|0:0,0:0:0:0:
287,354,140212,1,2,1:2:0:0:
462,319,140370,2,0,P|479:283|479:241,1,80,10|2,0:2|1:2,0:0:0:0:
377,136,140686,6,0,B|302:121|300:169|221:156,1,160,6|10,1:2|0:2,0:0:0:0:
40,99,141160,2,0,L|143:81,1,80,2|0,1:2|0:0,0:0:0:0:
96,181,141476,1,2,1:2:0:0:
61,4,141633,1,10,0:2:0:0:
96,181,141791,6,0,B|117:309|117:309|169:302,1,160,2|0,1:2|0:0,0:0:0:0:
157,311,142265,6,0,P|84:304|45:367,1,155.999992858887,6|0,1:2|0:0,0:0:0:0:
229,268,142581,6,0,B|248:191|248:191|238:148|196:142,1,155.999992858887,6|0,1:2|0:0,0:0:0:0:
303,319,142897,6,0,P|366:311|422:303,1,120,12|0,0:2|0:0,0:0:0:0:
497,342,143212,5,6,1:2:0:0:
497,342,144476,5,4,1:2:0:0:
492,329,145739,5,6,1:2:0:0:
36,153,146054,5,6,1:2:0:0:
469,45,146370,5,6,1:2:0:0:
100,374,146686,6,0,L|104:341,1,20,14|0,0:2|0:0,0:0:0:0:
102,354,147002,6,0,P|150:294|226:300,1,160,6|10,1:2|0:2,0:0:0:0:
361,238,147476,2,0,L|346:323,1,80,2|0,1:2|0:0,0:0:0:0:
265,192,147791,1,2,1:2:0:0:
461,291,147949,1,10,0:2:0:0:
277,384,148107,1,2,1:2:0:0:
361,238,148265,6,0,L|334:68,1,160,6|10,1:2|0:2,0:0:0:0:
162,227,148739,2,0,P|200:236|237:222,1,80,2|0,1:2|0:0,0:0:0:0:
85,146,149054,1,2,1:2:0:0:
205,332,149212,1,10,0:2:0:0:
313,143,149370,1,2,1:2:0:0:
82,245,149528,6,0,B|164:258|161:208|237:221,1,160,6|10,1:2|0:2,0:0:0:0:
322,63,150002,2,0,L|310:159,1,80,2|0,1:2|0:0,0:0:0:0:
458,288,150318,1,2,1:2:0:0:
413,114,150476,1,10,0:2:0:0:
339,371,150633,6,0,B|440:335|440:335|459:357|483:369,1,160,2|0,1:2|0:0,0:0:0:0:
491,362,151107,6,0,P|481:276|379:287,1,180.000006866455,4|0,1:2|0:0,0:0:0:0:
320,220,151423,6,0,B|298:174|302:127|344:94|344:94|330:119|331:145,1,180.000006866455,4|0,1:2|0:0,0:0:0:0:
246,280,151739,6,0,P|182:311|108:307,1,143.999995605469,12|0,0:0|0:0,0:0:0:0:
34,257,152054,6,0,P|92:218|164:232,1,143.999995605469,6|8,1:2|0:2,0:0:0:0:
146,62,152528,1,2,1:2:0:0:
150,67,152607,1,2,0:0:0:0:
154,72,152686,2,0,L|139:166,1,71.9999978027344,2|0,0:0|1:2,0:0:0:0:
236,118,153002,1,8,0:2:0:0:
63,91,153160,1,2,1:2:0:0:
236,118,153318,6,0,P|294:115|365:63,1,143.999995605469,6|8,1:2|0:2,0:0:0:0:
434,211,153791,2,0,L|441:165,2,35.9999989013672,2|2|2,1:2|0:0|0:0,0:0:0:0:
502,106,154107,1,0,1:2:0:0:
339,192,154265,1,10,0:2:0:0:
506,285,154423,1,0,1:2:0:0:
326,190,154581,6,0,B|261:180|262:216|185:208,1,143.999995605469,6|8,1:2|0:2,0:0:0:0:
17,147,155054,1,2,1:2:0:0:
21,152,155133,1,2,0:0:0:0:
26,156,155212,2,0,P|65:164|107:145,1,71.9999978027344,2|0,0:0|1:2,0:0:0:0:
197,89,155528,1,8,0:2:0:0:
29,30,155686,1,0,1:2:0:0:
83,225,155844,6,0,L|96:145,1,71.9999978027344,6|0,1:2|0:0,0:0:0:0:
232,284,156160,1,8,0:2:0:0:
138,341,156318,1,2,1:2:0:0:
123,339,156397,1,2,0:0:0:0:
108,337,156476,1,2,0:0:0:0:
320,235,156633,1,0,1:2:0:0:
181,184,156791,1,10,0:2:0:0:
293,364,156949,1,0,1:2:0:0:
258,138,157107,6,0,L|235:-12,1,143.999995605469,6|8,1:2|0:2,0:0:0:0:
407,79,157581,2,0,P|372:85|337:77,1,71.9999978027344,0|0,1:2|0:0,0:0:0:0:
144,167,157897,1,0,1:2:0:0:
209,233,158054,1,10,0:2:0:0:
239,98,158212,1,0,1:2:0:0:
156,328,158370,6,0,P|221:275|279:279,1,143.999995605469,6|8,1:2|0:2,0:0:0:0:
411,167,158844,2,0,P|398:237|385:308,1,143.999995605469,0|0,1:2|1:2,0:0:0:0:
306,187,159318,1,8,0:2:0:0:
494,96,159476,1,0,1:2:0:0:
443,373,159633,6,0,B|407:309|303:281|241:314|241:314|275:345|271:385,1,300,2|0,0:0|0:0,0:0:0:0:
170,384,160897,6,0,P|187:318|86:303,1,180.000006866455,2|0,1:2|0:0,0:0:0:0:
33,361,161212,6,0,B|19:287|19:287|15:282|15:282|0:210,1,155.999992858887,2|0,1:2|0:0,0:0:0:0:
73,130,161528,6,0,B|223:153|223:153|194:154|174:172,1,204.000003890991,2|0,1:2|0:0,0:0:0:0:
249,259,161844,6,0,B|350:240|350:240|370:204|370:204|469:182,1,240,14|0,0:2|0:0,0:0:0:0:
512,250,162160,6,0,P|462:179|473:94,1,176.000005371094,6|10,1:2|0:2,0:0:0:0:
370,279,162633,2,0,L|351:379,1,88.000002685547,2|0,0:2|1:2,0:0:0:0:
145,197,162949,2,0,L|161:283,1,88.000002685547,2|8,0:2|0:2,0:0:0:0:
362,154,163265,2,0,P|320:167|280:153,1,88.000002685547,2|0,0:2|1:2,0:0:0:0:
192,87,163581,5,2,0:2:0:0:
248,328,163739,1,8,0:2:0:0:
190,78,163897,1,2,0:2:0:0:
16,227,164054,2,0,L|113:216,1,88.000002685547,6|0,1:2|0:0,0:0:0:0:
323,371,164370,2,0,P|287:346|241:347,1,88.000002685547,14|0,0:2|0:0,0:0:0:0:
170,284,164607,1,2,0:0:0:0:
164,270,164686,6,0,L|185:67,1,176.000005371094,6|10,1:2|0:2,0:0:0:0:
352,314,165160,2,0,P|292:335|246:368,1,88.000002685547,2|0,0:2|1:2,0:0:0:0:
309,191,165476,2,0,P|320:128|315:72,1,88.000002685547,2|8,0:2|0:2,0:0:0:0:
431,225,165791,2,0,P|479:266|530:289,1,88.000002685547,2|0,0:2|1:2,0:0:0:0:
361,242,166107,5,2,0:2:0:0:
157,127,166265,1,8,0:2:0:0:
390,38,166423,1,2,0:2:0:0:
270,307,166581,2,0,P|247:269|264:212,1,88.000002685547,6|0,1:2|0:0,0:0:0:0:
475,64,166897,2,0,L|466:158,1,88.000002685547,14|0,0:2|0:0,0:0:0:0:
447,302,167133,1,2,0:0:0:0:
442,319,167212,6,0,B|383:307|383:307|345:352|272:343,1,176.000005371094,6|10,1:2|0:2,0:0:0:0:
89,264,167686,2,0,P|131:254|175:250,1,88.000002685547,2|0,0:2|1:2,0:0:0:0:
377,171,168002,2,0,P|335:161|291:157,1,88.000002685547,2|8,0:2|0:2,0:0:0:0:
196,20,168318,6,0,B|137:44|137:44|167:175,1,176.000005371094,6|0,0:2|0:0,0:0:0:0:
32,297,168791,2,0,L|42:201,1,88.000002685547,10|0,0:2|0:0,0:0:0:0:
242,346,169107,2,0,P|196:360|150:338,1,88.000002685547,2|0,1:2|0:0,0:0:0:0:
345,257,169423,2,0,L|448:281,1,88.000002685547,10|0,0:2|0:0,0:0:0:0:
233,174,169739,6,0,L|209:-5,1,176.000005371094,6|10,1:2|0:2,0:0:0:0:
486,130,170212,2,0,B|479:165|442:175|442:175|336:148,1,176.000005371094,2|2,0:2|0:2,0:0:0:0:
170,295,170686,2,0,P|212:285|257:282,1,88.000002685547,8|2,0:2|0:2,0:0:0:0:
382,350,171002,5,2,1:2:0:0:
109,230,171160,1,0,0:0:0:0:
350,140,171318,1,10,0:2:0:0:
220,370,171476,1,0,0:0:0:0:
243,46,171633,5,2,1:2:0:0:
274,200,171791,1,0,0:0:0:0:
331,16,171949,1,10,0:2:0:0:
153,137,172107,1,2,0:0:0:0:
146,143,172186,1,2,0:0:0:0:
139,149,172265,6,0,P|48:136|18:54,1,176.000005371094,6|10,1:2|0:2,0:0:0:0:
237,200,172739,2,0,L|222:303,1,88.000002685547,2|0,0:2|1:2,0:0:0:0:
102,384,173054,2,0,L|87:274,1,88.000002685547,2|8,0:2|0:2,0:0:0:0:
345,226,173370,6,0,B|446:255|446:255|494:236|463:182,1,176.000005371094,6|0,0:2|0:0,0:0:0:0:
277,161,173844,1,8,0:2:0:0:
345,326,174002,1,2,0:2:0:0:
419,123,174160,1,0,1:2:0:0:
211,247,174318,1,0,0:0:0:0:
430,367,174476,2,0,P|442:303|412:277,1,88.000002685547,8|0,0:2|0:0,0:0:0:0:
158,169,174791,6,0,B|125:141|86:145|86:145|51:192|-22:172,1,176.000005371094,6|10,1:2|0:2,0:0:0:0:
248,43,175265,6,0,P|314:39|348:37,1,88.000002685547,2|0,0:2|1:2,0:0:0:0:
244,304,175581,2,0,P|321:313|353:316,1,88.000002685547,2|8,0:2|0:2,0:0:0:0:
485,107,175897,1,6,0:2:0:0:
330,176,176054,5,0,1:2:0:0:
453,296,176212,1,2,0:2:0:0:
377,100,176370,1,8,0:2:0:0:
248,305,176528,1,2,0:2:0:0:
152,128,176686,1,0,1:2:0:0:
297,236,176844,1,0,0:0:0:0:
123,384,177002,2,0,L|136:288,1,88.000002685547,8|0,0:2|0:0,0:0:0:0:
96,232,177239,1,2,0:0:0:0:
89,218,177318,6,0,P|42:252|70:340,1,132.00000402832,6|0,1:2|0:0,0:0:0:0:
134,296,177633,1,10,0:2:0:0:
268,125,177791,2,0,P|260:54|257:11,1,88.000002685547,2|0,0:2|1:2,0:0:0:0:
447,327,178107,6,0,P|406:299|345:312,1,88.000002685547,2|8,0:2|0:2,0:0:0:0:
64,125,178423,2,0,P|101:104|145:107,1,88.000002685547,6|0,0:2|1:2,0:0:0:0:
242,376,178739,6,0,B|225:284|277:296|257:177,1,176.000005371094,2|2,0:2|0:2,0:0:0:0:
344,124,179212,1,2,1:2:0:0:
134,226,179370,1,0,0:0:0:0:
342,347,179528,2,0,P|389:334|440:338,1,88.000002685547,10|2,0:2|0:2,0:0:0:0:
260,203,179844,5,6,1:2:0:0:
262,172,179922,1,2,0:0:0:0:
264,141,180001,1,2,0:0:0:0:
266,110,180080,1,2,0:0:0:0:
270,80,180160,6,0,L|281:139,2,44.0000013427735,10|2|2,0:2|0:2|0:2,0:0:0:0:
137,205,180476,1,2,1:2:0:0:
380,318,180633,1,2,0:2:0:0:
124,197,180791,1,10,0:2:0:0:
363,84,180949,1,2,0:2:0:0:
147,322,181107,6,0,L|77:315,1,44.0000013427735,2|2,1:2|0:2,0:0:0:0:
8,305,181265,1,10,0:2:0:0:
246,103,181423,6,0,B|276:127|276:127|263:234,1,132.00000402832,2|2,1:2|0:2,0:0:0:0:
254,299,181739,5,10,0:2:0:0:
363,84,181897,1,10,0:2:0:0:
157,218,182054,1,2,1:2:0:0:
383,361,182212,1,10,0:2:0:0:
264,219,182370,5,14,0:2:0:0:
264,219,183476,5,14,0:2:0:0:
264,219,184265,6,0,L|139:233,1,95.9999970703126,14|0,0:2|0:0,0:0:0:0:
345,292,184581,2,0,L|451:312,1,95.9999970703126,14|0,0:2|1:2,0:0:0:0:
484,233,184818,1,0,1:2:0:0:
472,239,184897,1,6,1:2:0:0:
252,32,186002,5,14,0:2:0:0:
252,32,186791,6,0,P|307:71|254:128,1,143.999995605469,14|0,0:0|0:0,0:0:0:0:
191,186,187107,2,0,L|202:48,1,95.9999970703126,12|0,0:0|1:0,0:0:0:0:
117,12,187344,1,0,1:0:0:0:
99,12,187423,6,0,L|115:172,1,143.999995605469,6|0,1:2|0:0,0:0:0:0:
28,184,187739,6,0,P|12:123|42:93,1,95.9999970703126,10|2,0:2|0:2,0:0:0:0:
209,203,188054,1,0,1:2:0:0:
112,309,188212,2,0,P|74:286|21:305,1,95.9999970703126,2|8,0:0|0:2,0:0:0:0:
66,373,188528,1,6,0:0:0:0:
314,207,188686,6,0,B|388:223|382:166|484:197,1,143.999995605469,0|0,1:2|0:0,0:0:0:0:
419,33,189002,2,0,P|388:98|424:141,1,95.9999970703126,10|0,0:2|0:0,0:0:0:0:
234,371,189318,2,0,L|219:206,1,143.999995605469,2|0,1:2|0:0,0:0:0:0:
141,158,189633,2,0,B|127:216|127:216|150:263,1,95.9999970703126,8|0,0:0|0:0,0:0:0:0:
414,87,189949,6,0,B|362:67|320:86|320:86|292:44|235:42,1,191.999994140625,6|10,1:2|0:2,0:0:0:0:
5,334,190423,6,0,P|57:346|109:316,1,95.9999970703126,2|0,0:0|1:2,0:0:0:0:
89,159,190739,2,0,P|37:147|-15:177,1,95.9999970703126,2|8,0:0|0:2,0:0:0:0:
142,248,191054,1,2,0:0:0:0:
368,167,191212,6,0,B|270:126|270:126|196:157|249:213,1,191.999994140625,2|10,1:2|0:2,0:0:0:0:
392,269,191686,1,2,0:0:0:0:
286,380,191844,2,0,P|280:307|300:272,1,95.9999970703126,2|2,1:2|0:0,0:0:0:0:
194,29,192160,5,8,0:2:0:0:
231,189,192318,1,10,0:2:0:0:
14,128,192476,6,0,L|76:138,1,48,0|0,0:0|0:0,0:0:0:0:
149,97,192791,6,0,B|75:119|75:119|101:179|115:286,1,224,12|0,0:2|0:0,0:0:0:0:
183,364,193423,6,0,P|232:307|319:322,1,167.999994873047,12|0,0:0|0:0,0:0:0:0:
425,313,194054,6,0,B|403:331|399:354|399:354|315:280|404:188,1,224,12|0,0:0|0:0,0:0:0:0:
432,117,194686,6,0,B|281:76|281:76|320:106|301:152,1,224,12|0,0:0|0:0,0:0:0:0:
203,182,195318,6,0,B|110:199|125:121|11:144,1,195.999994018555,12|0,0:0|0:0,0:0:0:0:
101,123,195949,6,0,P|139:68|96:18,1,143.999995605469,12|0,0:0|0:0,0:0:0:0:
30,69,196265,5,0,1:2:0:0:
230,257,196423,1,10,0:2:0:0:
109,316,196581,1,8,0:2:0:0:
246,150,196739,1,2,1:2:0:0:
340,342,196897,5,8,0:2:0:0:
127,180,197054,1,8,0:2:0:0:
310,48,197212,1,8,0:2:0:0:
230,257,197370,1,8,0:2:0:0:
497,175,197528,6,0,P|427:155|377:203,1,143.999995605469,6|0,1:2|0:0,0:0:0:0:
302,144,197844,2,0,L|312:31,1,95.9999970703126,10|2,0:2|0:0,0:0:0:0:
188,176,198160,1,0,1:2:0:0:
400,346,198318,2,0,P|348:321|289:336,1,95.9999970703126,2|8,0:0|0:2,0:0:0:0:
75,211,198633,2,0,P|124:181|180:194,1,95.9999970703126,2|0,0:0|1:2,0:0:0:0:
159,365,198949,6,0,P|150:299|143:271,1,95.9999970703126,2|8,0:0|0:2,0:0:0:0:
368,108,199265,1,2,0:0:0:0:
297,42,199423,2,0,P|289:114|292:160,1,95.9999970703126,2|0,1:2|0:0,0:0:0:0:
464,347,199739,2,0,P|472:283|400:298,1,143.999995605469,10|0,0:2|0:0,0:0:0:0:
371,352,200054,6,0,L|262:371,1,95.9999970703126,6|2,1:2|0:2,0:0:0:0:
87,367,200370,5,14,0:2:0:0:
262,232,200528,1,2,0:0:0:0:
67,114,200686,1,6,1:2:0:0:
189,305,200844,1,2,0:0:0:0:
250,103,201002,1,14,0:2:0:0:
85,239,201160,1,2,0:0:0:0:
329,350,201318,5,2,1:2:0:0:
352,344,201396,1,2,0:0:0:0:
375,339,201475,1,10,0:2:0:0:
399,334,201554,1,2,0:0:0:0:
424,329,201633,6,0,L|435:258,1,47.9999985351563,10|0,0:2|0:0,0:0:0:0:
322,77,201791,2,0,L|337:151,1,47.9999985351563,2|0,0:0|0:0,0:0:0:0:
197,367,201949,2,0,L|210:316,1,47.9999985351563,10|0,0:2|0:0,0:0:0:0:
85,52,202107,2,0,L|99:130,1,47.9999985351563,10|0,0:2|0:0,0:0:0:0:
0,282,202265,1,2,1:2:0:0:
46,270,202343,1,2,0:0:0:0:
93,259,202422,1,10,0:2:0:0:
208,320,202581,6,0,P|273:305|322:354,1,128,6|2,0:2|0:0,0:0:0:0:
457,142,203528,6,0,L|447:201,1,60.0000022888184,14|2,0:2|0:2,0:0:0:0:
447,201,203844,6,0,P|403:209|357:174,1,88.000002685547,6|2,1:2|0:2,0:0:0:0:
221,22,204160,1,10,0:2:0:0:
301,69,204318,2,0,L|312:125,1,44.0000013427735,2|0,0:2|0:0,0:0:0:0:
216,168,204476,2,0,L|227:112,1,44.0000013427735,2|0,1:2|0:0,0:0:0:0:
295,239,204633,1,2,0:2:0:0:
110,136,204791,1,10,0:2:0:0:
102,131,204870,1,2,0:0:0:0:
94,126,204949,6,0,P|107:166|107:225,1,88.000002685547,2|0,0:0|1:2,0:0:0:0:
370,366,205265,2,0,P|371:322|384:280,1,88.000002685547,2|8,0:0|0:2,0:0:0:0:
255,349,205581,1,2,0:0:0:0:
255,349,205660,1,2,0:0:0:0:
255,349,205739,2,0,L|184:346,1,44.0000013427735,6|0,1:2|0:0,0:0:0:0:
135,302,205897,1,2,0:0:0:0:
363,159,206054,1,14,0:2:0:0:
211,60,206212,1,2,0:0:0:0:
203,55,206291,1,2,0:0:0:0:
197,61,206370,6,0,L|210:165,1,88.000002685547,4|2,1:2|0:0,0:0:0:0:
147,205,206581,1,2,0:0:0:0:
135,217,206633,1,2,0:0:0:0:
122,229,206686,2,0,L|23:213,1,88.000002685547,10|2,0:2|0:0,0:0:0:0:
300,107,207002,1,2,1:2:0:0:
172,340,207160,2,0,P|138:361|70:345,1,88.000002685547,2|10,0:0|0:2,0:0:0:0:
311,230,207476,6,0,B|383:243|383:243|403:263|403:263|492:284,1,176.000005371094,2|0,0:0|0:0,0:0:0:0:
226,145,207949,1,8,0:2:0:0:
326,368,208107,2,0,L|336:319,1,44.0000013427735,0|0,0:0|0:0,0:0:0:0:
387,155,208265,6,0,L|396:242,1,88.000002685547,6|2,1:2|0:0,0:0:0:0:
205,374,208502,2,0,B|202:356|202:356|216:278,1,88.000002685547,2|0,0:0|0:0,0:0:0:0:
369,368,208739,2,0,B|350:372|350:372|326:368,1,44.0000013427735,2|0,0:0|0:0,0:0:0:0:
94,275,208897,5,6,1:2:0:0:
289,192,209054,1,2,0:0:0:0:
46,100,209212,1,10,0:2:0:0:
125,156,209370,1,2,0:0:0:0:
132,161,209449,1,2,0:0:0:0:
139,165,209528,2,0,L|247:151,1,88.000002685547,2|2,1:2|0:0,0:0:0:0:
467,124,209844,1,10,0:2:0:0:
375,24,210002,6,0,B|328:59|328:59|369:212,1,176.000005371094,6|2,0:0|0:0,0:0:0:0:
469,348,210476,2,0,L|483:299,1,44.0000013427735,8|0,0:2|0:0,0:0:0:0:
354,285,210633,2,0,L|406:301,1,44.0000013427735,2|0,0:0|0:0,0:0:0:0:
452,217,210791,1,2,1:2:0:0:
449,199,210870,1,2,0:0:0:0:
446,181,210949,1,2,0:0:0:0:
261,350,211107,6,0,L|198:342,1,44.0000013427735,10|0,0:2|0:0,0:0:0:0:
131,331,211265,2,0,L|68:323,1,44.0000013427735,2|0,0:0|0:0,0:0:0:0:
13,261,211423,6,0,P|30:205|112:201,1,132.00000402832,6|0,1:2|0:0,0:0:0:0:
162,241,211739,1,8,0:2:0:0:
158,24,211897,1,2,0:0:0:0:
158,24,211976,1,2,0:0:0:0:
158,24,212054,2,0,L|151:81,2,44.0000013427735,2|2|2,1:2|0:0|0:0,0:0:0:0:
43,81,212370,1,8,0:2:0:0:
240,166,212528,1,6,0:0:0:0:
72,330,212686,5,0,1:2:0:0:
121,147,212844,1,0,0:0:0:0:
69,339,213002,2,0,L|170:328,1,88.000002685547,12|0,0:2|0:0,0:0:0:0:
445,236,213318,5,4,1:2:0:0:
221,162,213476,1,0,0:0:0:0:
325,365,213633,2,0,P|346:323|331:271,1,88.000002685547,12|0,0:2|0:0,0:0:0:0:
267,240,213870,1,2,0:0:0:0:
258,253,213949,6,0,L|265:309,1,44.0000013427735,6|0,1:2|0:0,0:0:0:0:
172,376,214107,2,0,L|179:320,1,44.0000013427735,2|0,0:0|0:0,0:0:0:0:
45,233,214265,2,0,B|65:350,1,88.000002685547,10|0,0:2|0:0,0:0:0:0:
142,244,214502,1,2,0:0:0:0:
149,231,214581,6,0,P|154:198|142:162,1,44.0000013427735,2|0,1:2|0:0,0:0:0:0:
253,74,214739,2,0,P|248:107|260:143,1,44.0000013427735,2|0,0:0|0:0,0:0:0:0:
323,172,214897,2,0,L|421:157,1,88.000002685547,10|4,0:2|0:0,0:0:0:0:
500,232,215212,5,2,1:2:0:0:
376,51,215370,1,2,0:0:0:0:
285,313,215528,1,10,0:2:0:0:
196,216,215686,1,2,0:0:0:0:
196,216,215765,1,2,0:0:0:0:
196,216,215844,2,0,L|207:149,1,44.0000013427735,2|0,1:2|0:0,0:0:0:0:
116,94,216002,2,0,L|127:161,1,44.0000013427735,2|0,0:0|0:0,0:0:0:0:
60,206,216160,1,10,0:2:0:0:
3,2,216318,1,2,0:0:0:0:
214,21,216476,5,6,1:2:0:0:
0,134,216633,1,2,0:0:0:0:
155,269,216791,2,0,L|163:177,1,88.000002685547,10|0,0:2|0:0,0:0:0:0:
65,304,217028,1,2,0:0:0:0:
78,316,217107,2,0,P|143:318|201:348,1,132.00000402832,2|0,1:2|0:0,0:0:0:0:
293,347,217423,6,0,P|318:280|230:285,1,167.999994873047,10|0,0:2|0:0,0:0:0:0:
201,348,217739,5,2,1:2:0:0:
382,178,217897,2,0,L|393:233,1,44.0000013427735,2|0,0:0|0:0,0:0:0:0:
268,110,218054,2,0,L|257:165,1,44.0000013427735,8|0,0:2|0:0,0:0:0:0:
357,50,218212,1,2,0:0:0:0:
171,197,218370,6,0,B|109:186|109:186|101:182|101:182|41:172,1,132.00000402832,6|0,1:2|0:0,0:0:0:0:
31,157,218686,5,14,0:2:0:0:
33,148,218765,1,2,0:0:0:0:
35,139,218844,1,2,0:0:0:0:
38,130,218923,1,2,0:0:0:0:
41,121,219002,6,0,P|88:175|74:291,1,176.000005371094,6|8,1:2|0:2,0:0:0:0:
177,365,219476,1,2,0:0:0:0:
183,359,219554,1,2,0:0:0:0:
189,353,219633,2,0,L|309:372,1,88.000002685547,0|0,1:2|0:0,0:0:0:0:
488,261,219949,2,0,L|429:277,1,44.0000013427735,10|0,0:2|0:0,0:0:0:0:
384,384,220107,2,0,L|393:328,1,44.0000013427735,6|0,0:0|0:0,0:0:0:0:
338,167,220265,6,0,L|362:251,1,88.000002685547,2|2,1:2|0:0,0:0:0:0:
428,74,220581,1,10,0:2:0:0:
264,233,220739,1,2,0:0:0:0:
221,241,220817,1,2,0:0:0:0:
179,228,220896,1,2,1:2:0:0:
150,196,220975,1,2,0:0:0:0:
140,154,221054,1,2,0:0:0:0:
335,314,221212,2,0,P|373:294|416:295,1,88.000002685547,8|0,0:2|0:0,0:0:0:0:
488,105,221528,6,0,L|481:187,1,44.0000013427735,6|2,1:2|0:0,0:0:0:0:
335,314,221686,2,0,L|328:232,1,44.0000013427735,2|2,0:0|0:0,0:0:0:0:
229,186,221844,1,10,0:2:0:0:
229,186,221923,1,2,0:0:0:0:
229,186,222002,1,2,0:0:0:0:
331,51,222160,6,0,L|343:107,1,44.0000013427735,2|2,1:2|0:0,0:0:0:0:
163,310,222318,2,0,L|175:254,1,44.0000013427735,2|2,0:0|0:0,0:0:0:0:
110,201,222476,2,0,P|33:214|-9:222,1,88.000002685547,10|2,0:2|0:0,0:0:0:0:
198,67,222791,5,2,1:2:0:0:
391,184,222949,1,10,0:2:0:0:
172,266,223107,1,10,0:2:0:0:
301,47,223265,1,2,0:0:0:0:
296,368,223423,6,0,L|304:288,1,60.0000022888184,2|2,1:2|0:0,0:0:0:0:
183,127,223581,2,0,L|191:207,1,60.0000022888184,10|2,0:2|0:0,0:0:0:0:
395,336,223739,6,0,L|403:256,1,60.0000022888184,2|2,1:2|0:0,0:0:0:0:
96,202,223897,2,0,L|104:282,1,60.0000022888184,10|2,0:2|0:0,0:0:0:0:
93,186,224054,5,6,0:2:0:0:
169,366,224370,1,2,0:0:0:0:
21,311,224686,1,0,0:0:0:0:
167,237,225002,1,2,0:0:0:0:
264,375,225318,5,2,0:0:0:0:
294,304,225633,1,2,0:0:0:0:
365,275,225949,1,2,0:0:0:0:
433,309,226265,1,2,0:0:0:0:
496,266,226581,6,0,P|500:215|516:163,1,95.9999970703126,2|2,0:0|0:0,0:0:0:0:
396,17,227212,2,0,L|407:112,1,95.9999970703126,2|2,0:0|0:0,0:0:0:0:
327,176,227844,2,0,P|249:186|177:90,1,191.999994140625,2|2,0:0|0:0,0:0:0:0:
100,56,228791,1,2,0:0:0:0:
32,122,229107,6,0,P|44:203|48:229,1,95.9999970703126,2|0,0:0|0:0,0:0:0:0:
142,274,229581,1,2,0:0:0:0:
64,346,229739,2,0,L|71:285,1,47.9999985351563,2|2,0:0|0:0,0:0:0:0:
197,219,230054,2,0,B|190:158,1,47.9999985351563,2|2,0:0|0:0,0:0:0:0:
39,96,230370,6,0,P|88:104|138:77,1,95.9999970703126,2|2,0:0|0:0,0:0:0:0:
287,229,231002,2,0,P|243:210|196:218,1,95.9999970703126,2|2,0:0|0:0,0:0:0:0:
29,367,231633,6,0,L|129:347,1,95.9999970703126,2|0,0:0|0:0,0:0:0:0:
184,300,232107,1,2,0:0:0:0:
244,346,232265,2,0,P|290:365|357:358,1,95.9999970703126,2|0,0:0|0:0,0:0:0:0:
394,314,232739,1,2,0:0:0:0:
451,364,232897,6,0,B|428:258|428:258|467:244|485:193,1,191.999994140625,2|2,0:0|0:0,0:0:0:0:
393,73,233844,1,2,0:0:0:0:
216,366,234160,5,2,1:2:0:0:
216,366,234476,1,2,1:2:0:0:
216,366,234791,1,2,1:2:0:0:
216,366,235107,6,0,B|163:327|157:231|272:230|244:300,1,180.000006866455,12|0,0:2|0:0,0:0:0:0:
216,366,235423,6,0,P|150:311|60:366,1,176.000005371094,6|10,1:2|0:2,0:0:0:0:
334,242,235897,2,0,P|395:242|435:252,1,88.000002685547,2|0,0:0|1:2,0:0:0:0:
153,111,236212,2,0,P|95:108|64:115,1,88.000002685547,2|8,0:0|0:2,0:0:0:0:
269,19,236528,6,0,P|260:106|254:194,1,176.000005371094,2|2,0:0|0:0,0:0:0:0:
364,131,237002,1,10,0:2:0:0:
153,111,237160,1,2,0:0:0:0:
364,131,237318,2,0,P|376:205|357:230,1,88.000002685547,6|0,1:2|0:0,0:0:0:0:
209,358,237633,2,0,P|259:334|302:347,1,88.000002685547,14|0,0:2|0:0,0:0:0:0:
200,278,237870,1,2,0:0:0:0:
181,272,237949,6,0,B|128:262|89:287|89:287|28:263|58:208,1,176.000005371094,6|10,1:2|0:2,0:0:0:0:
188,53,238423,2,0,P|179:112|179:174,1,88.000002685547,2|0,0:0|1:2,0:0:0:0:
368,266,238739,2,0,P|371:195|367:162,1,88.000002685547,2|8,0:0|0:2,0:0:0:0:
414,87,239054,6,0,P|455:74|498:84,1,88.000002685547,2|0,0:0|1:2,0:0:0:0:
278,234,239370,1,2,0:0:0:0:
320,21,239528,1,10,0:2:0:0:
278,234,239686,1,2,0:0:0:0:
76,94,239844,2,0,P|157:81|199:73,1,88.000002685547,6|0,1:2|0:0,0:0:0:0:
379,243,240160,2,0,P|302:234|263:227,1,88.000002685547,14|0,0:2|0:0,0:0:0:0:
231,324,240397,1,2,0:0:0:0:
228,336,240476,6,0,B|278:319|278:319|315:377|396:353,1,176.000005371094,6|10,1:2|0:2,0:0:0:0:
160,239,240949,2,0,P|103:329|147:397,1,176.000005371094,2|2,0:0|0:0,0:0:0:0:
291,232,241423,1,8,0:2:0:0:
174,134,241581,6,0,P|99:147|-24:166,1,176.000005371094,6|0,0:0|0:0,0:0:0:0:
202,41,242054,2,0,P|247:51|292:43,1,88.000002685547,10|0,0:2|0:0,0:0:0:0:
472,219,242370,2,0,P|413:205|376:209,1,88.000002685547,2|0,1:2|0:0,0:0:0:0:
157,366,242686,2,0,P|206:322|277:343,1,132.00000402832,10|0,0:2|0:0,0:0:0:0:
343,368,243002,6,0,P|336:287|336:257,1,88.000002685547,6|0,1:2|0:0,0:0:0:0:
138,173,243318,1,10,0:2:0:0:
250,33,243476,2,0,L|237:129,1,88.000002685547,2|0,0:0|1:2,0:0:0:0:
43,293,243791,2,0,P|95:268|131:277,1,88.000002685547,2|8,0:0|0:2,0:0:0:0:
296,193,244107,1,2,0:0:0:0:
168,97,244265,5,2,1:2:0:0:
218,301,244423,1,2,0:2:0:0:
165,88,244581,1,10,0:2:0:0:
221,310,244739,1,2,0:2:0:0:
306,86,244897,5,2,1:2:0:0:
356,290,245055,1,2,0:2:0:0:
303,77,245213,1,10,0:2:0:0:
359,299,245371,1,2,0:2:0:0:
508,192,245528,6,0,P|429:211|364:145,1,176.000005371094,6|10,1:2|0:2,0:0:0:0:
133,247,246002,2,0,P|186:267|221:297,1,88.000002685547,2|0,0:0|1:2,0:0:0:0:
194,100,246318,2,0,P|150:135|106:151,1,88.000002685547,2|8,0:0|0:2,0:0:0:0:
286,225,246633,6,0,P|276:169|303:38,1,176.000005371094,6|2,0:0|0:0,0:0:0:0:
364,273,247107,1,8,0:2:0:0:
201,184,247265,1,2,0:0:0:0:
413,94,247423,1,0,1:2:0:0:
277,239,247581,1,0,0:0:0:0:
442,378,247739,2,0,P|458:326|425:278,1,88.000002685547,8|0,0:2|0:0,0:0:0:0:
263,233,248054,6,0,P|170:244|65:252,1,176.000005371094,6|10,1:2|0:2,0:0:0:0:
285,333,248528,2,0,P|348:334|385:343,1,88.000002685547,2|0,0:0|1:2,0:0:0:0:
504,149,248844,2,0,P|460:154|416:156,1,88.000002685547,2|8,0:0|0:2,0:0:0:0:
292,61,249160,1,6,0:0:0:0:
398,246,249318,5,0,1:2:0:0:
466,50,249476,1,2,0:0:0:0:
279,229,249633,2,0,L|294:315,1,88.000002685547,8|2,0:2|0:0,0:0:0:0:
184,146,249949,1,4,1:2:0:0:
384,276,250107,1,0,0:0:0:0:
176,362,250265,1,12,0:2:0:0:
279,229,250423,1,0,0:0:0:0:
55,314,250581,6,0,B|110:312|164:334|164:334|200:309|187:266,1,176.000005371094,6|10,1:2|0:2,0:0:0:0:
190,52,251054,2,0,P|178:95|182:146,1,88.000002685547,2|0,0:0|1:2,0:0:0:0:
329,384,251370,2,0,P|341:341|337:290,1,88.000002685547,2|8,0:0|0:2,0:0:0:0:
417,225,251686,2,0,L|507:206,1,88.000002685547,6|0,0:0|1:2,0:0:0:0:
145,319,252002,2,0,L|55:300,1,88.000002685547,2|8,0:0|0:2,0:0:0:0:
238,64,252318,1,2,0:0:0:0:
252,152,252476,2,0,L|266:250,1,88.000002685547,2|0,1:2|0:0,0:0:0:0:
452,371,252791,2,0,P|433:316|367:321,1,132.00000402832,10|0,0:2|0:0,0:0:0:0:
295,363,253107,5,6,1:2:0:0:
273,358,253186,1,2,0:2:0:0:
251,353,253265,1,2,0:2:0:0:
229,348,253344,1,2,0:2:0:0:
207,343,253423,2,0,L|147:352,2,44.0000013427735,10|2|2,0:2|0:2|0:2,0:0:0:0:
355,91,253739,6,0,L|348:153,1,44.0000013427735,2|2,1:2|0:2,0:0:0:0:
401,208,253897,1,2,0:2:0:0:
297,4,254054,1,10,0:2:0:0:
201,233,254212,1,2,0:2:0:0:
68,142,254370,6,0,L|132:133,1,44.0000013427735,2|2,1:2|0:2,0:0:0:0:
181,71,254528,1,10,0:2:0:0:
319,237,254686,1,10,0:2:0:0:
406,6,254844,1,2,0:2:0:0:
172,304,255002,6,0,L|160:371,1,55.9999982910157,10|2,0:2|0:2,0:0:0:0:
144,108,255160,2,0,L|77:96,1,55.9999982910157,10|2,0:2|0:2,0:0:0:0:
340,80,255318,2,0,L|352:13,1,55.9999982910157,2|0,1:2|0:2,0:0:0:0:
368,276,255476,2,0,L|435:288,1,55.9999982910157,10|0,0:2|0:2,0:0:0:0:
434,280,255633,6,0,P|450:235|436:155,1,128,6|2,0:0|0:0,0:0:0:0:
395,96,256107,2,0,L|407:17,1,64,2|0,0:0|0:0,0:0:0:0:
276,139,256423,2,0,L|362:151,1,64,2|0,0:0|0:0,0:0:0:0:
218,91,256739,2,0,L|127:103,1,64,2|0,0:0|0:0,0:0:0:0:
96,150,257054,6,0,P|57:157|-2:90,1,128,2|2,0:0|0:0,0:0:0:0:
131,217,257528,2,0,L|194:208,1,64,2|0,0:0|0:0,0:0:0:0:
83,276,257844,2,0,L|19:267,1,64,2|0,0:0|0:0,0:0:0:0:
131,338,258160,6,0,P|189:313|252:312,1,128,2|2,0:0|0:0,0:0:0:0:
316,277,258633,2,0,L|326:209,1,64,2|0,0:0|0:0,0:0:0:0:
399,355,258949,2,0,L|389:287,1,64,2|0,0:0|0:0,0:0:0:0:
249,228,259265,1,2,0:0:0:0:
461,119,259423,5,6,1:2:0:0:
370,147,259581,1,0,1:2:0:0:
478,50,259739,1,0,1:2:0:0:
313,107,259897,1,0,1:2:0:0:
460,204,260054,5,6,1:2:0:0:
365,19,260212,1,2,1:2:0:0:
273,191,260370,1,8,0:2:0:0:
203,95,260528,1,8,0:2:0:0:
143,159,260686,6,0,B|84:114|14:148|14:148|33:159|42:182,1,176.000005371094,6|10,1:2|0:2,0:0:0:0:
152,249,261160,2,0,P|200:236|245:242,1,88.000002685547,2|0,0:2|1:2,0:0:0:0:
342,82,261476,2,0,P|334:125|327:168,1,88.000002685547,2|8,0:0|0:2,0:0:0:0:
427,345,261791,6,0,P|452:269|366:272,1,176.000005371094,6|0,0:0|0:0,0:0:0:0:
220,341,262265,2,0,P|260:355|303:338,1,88.000002685547,10|0,0:2|0:0,0:0:0:0:
129,256,262581,2,0,L|39:268,1,88.000002685547,2|0,1:2|0:0,0:0:0:0:
226,60,262897,2,0,P|216:125|207:190,1,132.00000402832,8|0,0:0|0:0,0:0:0:0:
206,210,263212,6,0,B|253:208|276:179|276:179|369:202,1,176.000005371094,6|10,1:2|0:2,0:0:0:0:
512,66,263686,2,0,P|454:36|374:130,1,176.000005371094,2|2,0:0|0:0,0:0:0:0:
451,285,264160,2,0,P|468:224|464:192,1,88.000002685547,8|2,0:2|0:0,0:0:0:0:
272,68,264476,5,2,1:2:0:0:
314,356,264633,1,2,0:0:0:0:
433,140,264791,1,10,0:2:0:0:
176,261,264949,1,2,0:0:0:0:
431,367,265107,6,0,L|529:353,1,88.000002685547,2|2,1:2|0:0,0:0:0:0:
176,261,265423,1,8,0:2:0:0:
374,96,265581,6,0,B|338:91|311:54|311:54|339:200,1,220.000006713867,10|0,0:2|0:0,0:0:0:0:
452,226,266054,6,0,B|337:189|366:299|244:267,1,224,12|0,0:2|0:0,0:0:0:0:
112,262,266686,6,0,B|96:191|212:186|234:285|143:349,1,224,12|0,0:0|0:0,0:0:0:0:
66,357,267318,6,0,B|81:259|81:259|79:251|79:251|96:131,1,224,12|0,0:0|0:0,0:0:0:0:
30,52,267949,6,0,P|83:112|234:89,1,224,12|0,0:0|0:0,0:0:0:0:
296,30,268581,6,0,B|276:78|229:85|229:85|259:237,1,224,12|0,0:0|0:0,0:0:0:0:
320,282,269212,6,0,P|375:260|336:198,1,143.999995605469,12|0,0:0|0:0,0:0:0:0:
254,215,269528,5,0,1:2:0:0:
75,136,269686,1,10,0:2:0:0:
203,20,269844,2,0,L|188:106,1,88.000002685547,8|2,0:2|1:2,0:0:0:0:
383,367,270160,5,8,0:2:0:0:
324,106,270318,1,8,0:2:0:0:
129,367,270476,1,8,0:2:0:0:
188,106,270634,1,8,0:2:0:0:
359,249,270791,6,0,B|441:259|453:210|530:222,1,176.000005371094,6|10,1:2|0:2,0:0:0:0:
370,51,271265,2,0,L|392:162,1,88.000002685547,2|0,0:0|1:2,0:0:0:0:
243,355,271581,2,0,P|230:301|271:253,1,88.000002685547,2|8,0:0|0:2,0:0:0:0:
60,198,271897,2,0,L|166:181,1,88.000002685547,2|0,0:0|1:2,0:0:0:0:
370,51,272212,2,0,P|329:58|283:37,1,88.000002685547,2|8,0:0|0:2,0:0:0:0:
287,343,272528,1,2,0:0:0:0:
287,343,272686,2,0,P|327:326|370:333,1,88.000002685547,2|0,1:2|0:0,0:0:0:0:
195,192,273002,2,0,B|140:179|132:217|65:207,1,132.00000402832,10|0,0:2|0:0,0:0:0:0:
4,144,273318,6,0,P|7:96|41:57,1,88.000002685547,6|2,1:2|0:2,0:0:0:0:
143,314,273633,2,0,L|37:327,1,88.000002685547,14|2,0:2|0:0,0:0:0:0:
316,202,273949,1,6,1:2:0:0:
247,370,274107,1,2,0:0:0:0:
160,144,274265,1,14,0:2:0:0:
338,283,274423,1,2,0:0:0:0:
261,28,274581,6,0,L|254:87,1,44.0000013427735,2|0,1:2|0:0,0:0:0:0:
432,260,274739,2,0,L|439:201,1,44.0000013427735,10|0,0:2|0:0,0:0:0:0:
350,175,274897,2,0,P|306:176|262:182,1,88.000002685547,10|2,0:2|0:0,0:0:0:0:
114,73,275212,5,10,0:2:0:0:
420,113,275370,1,10,0:2:0:0:
100,68,275528,1,2,1:2:0:0:
434,118,275686,1,10,0:2:0:0:
434,118,275844,6,0,P|442:148|442:169,1,47.9999985351563,4|0,0:0|0:0,0:0:0:0:
361,261,276160,2,0,P|362:237|369:214,1,47.9999985351563,2|0,0:0|0:0,0:0:0:0:
294,165,276476,2,0,P|246:170|198:177,1,95.9999970703126,2|0,0:0|0:0,0:0:0:0:
198,177,277107,6,0,P|205:202|206:229,1,47.9999985351563,2|0,0:0|0:0,0:0:0:0:
135,119,277423,2,0,L|139:60,1,47.9999985351563,2|0,0:0|0:0,0:0:0:0:
77,186,277739,2,0,P|43:209|-9:194,1,95.9999970703126,2|0,0:0|0:0,0:0:0:0:
288,18,278370,5,12,0:0:0:0:
238,357,278686,5,8,0:0:0:0:
465,26,279002,5,12,0:0:0:0:
37,290,279318,5,8,0:0:0:0:
37,290,279633,6,0,B|20:224|20:224|66:234|66:234|101:206|101:206|125:291,1,227.999993911743,14|0,0:2|0:0,0:0:0:0:
212,360,279949,6,0,P|172:337|260:298,1,180.000006866455,2|0,0:2|0:0,0:0:0:0:
340,283,280265,6,0,B|357:217|357:217|311:227|311:227|276:199|276:199|252:284,1,227.999993911743,6|0,1:2|0:0,0:0:0:0:
256,192,280581,12,0,281331,0:0:0:0:
