osu file format v14

[General]
AudioFilename: audio.mp3
AudioLeadIn: 0
PreviewTime: 87589
Countdown: 0
SampleSet: Soft
StackLeniency: 0.7
Mode: 0
LetterboxInBreaks: 0
WidescreenStoryboard: 1

[Editor]
DistanceSpacing: 2.4
BeatDivisor: 8
GridSize: 32
TimelineZoom: 1.5

[Metadata]
Title:SANTA SAN
TitleUnicode:サンタさん
Artist:MOMOIRO CLOVER Z
ArtistUnicode:ももいろクローバーZ
Creator:A r M i N
Version:REFORM'S EXTRA
Source:
Tags:Armin A_r_M_i_N Reform Kujinn SMOKELIND schoolboy Komore Curi [Curi] [C_u_r_i] Reillia Iljaaz Djulus Stixy メリー クリスマス ココナッツ merry christmas coconuts momoclo takagi reni momota kanako ariyasu momoka tamai shiori sasaki ayaka xmas japanese jpop pop
BeatmapID:2197401
BeatmapSetID:1045600

[Difficulty]
HPDrainRate:5
CircleSize:3.5
OverallDifficulty:9
ApproachRate:9.2
SliderMultiplier:1.7
SliderTickRate:1

[Events]
//Background and Video events
0,0,"SANTA BG.jpg",0,0
//Break Periods
//Storyboard Layer 0 (Background)
//Storyboard Layer 1 (Fail)
//Storyboard Layer 2 (Pass)
//Storyboard Layer 3 (Foreground)
//Storyboard Layer 4 (Overlay)
//Storyboard Sound Samples

[TimingPoints]
476,315.789473684211,4,2,1,50,1,0
1739,-166.666666666667,4,2,1,50,0,0
16818,-100,4,2,1,50,0,0
17054,-100,4,2,1,5,0,0
17133,-100,4,2,1,50,0,0
17370,-100,4,2,1,5,0,0
17449,-100,4,2,1,50,0,0
17686,-100,4,2,1,50,0,0
17765,-100,4,2,1,5,0,0
17844,-100,4,2,1,50,0,0
18160,-100,4,2,1,70,0,0
27239,-100,4,2,1,70,0,0
27318,-100,4,2,1,70,0,0
27554,-100,4,2,1,70,0,0
27633,-100,4,2,1,70,0,0
28265,-111.111111111111,4,2,1,60,0,0
38370,-125,4,2,1,50,0,0
48160,-100,4,2,1,50,0,0
48476,-100,4,2,1,70,0,0
68686,-111.111111111111,4,2,1,60,0,0
78791,-166.666666666667,4,2,1,50,0,0
79344,-166.666666666667,4,2,1,5,0,0
79423,-166.666666666667,4,2,1,50,0,0
81870,-166.666666666667,4,2,1,5,0,0
81949,-166.666666666667,4,2,1,50,0,0
82502,-166.666666666667,4,2,1,5,0,0
82581,-166.666666666667,4,2,1,50,0,0
83844,-166.666666666667,4,2,1,50,0,0
85107,-166.666666666667,4,2,1,50,0,0
87554,-166.666666666667,4,2,1,5,0,0
87633,-166.666666666667,4,2,1,60,0,0
87870,-166.666666666667,4,2,1,5,0,0
87949,-166.666666666667,4,2,1,60,0,0
88186,-166.666666666667,4,2,1,5,0,0
88265,-166.666666666667,4,2,1,60,0,0
88502,-166.666666666667,4,2,1,5,0,0
88581,-166.666666666667,4,2,1,60,0,0
88897,-83.3333333333333,4,2,1,75,0,1
109107,-83.3333333333333,4,2,1,70,0,0
114160,-83.3333333333333,4,2,1,75,0,1
119212,-125,4,2,1,70,0,0
119449,-125,4,2,1,5,0,0
119528,-125,4,2,1,70,0,0
120081,-125,4,2,1,5,0,0
120160,-125,4,2,1,70,0,0
120712,-125,4,2,1,5,0,0
120791,-125,4,2,1,70,0,0
121344,-125,4,2,1,5,0,0
121423,-125,4,2,1,70,0,0
121976,-125,4,2,1,5,0,0
122054,-125,4,2,1,70,0,0
122607,-125,4,2,1,5,0,0
122686,-83.3333333333333,4,2,1,70,0,0
124265,-83.3333333333333,4,2,1,75,0,1
129318,-166.666666666667,4,2,1,50,0,0
133502,-166.666666666667,4,2,1,5,0,0
133581,-100,4,2,1,50,0,0
134370,-100,4,2,1,70,0,0
138081,-100,4,2,1,5,0,0
138160,-100,4,2,1,70,0,0
146923,-100,4,2,1,5,0,0
147002,-100,4,2,1,70,0,0
152054,-111.111111111111,4,2,1,70,0,0
159633,-200,4,2,1,70,0,0
160818,-200,4,2,1,5,0,0
160897,-100,4,2,1,70,0,0
161133,-100,4,2,1,5,0,0
161212,-100,4,2,1,70,0,0
161449,-100,4,2,1,5,0,0
161528,-166.666666666667,4,2,1,70,0,0
161765,-100,4,2,1,5,0,0
161844,-100,4,2,1,70,0,0
162160,-83.3333333333333,4,2,1,75,0,1
182370,-83.3333333333333,4,2,1,70,0,0
187423,-83.3333333333333,4,2,1,75,0,1
192476,-83.3333333333333,4,2,1,70,0,1
192712,-125,4,2,1,5,0,0
192791,-125,4,2,1,70,0,0
193344,-125,4,2,1,5,0,0
193423,-125,4,2,1,70,0,0
193976,-125,4,2,1,5,0,0
194054,-125,4,2,1,70,0,0
194607,-125,4,2,1,5,0,0
194686,-125,4,2,1,70,0,0
195239,-125,4,2,1,5,0,0
195318,-125,4,2,1,70,0,0
195870,-125,4,2,1,5,0,0
195949,-83.3333333333333,4,2,1,70,0,0
196186,-83.3333333333333,4,2,1,70,0,0
196265,-83.3333333333333,4,2,1,70,0,0
197528,-83.3333333333333,4,2,1,75,0,1
202581,-333.333333333333,4,2,1,70,0,0
203528,-100,4,2,1,70,0,0
203765,-100,4,2,1,5,0,0
203844,-100,4,2,1,70,0,0
224054,-166.666666666667,4,2,1,60,0,0
234081,-166.666666666667,4,2,1,5,0,0
234160,-142.857142857143,4,2,1,60,0,0
235423,-83.3333333333333,4,2,1,75,0,1
255633,-125,4,2,1,60,0,0
260686,-83.3333333333333,4,2,1,75,0,1
265739,-125,4,2,1,70,0,0
265976,-125,4,2,1,5,0,0
266054,-125,4,2,1,70,0,0
266607,-125,4,2,1,5,0,0
266686,-125,4,2,1,70,0,0
267239,-125,4,2,1,5,0,0
267318,-125,4,2,1,70,0,0
267870,-125,4,2,1,5,0,0
267949,-125,4,2,1,70,0,0
268502,-125,4,2,1,5,0,0
268581,-125,4,2,1,70,0,0
269133,-125,4,2,1,5,0,0
269212,-83.3333333333333,4,2,1,70,0,0
269449,-83.3333333333333,4,2,1,70,0,0
269528,-83.3333333333333,4,2,1,70,0,0
270791,-83.3333333333333,4,2,1,75,0,1
275844,-500.000000000003,4,2,1,60,0,0
278370,-66.6666666666667,4,2,1,75,0,1
278607,-66.6666666666667,4,2,1,75,0,1
278686,-66.6666666666667,4,2,1,75,0,1
278923,-66.6666666666667,4,2,1,75,0,1
279002,-66.6666666666667,4,2,1,75,0,1
279239,-66.6666666666667,4,2,1,75,0,1
279318,-66.6666666666667,4,2,1,75,0,1
279554,-66.6666666666667,4,2,1,75,0,1
279633,-83.3333333333333,4,2,1,30,0,0
281331,-83.3333333333333,4,2,1,30,0,0

[Colours]
Combo1 : 98,179,91
Combo2 : 255,121,57
Combo3 : 199,71,94

[HitObjects]
189,219,1739,6,0,P|179:161|167:110,2,101.999996887207,2|2|2,0:0|0:0|0:0,0:0:0:0:
373,129,3002,6,0,P|383:71|395:20,2,101.999996887207,2|2|2,0:0|0:0|0:0,0:0:0:0:
196,314,4265,6,0,P|152:315|104:279,1,101.999996887207,2|2,0:0|0:0,0:0:0:0:
214,188,4897,2,0,P|274:186|324:272,1,152.999995330811,2|2,0:0|0:0,0:0:0:0:
369,352,5528,6,0,B|402:243|317:274|357:147,1,203.999993774414,2|0,0:0|0:0,0:0:0:0:
354,155,6791,6,0,P|288:142|250:136,1,101.999996887207,2|2,0:0|0:0,0:0:0:0:
73,323,7423,2,0,P|123:314|235:293,1,152.999995330811,2|2,0:0|0:0,0:0:0:0:
305,252,8054,2,0,P|345:261|408:274,2,101.999996887207,2|2|2,0:0|0:0|0:0,0:0:0:0:
107,108,9002,2,0,P|150:101|174:98,1,50.9999984436036,2|2,0:0|0:0,0:0:0:0:
217,38,9318,6,0,P|272:48|322:56,1,101.999996887207,2|2,0:0|0:0,0:0:0:0:
174,183,9949,2,0,P|123:191|73:200,1,101.999996887207,2|2,0:0|0:0,0:0:0:0:
166,347,10581,6,0,B|411:355|279:168|523:168,1,407.999987548829,2|0,0:0|0:0,0:0:0:0:
375,13,13107,6,0,B|130:5|262:192|18:192,1,407.999987548829,0|0,0:0|0:0,0:0:0:0:
345,313,15633,6,0,P|370:347|410:263,1,191.249994163513,2|2,0:0|0:0,0:0:0:0:
157,106,17844,5,4,0:0:0:0:
157,106,18160,6,0,P|200:85|248:92,1,85,6|2,1:2|0:0,0:0:0:0:
99,265,18476,2,0,P|56:266|19:246,1,85,10|0,0:2|0:0,0:0:0:0:
212,201,18791,1,2,1:2:0:0:
73,147,18949,1,2,0:0:0:0:
196,294,19107,2,0,P|238:295|275:275,1,85,10|0,0:2|0:0,0:0:0:0:
374,108,19423,6,0,P|363:159|357:205,1,85,2|0,1:2|0:0,0:0:0:0:
290,358,19739,2,0,P|283:315|274:274,1,85,10|0,0:2|0:0,0:0:0:0:
187,129,20054,1,2,1:2:0:0:
327,196,20212,1,0,0:0:0:0:
192,276,20370,2,0,P|154:279|110:254,1,85,8|0,0:2|0:0,0:0:0:0:
263,22,20686,6,0,P|277:74|285:129,1,85,6|0,1:2|0:0,0:0:0:0:
340,288,21002,2,0,P|351:247|359:205,1,85,10|0,0:2|0:0,0:0:0:0:
190,103,21318,2,0,P|176:155|168:210,1,85,2|0,1:2|0:0,0:0:0:0:
135,357,21634,2,0,P|123:316|115:274,1,85,10|0,0:2|0:0,0:0:0:0:
248,184,21949,5,6,1:2:0:0:
223,322,22107,1,2,0:0:0:0:
339,144,22265,1,10,0:2:0:0:
363,279,22423,1,2,0:0:0:0:
224,97,22581,1,6,1:2:0:0:
285,260,22739,1,10,0:2:0:0:
367,70,22897,1,10,0:2:0:0:
367,70,23212,6,0,P|327:85|282:80,1,85,6|0,1:2|0:0,0:0:0:0:
146,138,23528,2,0,P|187:134|227:149,1,85,10|0,0:2|0:0,0:0:0:0:
317,220,23844,2,0,P|331:271|339:326,1,85,2|0,1:2|0:0,0:0:0:0:
434,217,24160,2,0,P|441:175|453:134,1,85,10|0,0:2|0:0,0:0:0:0:
362,39,24476,6,0,P|306:31|264:126,2,170,6|10|2,1:2|0:2|1:2,0:0:0:0:
389,151,25265,1,0,0:0:0:0:
278,219,25423,2,0,P|234:215|198:185,1,85,10|0,0:2|0:0,0:0:0:0:
124,60,25739,6,0,P|110:109|103:159,1,85,6|0,1:2|0:0,0:0:0:0:
124,319,26054,2,0,P|110:270|103:220,1,85,10|0,0:2|0:0,0:0:0:0:
228,107,26370,2,0,P|242:156|249:206,1,85,6|0,1:2|0:0,0:0:0:0:
228,366,26686,2,0,P|242:317|249:274,1,85,10|0,0:2|0:0,0:0:0:0:
301,65,27002,5,14,0:2:0:0:
81,266,27318,5,8,0:2:0:0:
389,347,27633,5,12,0:2:0:0:
170,171,27949,5,4,0:2:0:0:
170,171,28265,6,0,B|262:161|226:228|330:215,1,152.999995330811,6|8,1:2|0:2,0:0:0:0:
462,171,28739,1,2,1:2:0:0:
394,284,28897,1,2,0:0:0:0:
394,284,29054,2,0,P|387:237|377:195,1,76.4999976654053,2|8,1:2|0:2,0:0:0:0:
239,53,29370,6,0,P|262:108|366:108,1,152.999995330811,2|2,0:0|0:0,0:0:0:0:
426,13,29844,1,10,0:2:0:0:
323,42,30002,1,2,1:2:0:0:
424,114,30160,2,0,P|473:122|514:128,1,76.4999976654053,2|0,0:0|1:2,0:0:0:0:
344,174,30476,2,0,P|295:182|254:188,1,76.4999976654053,10|0,0:2|0:0,0:0:0:0:
437,296,30791,6,0,P|443:245|449:197,1,76.4999976654053,2|0,1:2|0:0,0:0:0:0:
321,282,31107,2,0,P|325:319|330:357,1,76.4999976654053,10|0,0:2|1:2,0:0:0:0:
424,287,31423,2,0,P|430:236|436:188,1,76.4999976654053,2|0,0:0|1:2,0:0:0:0:
349,108,31739,1,10,0:2:0:0:
265,194,31897,6,0,P|219:197|155:109,1,152.999995330811,2|2,0:0|0:0,0:0:0:0:
234,25,32370,2,0,P|243:67|244:112,1,76.4999976654053,10|0,0:2|1:2,0:0:0:0:
60,136,32686,2,0,P|51:94|141:43,1,152.999995330811,2|8,0:0|0:2,0:0:0:0:
195,116,33160,1,0,1:2:0:0:
300,23,33318,6,0,P|351:51|455:46,1,152.999995330811,6|8,1:2|0:2,0:0:0:0:
325,137,33791,1,2,1:2:0:0:
462,200,33949,1,2,0:0:0:0:
462,200,34107,2,0,P|413:203|373:228,1,76.4999976654053,2|8,1:2|0:2,0:0:0:0:
320,359,34423,6,0,P|328:306|335:259,1,76.4999976654053,2|0,1:2|1:2,0:0:0:0:
186,163,34739,1,2,0:0:0:0:
186,163,34897,2,0,P|191:200|197:238,1,76.4999976654053,10|2,0:2|1:2,0:0:0:0:
342,107,35212,1,2,0:0:0:0:
300,270,35370,1,2,1:2:0:0:
243,90,35528,2,0,P|206:70|161:72,1,76.4999976654053,10|0,0:2|1:2,0:0:0:0:
359,207,35844,6,0,B|456:228|416:164|525:184,2,152.999995330811,2|10|2,1:2|0:2|1:2,0:0:0:0:
214,106,36633,1,0,0:0:0:0:
214,106,36791,2,0,P|220:161|226:204,1,76.4999976654053,10|2,0:2|0:0,0:0:0:0:
365,313,37107,5,8,0:2:0:0:
389,136,37265,1,2,1:2:0:0:
281,268,37423,1,10,0:2:0:0:
252,88,37581,1,0,1:2:0:0:
356,237,37739,1,10,0:2:0:0:
397,37,37897,1,0,1:2:0:0:
268,171,38054,2,0,P|230:170|195:154,1,76.4999976654053,12|0,0:2|1:2,0:0:0:0:
39,25,38370,6,0,L|47:103,1,68,4|2,1:2|0:0,0:0:0:0:
107,156,38686,2,0,L|99:234,1,68,2|2,0:0|0:0,0:0:0:0:
47,301,39002,1,2,0:0:0:0:
47,301,39160,1,2,0:0:0:0:
137,354,39318,2,0,P|176:346|218:345,1,68,2|2,0:0|0:0,0:0:0:0:
332,279,39633,6,0,P|298:276|264:269,1,68,2|2,0:0|1:2,0:0:0:0:
189,188,39949,1,2,0:0:0:0:
189,188,40107,1,2,0:0:0:0:
274,127,40265,2,0,P|307:129|341:136,1,68,2|2,0:0|1:2,0:0:0:0:
440,194,40581,1,2,0:0:0:0:
440,194,40739,6,0,P|431:141|449:46,1,136,2|2,0:0|0:0,0:0:0:0:
368,7,41212,1,2,0:0:0:0:
289,59,41370,1,2,0:0:0:0:
199,16,41528,1,2,0:0:0:0:
199,16,41686,2,0,P|138:13|78:74,1,136,2|2,0:0|0:0,0:0:0:0:
170,119,42160,5,2,0:0:0:0:
170,119,42318,1,2,1:2:0:0:
84,194,42476,2,0,P|76:227|75:268,1,68,2|0,0:0|0:0,0:0:0:0:
265,346,42791,1,2,1:2:0:0:
194,228,42949,1,2,0:0:0:0:
115,344,43107,2,0,P|80:355|-3:303,1,136,2|0,0:0|0:0,0:0:0:0:
152,149,43581,5,2,1:2:0:0:
152,149,43739,2,0,P|195:139|246:135,1,68,2|2,0:0|0:0,0:0:0:0:
66,233,44054,2,0,P|32:228|0:220,1,68,2|2,0:0|0:0,0:0:0:0:
75,103,44370,1,2,0:0:0:0:
75,103,44528,1,2,0:0:0:0:
155,232,44686,5,2,0:0:0:0:
155,232,44844,2,0,P|161:280|170:379,1,136,2|2,1:2|0:0,0:0:0:0:
269,259,45318,2,0,P|276:211|283:168,1,68,2|2,0:0|1:2,0:0:0:0:
371,304,45633,2,0,P|376:337|381:371,1,68,2|2,0:0|0:0,0:0:0:0:
459,214,45949,5,2,1:2:0:0:
459,214,46107,2,0,P|438:180|325:185,1,136,2|2,0:0|0:0,0:0:0:0:
253,251,46581,1,2,1:2:0:0:
253,251,46739,2,0,P|187:252|143:203,1,136,2|2,0:0|0:0,0:0:0:0:
208,57,47212,5,2,1:2:0:0:
116,124,47370,1,2,0:0:0:0:
116,124,47449,1,2,0:0:0:0:
116,124,47528,2,0,P|67:115|25:107,1,68,2|0,1:2|0:0,0:0:0:0:
221,174,47844,2,0,P|270:165|312:157,1,68,2|0,1:2|0:0,0:0:0:0:
101,257,48160,1,4,0:2:0:0:
101,257,48476,6,0,P|150:263|188:288,1,85,6|0,1:2|0:0,0:0:0:0:
350,332,48791,2,0,P|312:352|270:355,1,85,10|0,0:2|1:2,0:0:0:0:
290,178,49107,1,2,0:0:0:0:
371,254,49265,1,0,1:2:0:0:
206,230,49423,2,0,P|197:185|212:126,1,85,8|0,0:2|0:0,0:0:0:0:
312,38,49739,6,0,P|319:93|327:150,1,85,6|0,1:2|0:0,0:0:0:0:
100,200,50054,2,0,P|105:157|111:115,1,85,10|0,0:2|1:2,0:0:0:0:
237,233,50370,1,2,0:0:0:0:
126,293,50528,1,0,1:2:0:0:
214,134,50686,2,0,P|258:133|303:159,1,85,8|0,0:2|0:0,0:0:0:0:
399,343,51002,6,0,P|346:338|309:311,1,85,6|0,1:2|0:0,0:0:0:0:
391,168,51318,2,0,P|378:221|374:274,1,85,10|0,0:2|1:2,0:0:0:0:
235,351,51633,2,0,P|229:308|218:267,1,85,2|0,0:0|1:2,0:0:0:0:
148,161,51949,2,0,P|185:141|227:139,1,85,10|0,0:2|0:0,0:0:0:0:
138,288,52265,6,0,P|82:282|32:165,1,170,6|10,1:2|0:2,0:0:0:0:
111,87,52739,1,0,1:2:0:0:
190,199,52897,2,0,P|239:193|296:187,1,85,2|0,0:0|1:2,0:0:0:0:
373,81,53212,2,0,P|330:76|288:71,1,85,10|0,0:2|0:0,0:0:0:0:
382,205,53528,5,2,1:2:0:0:
382,205,53686,2,0,P|393:155|384:107,1,85,2|8,0:0|0:2,0:0:0:0:
217,220,54002,2,0,P|213:262|223:303,1,85,2|0,1:2|0:0,0:0:0:0:
362,318,54318,1,2,1:2:0:0:
285,158,54476,2,0,P|250:136|200:136,1,85,10|0,0:2|0:0,0:0:0:0:
59,329,54791,6,0,B|38:217|108:277|76:134,1,170,2|10,1:2|0:2,0:0:0:0:
19,45,55265,2,0,P|56:67|109:64,1,85,2|0,1:2|0:0,0:0:0:0:
233,20,55581,1,0,1:2:0:0:
164,121,55739,2,0,P|206:122|242:143,1,85,10|0,0:2|0:0,0:0:0:0:
200,298,56054,6,0,P|195:244|192:192,1,85,2|0,1:2|0:0,0:0:0:0:
384,156,56370,2,0,P|381:198|377:240,1,85,10|0,0:2|1:2,0:0:0:0:
191,305,56686,2,0,P|186:251|183:199,1,85,2|0,0:0|1:2,0:0:0:0:
392,151,57002,2,0,P|389:193|385:235,1,85,10|0,0:2|0:0,0:0:0:0:
270,68,57318,6,0,P|247:69|219:76,3,42.5,6|2|2|2,1:2|0:0|0:0|0:0,0:0:0:0:
306,48,57633,2,0,P|348:59|416:64,1,85,6|2,1:2|0:0,0:0:0:0:
208,125,57949,1,6,1:2:0:0:
314,166,58107,1,0,0:0:0:0:
204,221,58265,1,14,0:2:0:0:
309,259,58423,1,0,0:0:0:0:
194,314,58581,6,0,P|152:325|84:330,1,85,6|0,1:2|0:0,0:0:0:0:
27,153,58897,2,0,P|69:158|110:168,1,85,10|0,0:2|1:2,0:0:0:0:
44,273,59212,1,2,0:2:0:0:
196,217,59370,1,0,1:2:0:0:
86,143,59528,2,0,P|80:91|88:41,1,85,8|0,0:2|0:0,0:0:0:0:
246,15,59844,6,0,P|249:57|243:99,1,85,2|0,1:2|0:0,0:0:0:0:
356,264,60160,2,0,P|350:222|353:179,1,85,10|0,0:2|1:2,0:0:0:0:
395,55,60476,1,2,0:0:0:0:
264,126,60633,1,0,1:2:0:0:
386,209,60791,2,0,P|439:200|467:167,1,85,8|0,0:2|0:0,0:0:0:0:
292,38,61107,6,0,P|242:36|199:66,1,85,2|0,1:2|0:0,0:0:0:0:
146,212,61423,2,0,P|196:214|239:184,1,85,10|0,0:2|1:2,0:0:0:0:
120,33,61739,2,0,P|121:83|134:140,1,85,2|0,0:0|1:2,0:0:0:0:
318,221,62054,2,0,P|324:179|325:136,1,85,10|0,0:2|0:0,0:0:0:0:
191,270,62370,6,0,P|124:274|63:179,1,170,2|10,1:2|0:2,0:0:0:0:
182,123,62844,1,0,1:2:0:0:
287,234,63002,2,0,P|325:255|377:250,1,85,2|0,0:0|1:2,0:0:0:0:
364,100,63318,2,0,P|327:79|285:79,1,85,10|0,0:2|0:0,0:0:0:0:
111,189,63633,5,2,1:2:0:0:
111,189,63791,2,0,P|121:242|130:308,1,85,2|8,0:0|0:2,0:0:0:0:
234,46,64107,2,0,P|224:99|215:165,1,85,2|0,1:2|0:0,0:0:0:0:
289,266,64423,1,2,1:2:0:0:
386,111,64581,2,0,P|396:164|405:230,1,85,10|0,0:2|0:0,0:0:0:0:
213,306,64897,5,2,1:2:0:0:
213,306,65054,2,0,P|167:285|105:279,1,85,2|8,0:0|0:2,0:0:0:0:
266,179,65370,2,0,P|307:170|345:151,1,85,2|0,1:2|0:0,0:0:0:0:
156,64,65686,1,0,1:2:0:0:
309,9,65844,2,0,P|350:17|388:36,1,85,10|0,0:2|0:0,0:0:0:0:
73,126,66160,6,0,P|57:79|69:23,1,85,2|0,1:2|0:0,0:0:0:0:
231,174,66476,2,0,P|233:216|218:255,1,85,10|0,0:2|1:2,0:0:0:0:
192,54,66791,2,0,P|242:48|298:40,1,85,2|0,0:0|1:2,0:0:0:0:
98,220,67107,2,0,P|55:214|13:209,1,85,10|0,0:2|0:0,0:0:0:0:
85,24,67423,5,6,1:2:0:0:
228,265,67739,5,4,1:2:0:0:
385,30,68054,5,4,1:2:0:0:
103,142,68370,5,8,0:2:0:0:
103,142,68686,6,0,P|162:153|201:162,1,76.4999976654053,6|2,1:2|0:0,0:0:0:0:
293,240,69002,1,10,0:2:0:0:
176,290,69160,1,2,1:2:0:0:
285,137,69318,2,0,P|333:144|380:258,1,152.999995330811,2|10,1:2|0:2,0:0:0:0:
287,347,69791,6,0,P|283:304|276:244,2,76.4999976654053,2|0|2,0:0|1:2|1:2,0:0:0:0:
228,161,70265,2,0,P|187:144|147:147,1,76.4999976654053,10|0,0:2|1:2,0:0:0:0:
368,276,70581,2,0,P|405:275|440:259,1,76.4999976654053,2|0,1:2|0:0,0:0:0:0:
210,305,70897,1,8,0:2:0:0:
210,305,71212,6,0,P|147:291|50:277,1,152.999995330811,2|10,1:2|0:2,0:0:0:0:
230,171,71686,1,2,1:2:0:0:
230,171,71844,2,0,P|285:160|337:153,2,76.4999976654053,2|2|10,1:2|0:0|0:2,0:0:0:0:
137,109,72318,6,0,P|144:49|248:30,1,152.999995330811,2|0,0:0|1:2,0:0:0:0:
316,80,72791,2,0,P|356:101|403:102,1,76.4999976654053,10|0,0:2|1:2,0:0:0:0:
206,177,73107,1,2,1:2:0:0:
356,256,73265,1,8,0:2:0:0:
216,322,73423,1,8,0:2:0:0:
216,322,73739,6,0,P|209:237|198:135,1,152.999995330811,2|10,1:2|0:2,0:0:0:0:
337,34,74212,1,2,1:2:0:0:
337,34,74370,2,0,P|326:86|320:133,1,76.4999976654053,2|0,1:2|0:0,0:0:0:0:
205,22,74686,1,8,0:2:0:0:
280,181,74844,6,0,P|315:200|360:199,1,76.4999976654053,2|0,0:0|1:2,0:0:0:0:
198,48,75160,2,0,P|160:49|126:68,1,76.4999976654053,2|8,1:2|0:2,0:0:0:0:
195,218,75476,1,2,1:2:0:0:
308,87,75633,2,0,P|345:88|379:107,1,76.4999976654053,2|2,1:2|0:0,0:0:0:0:
293,258,75949,1,10,0:2:0:0:
293,258,76265,5,2,1:2:0:0:
323,167,76423,1,2,0:0:0:0:
426,315,76581,1,10,0:2:0:0:
400,214,76739,1,2,1:2:0:0:
300,346,76897,2,0,L|222:329,1,76.4999976654053,2|0,1:2|0:0,0:0:0:0:
103,181,77212,2,0,L|181:164,1,76.4999976654053,10|0,0:2|0:0,0:0:0:0:
271,104,77528,5,2,1:2:0:0:
211,252,77686,1,2,0:0:0:0:
183,40,77844,1,2,1:2:0:0:
289,325,78160,1,2,1:2:0:0:
381,40,78476,5,10,0:2:0:0:
381,40,78791,6,0,P|329:71|216:-3,1,203.999993774414,6|2,0:0|0:0,0:0:0:0:
217,4,79897,1,2,0:0:0:0:
158,64,80054,6,0,B|233:253|102:183|177:377,1,305.999990661621,2|2,0:0|0:0,0:0:0:0:
318,243,81318,6,0,P|372:229|447:346,2,203.999993774414,2|2|2,0:0|0:0|0:0,0:0:0:0:
96,342,83528,5,2,0:0:0:0:
96,342,83844,2,0,B|90:225|90:225|56:173|56:173|51:38,1,305.999990661621,2|2,0:0|0:0,0:0:0:0:
321,74,85107,6,0,P|381:25|409:173,1,305.999990661621,2|2,0:0|0:0,0:0:0:0:
83,259,86370,6,0,B|187:318|306:258|213:221|342:159|447:213,1,382.499988327027,2|0,0:0|0:0,0:0:0:0:
472,234,87633,5,2,1:2:0:0:
472,234,87949,1,2,1:2:0:0:
472,234,88265,2,0,L|462:348,1,101.999996887207,2|6,1:2|0:2,0:0:0:0:
105,90,88897,6,0,P|128:162|129:327,1,203.999993774414,6|10,1:2|0:2,0:0:0:0:
229,104,89370,2,0,P|262:75|335:79,1,101.999996887207,2|0,0:2|1:2,0:0:0:0:
365,285,89686,2,0,P|314:283|275:252,1,101.999996887207,2|8,0:2|0:2,0:0:0:0:
453,106,90002,2,0,P|437:162|430:226,1,101.999996887207,2|0,0:2|1:2,0:0:0:0:
263,27,90318,5,2,0:2:0:0:
320,172,90476,1,8,0:2:0:0:
388,40,90633,1,2,0:2:0:0:
231,152,90791,2,0,P|174:160|114:169,1,101.999996887207,6|0,1:2|0:0,0:0:0:0:
298,290,91107,2,0,P|348:297|398:304,1,101.999996887207,14|0,0:2|0:0,0:0:0:0:
486,109,91423,6,0,P|436:92|355:203,1,203.999993774414,6|10,1:2|0:2,0:0:0:0:
451,337,91897,2,0,P|469:280|453:230,1,101.999996887207,2|0,0:2|1:2,0:0:0:0:
243,158,92212,2,0,P|233:207|251:254,1,101.999996887207,2|8,0:2|0:2,0:0:0:0:
379,57,92528,2,0,P|324:48|264:39,1,101.999996887207,2|0,0:2|1:2,0:0:0:0:
93,187,92844,5,2,0:2:0:0:
233,120,93002,1,8,0:2:0:0:
90,54,93160,1,2,0:2:0:0:
199,245,93318,2,0,P|253:245|300:205,1,101.999996887207,6|0,1:2|0:0,0:0:0:0:
115,107,93633,2,0,P|61:107|14:147,1,101.999996887207,14|0,0:2|0:0,0:0:0:0:
176,354,93949,6,0,P|186:269|205:124,1,203.999993774414,6|10,1:2|0:2,0:0:0:0:
360,30,94423,2,0,P|368:86|379:170,1,101.999996887207,2|0,0:2|1:2,0:0:0:0:
158,253,94739,2,0,P|165:202|172:152,1,101.999996887207,2|8,0:2|0:2,0:0:0:0:
456,262,95054,6,0,P|417:323|284:294,1,203.999993774414,6|0,0:2|0:0,0:0:0:0:
184,132,95528,2,0,P|146:104|72:109,1,101.999996887207,10|0,0:2|0:0,0:0:0:0:
316,215,95844,2,0,P|366:212|407:183,1,101.999996887207,2|0,1:2|0:0,0:0:0:0:
107,193,96160,2,0,P|79:240|88:311,1,101.999996887207,10|0,0:2|0:0,0:0:0:0:
334,117,96476,6,0,P|318:47|180:59,1,203.999993774414,6|10,1:2|0:2,0:0:0:0:
227,264,96949,2,0,P|287:247|345:233,1,101.999996887207,2|0,0:2|1:2,0:0:0:0:
134,155,97265,2,0,P|84:142|35:128,1,101.999996887207,2|8,0:2|0:2,0:0:0:0:
181,263,97581,1,2,0:2:0:0:
263,91,97739,5,2,1:2:0:0:
291,277,97897,1,0,0:0:0:0:
412,64,98054,1,10,0:2:0:0:
396,232,98212,1,0,0:0:0:0:
246,85,98370,5,2,1:2:0:0:
279,292,98528,1,0,0:0:0:0:
433,59,98685,1,10,0:2:0:0:
411,249,98843,1,0,0:0:0:0:
267,176,99002,6,0,B|148:157|202:267|48:229,1,203.999993774414,6|10,1:2|0:2,0:0:0:0:
23,107,99476,2,0,P|77:106|127:150,1,101.999996887207,2|0,0:2|1:2,0:0:0:0:
239,266,99791,2,0,P|293:267|343:223,1,101.999996887207,2|8,0:2|0:2,0:0:0:0:
264,29,100107,6,0,P|253:88|245:154,1,101.999996887207,6|0,0:2|1:2,0:0:0:0:
124,310,100423,2,0,P|117:259|107:209,1,101.999996887207,2|8,0:2|0:2,0:0:0:0:
56,67,100739,1,2,0:2:0:0:
26,206,100897,1,0,1:2:0:0:
158,86,101054,1,0,0:0:0:0:
189,232,101212,1,8,0:2:0:0:
91,138,101370,1,0,0:0:0:0:
113,308,101528,6,0,P|182:347|296:279,1,203.999993774414,6|10,1:2|0:2,0:0:0:0:
290,122,102002,2,0,P|251:95|182:102,1,101.999996887207,2|0,0:2|1:2,0:0:0:0:
365,248,102318,2,0,P|415:248|457:220,1,101.999996887207,2|8,0:2|0:2,0:0:0:0:
369,82,102633,1,6,0:2:0:0:
266,242,102791,5,0,1:2:0:0:
176,64,102949,1,2,0:2:0:0:
156,252,103107,1,8,0:2:0:0:
260,96,103265,1,2,0:2:0:0:
272,260,103423,5,0,1:2:0:0:
182,82,103581,1,0,0:0:0:0:
162,270,103739,1,8,0:2:0:0:
266,114,103897,1,0,0:0:0:0:
356,329,104054,6,0,P|459:343|489:237,1,203.999993774414,6|10,1:2|0:2,0:0:0:0:
374,161,104528,2,0,P|327:133|264:141,1,101.999996887207,2|0,0:2|1:2,0:0:0:0:
166,305,104844,2,0,P|216:304|258:278,1,101.999996887207,2|8,0:2|0:2,0:0:0:0:
173,113,105160,6,0,P|184:185|191:239,1,101.999996887207,6|0,0:2|1:2,0:0:0:0:
413,78,105476,2,0,P|402:150|395:204,1,101.999996887207,2|8,0:2|0:2,0:0:0:0:
269,28,105791,1,2,0:2:0:0:
356,254,105949,2,0,P|415:269|480:285,1,101.999996887207,2|0,1:2|0:0,0:0:0:0:
194,114,106265,2,0,P|144:126|95:138,1,101.999996887207,10|0,0:2|0:0,0:0:0:0:
231,269,106581,5,6,1:2:0:0:
271,59,106739,1,2,0:2:0:0:
351,246,106897,1,10,0:2:0:0:
292,37,107054,1,2,0:2:0:0:
305,271,107212,5,2,1:2:0:0:
377,69,107370,1,2,0:2:0:0:
449,295,107528,1,10,0:2:0:0:
391,93,107686,1,2,0:2:0:0:
171,142,107844,5,2,1:2:0:0:
346,187,108002,1,10,0:2:0:0:
142,291,108160,1,2,1:2:0:0:
346,281,108318,1,2,0:2:0:0:
88,189,108476,5,10,0:2:0:0:
268,229,108634,1,10,0:2:0:0:
63,347,108792,1,2,1:2:0:0:
248,327,108950,1,10,0:2:0:0:
8,258,109107,5,14,0:2:0:0:
281,45,110212,5,14,0:2:0:0:
390,325,111002,5,14,0:2:0:0:
100,218,111318,1,14,0:2:0:0:
257,143,111476,5,0,1:2:0:0:
257,143,111554,1,0,1:2:0:0:
257,143,111633,1,6,1:2:0:0:
50,355,112739,5,14,0:2:0:0:
395,43,113528,5,14,0:0:0:0:
432,303,113844,1,14,0:0:0:0:
274,93,114002,5,0,1:0:0:0:
274,93,114081,1,0,1:0:0:0:
274,93,114160,2,0,P|223:66|165:77,1,101.999996887207,6|0,1:2|0:0,0:0:0:0:
65,129,114476,1,10,0:2:0:0:
217,238,114633,2,0,P|166:265|108:254,1,101.999996887207,2|0,0:2|1:2,0:0:0:0:
286,128,114949,2,0,P|305:185|320:263,1,101.999996887207,2|8,0:0|0:2,0:0:0:0:
464,356,115265,6,0,P|474:267|502:134,1,203.999993774414,6|0,0:0|0:0,0:0:0:0:
445,30,115739,2,0,P|401:69|344:69,1,101.999996887207,10|0,0:2|0:0,0:0:0:0:
148,58,116054,2,0,P|197:65|233:101,1,101.999996887207,2|0,1:2|0:0,0:0:0:0:
315,288,116370,2,0,P|327:232|340:162,1,101.999996887207,8|0,0:0|0:0,0:0:0:0:
51,37,116686,6,0,P|60:113|180:153,1,203.999993774414,6|10,1:2|0:2,0:0:0:0:
374,58,117160,2,0,P|321:27|266:32,1,101.999996887207,2|0,0:0|1:2,0:0:0:0:
373,215,117476,2,0,P|423:212|465:184,1,101.999996887207,2|8,0:0|0:2,0:0:0:0:
249,125,117791,1,2,0:0:0:0:
322,296,117949,5,2,1:2:0:0:
406,123,118106,1,2,0:0:0:0:
447,318,118265,1,10,0:2:0:0:
317,159,118422,1,2,0:0:0:0:
313,311,118581,5,2,1:2:0:0:
410,110,118739,1,2,0:0:0:0:
457,338,118897,1,8,0:2:0:0:
307,152,119054,1,10,0:2:0:0:
230,360,119212,6,0,P|165:364|121:317,1,102,0|0,0:0|0:0,0:0:0:0:
114,310,119528,6,0,B|80:161|188:231|140:59,1,238,12|0,0:2|0:0,0:0:0:0:
162,60,120160,6,0,B|93:78|97:-30|265:-7|294:70,1,238,12|0,0:0|0:0,0:0:0:0:
327,58,120791,6,0,P|302:121|302:294,1,238,12|0,0:0|0:0,0:0:0:0:
293,318,121423,6,0,P|240:357|242:236,1,238,12|0,0:0|0:0,0:0:0:0:
237,203,122054,6,0,B|374:247|330:139|465:177,1,238,12|0,0:0|0:0,0:0:0:0:
488,202,122686,6,0,P|432:210|389:187,1,101.999996887207,12|2,0:0|0:0,0:0:0:0:
197,55,123002,5,0,1:2:0:0:
356,88,123160,1,10,0:2:0:0:
178,200,123318,1,8,0:2:0:0:
344,182,123476,1,2,1:2:0:0:
131,112,123633,1,8,0:2:0:0:
294,35,123791,1,8,0:2:0:0:
235,205,123949,1,8,0:2:0:0:
145,37,124107,1,8,0:2:0:0:
322,147,124265,6,0,P|342:213|308:376,1,203.999993774414,6|10,1:2|0:2,0:0:0:0:
183,301,124739,2,0,P|168:240|176:191,1,101.999996887207,2|0,0:0|1:2,0:0:0:0:
354,175,125054,2,0,P|368:223|364:274,1,101.999996887207,2|8,0:0|0:2,0:0:0:0:
265,77,125370,6,0,P|314:42|374:51,1,101.999996887207,2|0,0:0|1:2,0:0:0:0:
218,252,125686,2,0,P|167:249|129:217,1,101.999996887207,2|8,0:0|0:2,0:0:0:0:
204,133,126002,1,2,0:0:0:0:
326,233,126160,2,0,P|338:297|348:361,1,101.999996887207,2|0,1:2|0:0,0:0:0:0:
462,167,126476,2,0,P|470:116|479:66,1,101.999996887207,10|0,0:2|0:0,0:0:0:0:
239,24,126791,5,6,1:2:0:0:
397,81,126949,1,2,0:2:0:0:
195,165,127107,1,14,0:2:0:0:
384,109,127265,1,2,0:0:0:0:
125,91,127423,5,6,1:2:0:0:
311,148,127581,1,2,0:0:0:0:
114,233,127739,1,14,0:2:0:0:
307,179,127897,1,2,0:0:0:0:
175,327,128054,5,2,1:2:0:0:
206,128,128212,1,10,0:2:0:0:
348,300,128370,1,10,0:2:0:0:
320,83,128528,1,2,0:0:0:0:
166,341,128686,5,10,0:2:0:0:
201,118,128844,1,10,0:2:0:0:
360,311,129002,1,2,1:2:0:0:
327,66,129160,1,10,0:2:0:0:
172,231,129318,6,0,P|127:229|85:185,2,101.999996887207,4|2|2,0:2|0:0|0:0,0:0:0:0:
393,149,130581,6,0,P|438:151|480:195,2,101.999996887207,2|2|2,0:0|0:0|0:0,0:0:0:0:
216,367,131844,6,0,P|215:308|203:244,1,101.999996887207,2|2,0:0|0:0,0:0:0:0:
301,17,132476,2,0,P|293:67|293:118,1,101.999996887207,2|2,0:0|0:0,0:0:0:0:
446,218,133107,5,2,0:0:0:0:
323,285,133423,1,2,0:0:0:0:
440,359,133739,1,2,0:0:0:0:
362,44,134370,5,6,1:2:0:0:
103,325,135633,5,4,1:2:0:0:
176,70,136897,5,4,1:2:0:0:
377,141,137212,5,4,1:2:0:0:
128,225,137528,5,6,1:2:0:0:
402,343,137844,6,0,P|414:301|364:325,1,127.5,12|0,0:2|0:0,0:0:0:0:
356,365,138160,6,0,B|246:350|328:310|196:291,1,170,6|10,1:2|0:2,0:0:0:0:
69,362,138633,2,0,P|88:302|85:177,1,170,2|2,1:2|1:2,0:0:0:0:
53,50,139107,1,10,0:2:0:0:
153,153,139265,1,2,1:2:0:0:
233,20,139423,6,0,P|308:13|370:97,1,170,6|10,1:2|0:2,0:0:0:0:
287,304,139897,2,0,P|274:255|279:101,1,170,2|2,1:2|1:2,0:0:0:0:
452,48,140370,1,10,0:2:0:0:
393,183,140528,1,2,1:2:0:0:
268,45,140686,6,0,B|165:36|220:112|84:92,1,170,6|10,1:2|0:2,0:0:0:0:
28,266,141160,2,0,P|88:234|196:267,1,170,2|2,1:2|1:2,0:0:0:0:
324,363,141633,1,10,0:2:0:0:
312,187,141791,1,2,1:2:0:0:
77,350,142265,5,6,1:2:0:0:
166,41,142581,1,6,1:2:0:0:
366,269,142897,5,12,0:2:0:0:
51,189,143212,5,6,1:2:0:0:
383,54,144476,5,4,1:2:0:0:
292,351,145739,5,6,1:2:0:0:
89,268,146054,5,6,1:2:0:0:
329,187,146370,5,6,1:2:0:0:
99,117,146686,6,0,P|87:76|134:108,1,127.5,14|0,0:2|0:0,0:0:0:0:
167,126,147002,6,0,B|275:152|221:71|351:99,1,170,6|10,1:2|0:2,0:0:0:0:
447,266,147476,2,0,P|392:309|286:293,1,170,2|2,1:2|1:2,0:0:0:0:
224,125,147949,1,10,0:2:0:0:
357,193,148107,1,2,1:2:0:0:
171,368,148265,6,0,P|168:286|141:179,1,170,6|10,1:2|0:2,0:0:0:0:
308,24,148739,2,0,P|288:90|280:209,1,170,2|2,1:2|1:2,0:0:0:0:
109,17,149212,1,10,0:2:0:0:
262,77,149370,1,2,1:2:0:0:
142,219,149528,6,0,P|83:230|28:136,1,170,6|10,1:2|0:2,0:0:0:0:
200,21,150002,2,0,P|259:10|314:104,1,170,2|2,1:2|1:2,0:0:0:0:
198,272,150476,1,10,0:2:0:0:
126,96,150633,1,2,1:2:0:0:
456,248,151107,5,4,1:2:0:0:
73,311,151423,1,4,1:2:0:0:
253,58,151739,5,12,0:0:0:0:
253,58,152054,6,0,P|265:119|270:163,1,76.4999976654053,6|0,1:2|0:0,0:0:0:0:
241,269,152370,1,8,0:2:0:0:
386,160,152528,2,0,P|375:226|363:339,1,152.999995330811,0|0,1:2|1:2,0:0:0:0:
188,173,153002,1,8,0:2:0:0:
320,105,153160,1,2,1:2:0:0:
225,289,153318,6,0,P|170:274|121:266,1,76.4999976654053,6|0,1:2|0:0,0:0:0:0:
19,306,153633,1,8,0:2:0:0:
229,140,153791,2,0,P|165:159|60:166,1,152.999995330811,0|0,1:2|1:2,0:0:0:0:
224,29,154265,2,0,P|272:35|303:61,1,76.4999976654053,10|0,0:2|1:2,0:0:0:0:
421,248,154581,6,0,P|430:197|440:148,1,76.4999976654053,6|0,1:2|0:0,0:0:0:0:
390,52,154897,1,8,0:2:0:0:
310,201,155054,2,0,P|261:213|179:125,1,152.999995330811,0|0,1:2|1:2,0:0:0:0:
158,19,155528,1,8,0:2:0:0:
265,99,155686,1,0,1:2:0:0:
81,188,155844,6,0,P|76:137|66:91,1,76.4999976654053,6|0,1:2|0:0,0:0:0:0:
182,247,156160,1,8,0:2:0:0:
271,87,156318,2,0,P|309:49|424:77,1,152.999995330811,0|0,1:2|1:2,0:0:0:0:
441,225,156791,2,0,P|392:220|361:192,1,76.4999976654053,10|0,0:2|1:2,0:0:0:0:
182,72,157107,6,0,P|203:145|208:237,1,152.999995330811,6|8,1:2|0:2,0:0:0:0:
80,360,157581,2,0,P|30:347|33:237,1,152.999995330811,0|0,1:2|1:2,0:0:0:0:
107,146,158054,1,10,0:2:0:0:
180,258,158212,1,0,1:2:0:0:
279,137,158370,6,0,B|368:147|320:201|413:208,1,152.999995330811,6|8,1:2|0:2,0:0:0:0:
414,367,158844,2,0,P|366:371|293:273,1,152.999995330811,0|0,1:2|1:2,0:0:0:0:
424,128,159318,1,8,0:2:0:0:
382,276,159476,1,0,1:2:0:0:
344,64,159633,6,0,B|177:61|279:237|85:229,1,318.75,2|0,0:0|0:0,0:0:0:0:
61,231,160897,5,2,1:2:0:0:
61,231,161212,1,2,1:2:0:0:
61,231,161528,2,0,L|78:353,1,101.999996887207,2|6,1:2|0:2,0:0:0:0:
416,262,162160,6,0,B|445:140|357:181|396:46,1,203.999993774414,6|10,1:2|0:2,0:0:0:0:
294,255,162633,2,0,P|254:285|204:286,1,101.999996887207,2|0,0:2|1:2,0:0:0:0:
136,73,162949,2,0,P|186:73|226:103,1,101.999996887207,2|8,0:2|0:2,0:0:0:0:
56,272,163265,2,0,P|49:205|41:150,1,101.999996887207,2|0,0:2|1:2,0:0:0:0:
235,303,163581,5,2,0:2:0:0:
93,363,163739,1,8,0:2:0:0:
151,219,163897,1,2,0:2:0:0:
264,337,164054,2,0,P|310:360|368:348,1,101.999996887207,6|0,1:2|0:0,0:0:0:0:
384,165,164370,2,0,P|338:142|280:154,1,101.999996887207,14|0,0:2|0:0,0:0:0:0:
132,257,164686,6,0,P|73:272|4:155,1,203.999993774414,6|10,1:2|0:2,0:0:0:0:
252,94,165160,2,0,P|268:145|245:210,1,101.999996887207,2|0,0:2|1:2,0:0:0:0:
81,124,165476,2,0,P|70:74|86:26,1,101.999996887207,2|8,0:2|0:2,0:0:0:0:
215,320,165791,2,0,P|164:309|115:299,1,101.999996887207,2|0,0:2|1:2,0:0:0:0:
416,186,166107,5,2,0:2:0:0:
271,258,166265,1,8,0:2:0:0:
410,343,166423,1,2,0:2:0:0:
298,151,166581,2,0,P|248:161|198:171,1,101.999996887207,6|0,1:2|0:0,0:0:0:0:
411,266,166897,2,0,P|460:276|510:286,1,101.999996887207,14|0,0:2|0:0,0:0:0:0:
301,24,167212,6,0,B|274:146|356:102|314:239,1,203.999993774414,6|10,1:2|0:2,0:0:0:0:
394,62,167686,2,0,P|445:40|501:61,1,101.999996887207,2|0,0:2|1:2,0:0:0:0:
319,220,168002,2,0,P|270:230|224:209,1,101.999996887207,2|8,0:2|0:2,0:0:0:0:
56,122,168317,6,0,P|95:61|228:90,1,203.999993774414,6|0,0:2|0:0,0:0:0:0:
378,275,168791,2,0,P|384:215|398:144,1,101.999996887207,10|0,0:2|0:0,0:0:0:0:
219,41,169107,2,0,P|227:91|232:142,1,101.999996887207,2|0,1:2|0:0,0:0:0:0:
391,277,169423,2,0,P|397:217|411:146,1,101.999996887207,10|0,0:2|0:0,0:0:0:0:
178,267,169739,6,0,P|194:337|332:325,1,203.999993774414,6|10,1:2|0:2,0:0:0:0:
268,118,170212,2,0,P|223:107|165:134,1,101.999996887207,2|0,0:2|1:2,0:0:0:0:
344,255,170528,2,0,P|390:274|439:263,1,101.999996887207,2|8,0:2|0:2,0:0:0:0:
351,121,170844,1,2,0:2:0:0:
238,323,171002,5,2,1:2:0:0:
259,123,171160,1,0,0:0:0:0:
149,308,171318,1,10,0:2:0:0:
125,107,171476,1,0,0:0:0:0:
247,337,171633,5,2,1:2:0:0:
270,110,171791,1,0,0:0:0:0:
145,320,171949,1,10,0:2:0:0:
120,94,172107,1,0,0:0:0:0:
246,210,172265,6,0,B|365:229|311:119|465:157,1,203.999993774414,6|10,1:2|0:2,0:0:0:0:
419,339,172739,2,0,P|409:263|401:207,1,101.999996887207,2|0,0:2|1:2,0:0:0:0:
285,29,173054,2,0,P|278:79|271:130,1,101.999996887207,2|8,0:2|0:2,0:0:0:0:
206,277,173370,6,0,P|261:292|308:272,1,101.999996887207,6|0,0:2|1:2,0:0:0:0:
454,126,173686,2,0,P|399:111|352:131,1,101.999996887207,2|8,0:2|0:2,0:0:0:0:
239,179,174002,1,2,0:2:0:0:
413,212,174160,1,0,1:2:0:0:
259,318,174318,1,0,0:0:0:0:
333,145,174476,1,8,0:2:0:0:
430,304,174633,1,0,0:0:0:0:
416,60,174791,6,0,B|299:41|350:148|200:109,1,203.999993774414,6|10,1:2|0:2,0:0:0:0:
261,301,175265,2,0,P|270:238|284:181,1,101.999996887207,2|0,0:2|1:2,0:0:0:0:
117,47,175581,2,0,P|127:96|134:147,1,101.999996887207,2|8,0:2|0:2,0:0:0:0:
137,297,175896,1,6,0:2:0:0:
245,138,176054,5,0,1:2:0:0:
342,330,176212,1,2,0:2:0:0:
363,127,176370,1,8,0:2:0:0:
251,295,176528,1,2,0:2:0:0:
238,118,176686,5,0,1:2:0:0:
335,310,176844,1,0,0:0:0:0:
357,107,177002,1,8,0:2:0:0:
245,276,177160,1,0,0:0:0:0:
135,31,177318,6,0,P|117:96|122:243,1,203.999993774414,6|10,1:2|0:2,0:0:0:0:
222,335,177791,2,0,P|271:360|323:352,1,101.999996887207,2|0,0:2|1:2,0:0:0:0:
94,189,178107,2,0,P|43:184|0:208,1,101.999996887207,2|8,0:2|0:2,0:0:0:0:
273,239,178423,6,0,P|279:170|295:103,1,101.999996887207,6|0,0:2|1:2,0:0:0:0:
75,275,178739,2,0,P|83:325|87:376,1,101.999996887207,2|8,0:2|0:2,0:0:0:0:
179,123,179054,1,2,0:2:0:0:
259,276,179212,2,0,P|333:285|388:293,1,101.999996887207,2|0,1:2|0:0,0:0:0:0:
103,171,179528,2,0,P|52:177|1:183,1,101.999996887207,10|0,0:2|0:0,0:0:0:0:
247,30,179844,5,6,1:2:0:0:
210,227,180002,1,2,0:2:0:0:
338,80,180160,1,10,0:2:0:0:
364,262,180318,1,2,0:2:0:0:
185,92,180476,5,2,1:2:0:0:
148,289,180634,1,2,0:2:0:0:
277,142,180792,1,10,0:2:0:0:
302,324,180950,1,2,0:2:0:0:
82,189,181107,5,2,1:2:0:0:
291,247,181265,1,10,0:2:0:0:
73,339,181423,1,2,1:2:0:0:
295,281,181581,1,2,0:2:0:0:
160,126,181739,5,10,0:2:0:0:
369,184,181897,1,10,0:2:0:0:
152,276,182055,1,2,1:2:0:0:
374,218,182213,1,10,0:2:0:0:
239,43,182370,5,14,0:2:0:0:
231,339,183475,5,14,0:2:0:0:
422,43,184265,5,14,0:2:0:0:
367,308,184581,1,14,0:2:0:0:
293,133,184739,5,0,1:2:0:0:
293,133,184818,1,0,1:2:0:0:
293,133,184897,1,6,1:2:0:0:
462,29,186002,5,14,0:2:0:0:
117,341,186791,5,14,0:0:0:0:
80,81,187107,1,14,0:0:0:0:
238,291,187265,5,0,1:0:0:0:
238,291,187344,1,0,1:0:0:0:
238,291,187423,2,0,P|289:318|404:242,1,203.999993774414,6|10,1:2|0:2,0:0:0:0:
337,49,187897,2,0,P|322:117|318:176,1,101.999996887207,2|0,0:2|1:2,0:0:0:0:
201,264,188212,2,0,P|194:213|182:163,1,101.999996887207,2|8,0:0|0:2,0:0:0:0:
48,28,188528,6,0,P|26:116|10:250,1,203.999993774414,6|0,0:0|0:0,0:0:0:0:
67,354,189002,2,0,P|111:315|168:315,1,101.999996887207,10|0,0:2|0:0,0:0:0:0:
364,326,189318,2,0,P|315:319|279:283,1,101.999996887207,2|0,1:2|0:0,0:0:0:0:
197,96,189633,2,0,P|185:152|172:222,1,101.999996887207,8|0,0:0|0:0,0:0:0:0:
491,234,189949,6,0,B|378:252|419:158|297:175,1,203.999993774414,6|10,1:2|0:2,0:0:0:0:
209,338,190423,2,0,P|267:334|303:294,1,101.999996887207,2|0,0:0|1:2,0:0:0:0:
169,177,190739,2,0,P|111:181|75:221,1,101.999996887207,2|8,0:0|0:2,0:0:0:0:
234,299,191054,1,2,0:0:0:0:
186,71,191212,5,2,1:2:0:0:
134,273,191370,1,2,0:0:0:0:
287,124,191528,1,10,0:2:0:0:
331,337,191686,1,2,0:0:0:0:
213,52,191844,5,2,1:2:0:0:
161,253,192002,1,2,0:0:0:0:
314,105,192160,1,8,0:2:0:0:
355,311,192318,1,10,0:2:0:0:
235,45,192476,6,0,P|329:14|379:55,1,152.999995330811,0|0,0:0|0:0,0:0:0:0:
398,74,192791,6,0,B|432:223|324:153|372:325,1,238,12|0,0:2|0:0,0:0:0:0:
350,324,193423,6,0,B|419:306|415:414|247:391|218:314,1,238,12|0,0:0|0:0,0:0:0:0:
185,326,194054,6,0,P|210:263|210:90,1,238,12|0,0:0|0:0,0:0:0:0:
219,66,194686,6,0,P|272:27|270:148,1,238,12|0,0:0|0:0,0:0:0:0:
275,181,195317,6,0,B|138:137|182:245|47:207,1,238,12|0,0:0|0:0,0:0:0:0:
24,182,195949,6,0,P|80:174|140:210,1,101.999996887207,12|2,0:0|0:0,0:0:0:0:
247,318,196265,5,0,1:2:0:0:
192,120,196423,1,10,0:2:0:0:
167,293,196581,1,8,0:2:0:0:
280,90,196739,1,2,1:2:0:0:
311,270,196897,1,8,0:2:0:0:
190,32,197054,1,8,0:2:0:0:
146,218,197212,1,8,0:2:0:0:
275,6,197370,1,8,0:2:0:0:
353,218,197528,6,0,P|416:227|469:235,1,101.999996887207,6|0,1:2|0:0,0:0:0:0:
291,361,197844,1,10,0:2:0:0:
188,176,198002,2,0,P|125:185|74:192,1,101.999996887207,2|0,0:0|1:2,0:0:0:0:
83,355,198318,2,0,P|133:362|183:369,1,101.999996887207,2|8,0:0|0:2,0:0:0:0:
293,120,198633,6,0,P|279:177|277:247,1,101.999996887207,2|0,0:0|1:2,0:0:0:0:
466,349,198949,2,0,P|461:298|448:248,1,101.999996887207,2|8,0:0|0:2,0:0:0:0:
341,343,199265,1,2,0:0:0:0:
394,145,199423,2,0,P|443:118|501:125,1,101.999996887207,2|0,1:2|0:0,0:0:0:0:
284,268,199739,2,0,P|235:274|188:250,1,101.999996887207,10|0,0:2|0:0,0:0:0:0:
236,20,200054,5,6,1:2:0:0:
248,186,200212,1,2,0:2:0:0:
110,57,200370,1,14,0:2:0:0:
88,228,200528,1,2,0:0:0:0:
279,65,200686,5,6,1:2:0:0:
291,231,200844,1,2,0:0:0:0:
153,102,201002,1,14,0:2:0:0:
131,273,201160,1,2,0:0:0:0:
387,168,201318,5,2,1:2:0:0:
205,224,201476,1,10,0:2:0:0:
404,313,201633,1,10,0:2:0:0:
221,261,201791,1,2,0:0:0:0:
464,144,201949,5,10,0:2:0:0:
283,200,202107,1,10,0:2:0:0:
481,290,202264,1,2,1:2:0:0:
299,238,202422,1,10,0:2:0:0:
409,108,202581,6,0,P|436:86|501:88,1,101.999996887207,6|2,0:2|0:0,0:0:0:0:
500,87,203528,6,0,P|437:97|380:34,1,127.5,14|0,0:2|0:0,0:0:0:0:
337,0,203844,6,0,P|349:57|353:119,1,85,6|2,1:2|0:2,0:0:0:0:
174,264,204160,2,0,P|162:207|158:145,1,85,10|2,0:2|0:2,0:0:0:0:
260,56,204476,1,2,1:2:0:0:
306,216,204633,2,0,P|343:237|391:236,1,85,2|8,0:2|0:2,0:0:0:0:
175,87,204949,2,0,P|132:87|96:108,1,85,2|0,0:0|1:2,0:0:0:0:
225,287,205265,5,2,0:0:0:0:
319,136,205423,2,0,P|326:189|334:243,1,85,8|2,0:2|0:0,0:0:0:0:
150,104,205739,1,4,1:2:0:0:
285,30,205897,1,2,0:0:0:0:
159,195,206054,2,0,P|120:195|82:167,1,85,14|2,0:2|0:0,0:0:0:0:
342,62,206370,6,0,P|398:62|431:166,2,170,4|10|2,1:2|0:2|1:2,0:0:0:0:
264,181,207160,2,0,P|218:203|178:191,1,85,2|10,0:0|0:2,0:0:0:0:
102,61,207476,2,0,P|143:55|179:76,1,85,2|0,0:0|1:2,0:0:0:0:
106,211,207791,5,0,0:0:0:0:
278,97,207949,2,0,P|269:148|259:211,1,85,8|0,0:2|0:0,0:0:0:0:
131,329,208265,1,6,1:2:0:0:
289,266,208423,1,2,0:0:0:0:
128,140,208581,2,0,P|137:191|147:254,1,85,14|2,0:2|0:0,0:0:0:0:
433,334,208897,6,0,P|449:291|440:244,1,85,6|2,1:2|0:0,0:0:0:0:
278,185,209212,2,0,P|273:226|288:265,1,85,10|2,0:2|0:0,0:0:0:0:
412,146,209528,1,2,1:2:0:0:
299,50,209686,2,0,P|257:39|197:32,1,85,2|10,0:0|0:2,0:0:0:0:
91,243,210002,6,0,P|160:266|242:195,1,170,6|2,0:0|0:0,0:0:0:0:
169,53,210476,2,0,P|153:99|152:153,1,85,8|2,0:2|0:0,0:0:0:0:
315,258,210791,2,0,P|331:212|332:158,1,85,2|0,1:2|0:0,0:0:0:0:
138,258,211107,2,0,P|141:300|156:339,1,85,10|2,0:2|0:0,0:0:0:0:
355,96,211423,6,0,B|261:74|296:163|176:133,1,170,6|8,1:2|0:2,0:0:0:0:
45,63,211897,2,0,P|64:125|88:257,1,170,2|2,0:0|0:0,0:0:0:0:
256,322,212370,2,0,P|265:272|277:223,1,85,8|6,0:2|0:0,0:0:0:0:
258,79,212686,5,0,1:2:0:0:
349,199,212844,1,0,0:0:0:0:
172,135,213002,2,0,P|161:81|171:39,1,85,12|0,0:2|0:0,0:0:0:0:
357,110,213318,1,4,1:2:0:0:
219,229,213476,1,0,0:0:0:0:
308,34,213633,2,0,P|351:18|394:30,1,85,12|0,0:2|0:0,0:0:0:0:
469,152,213949,5,6,1:2:0:0:
429,288,214107,1,2,0:0:0:0:
286,129,214265,2,0,P|301:178|315:244,1,85,10|0,0:2|0:0,0:0:0:0:
226,334,214581,1,2,1:2:0:0:
172,168,214739,1,2,0:0:0:0:
329,204,214897,1,10,0:2:0:0:
109,352,215054,6,0,P|94:303|80:237,1,85,4|2,0:0|1:2,0:0:0:0:
136,61,215370,1,2,0:0:0:0:
13,194,215528,1,10,0:2:0:0:
58,20,215686,1,2,0:0:0:0:
167,184,215844,2,0,P|219:179|255:147,1,85,2|0,1:2|0:0,0:0:0:0:
160,5,216160,1,8,0:2:0:0:
77,128,216318,1,0,0:0:0:0:
259,72,216476,6,0,P|321:96|333:203,2,170,6|10|2,1:2|0:2|1:2,0:0:0:0:
142,165,217265,1,2,0:0:0:0:
220,260,217423,2,0,P|274:286|318:277,1,85,10|4,0:2|0:0,0:0:0:0:
154,81,217739,6,0,P|111:82|76:105,1,85,2|0,1:2|0:0,0:0:0:0:
159,270,218054,1,8,0:2:0:0:
263,169,218212,1,0,0:0:0:0:
54,218,218370,2,0,P|52:265|73:311,1,85,6|0,1:2|0:0,0:0:0:0:
246,303,218686,1,14,0:2:0:0:
169,174,218844,1,0,0:0:0:0:
201,373,219002,6,0,P|250:385|328:296,2,170,6|8|0,1:2|0:2|1:2,0:0:0:0:
117,304,219791,2,0,P|89:283|36:280,1,85,0|10,0:0|0:2,0:0:0:0:
192,158,220107,1,6,0:0:0:0:
240,273,220265,5,2,1:2:0:0:
106,169,220423,1,2,0:0:0:0:
259,112,220581,1,10,0:2:0:0:
83,279,220739,2,0,P|76:209|61:84,1,170,2|0,0:0|0:0,0:0:0:0:
161,17,221212,2,0,P|213:20|244:46,1,85,8|0,0:2|0:0,0:0:0:0:
383,167,221528,5,6,1:2:0:0:
383,167,221607,1,2,0:0:0:0:
383,167,221686,1,2,0:0:0:0:
383,167,221765,1,2,0:0:0:0:
383,167,221844,2,0,L|392:236,3,42.5,10|2|2|2,0:2|0:0|0:0|0:0,0:0:0:0:
284,316,222160,2,0,L|275:247,3,42.5,2|2|2|2,1:2|0:0|0:0|0:0,0:0:0:0:
180,172,222476,2,0,L|174:214,3,42.5,10|2|2|2,0:2|0:0|0:0|0:0,0:0:0:0:
85,309,222791,5,2,1:2:0:0:
85,309,222870,1,2,0:0:0:0:
85,309,222949,1,10,0:2:0:0:
85,309,223028,1,2,0:0:0:0:
85,309,223107,2,0,L|28:299,3,42.5,10|2|2|2,0:2|0:0|0:0|0:0,0:0:0:0:
132,141,223423,1,2,1:2:0:0:
262,273,223581,1,10,0:2:0:0:
218,61,223739,1,2,1:2:0:0:
106,233,223897,1,10,0:2:0:0:
118,21,224054,5,6,0:2:0:0:
118,21,224370,2,0,L|133:124,1,101.999996887207,2|0,0:0|0:0,0:0:0:0:
336,19,225002,1,2,0:0:0:0:
279,214,225318,6,0,P|248:242|176:241,1,101.999996887207,2|2,0:0|0:0,0:0:0:0:
416,82,225949,2,0,P|466:83|505:114,1,101.999996887207,2|2,0:0|0:0,0:0:0:0:
404,355,226581,6,0,P|390:314|399:243,2,101.999996887207,2|2|2,0:0|0:0|0:0,0:0:0:0:
261,124,227528,1,2,0:0:0:0:
261,124,227844,6,0,B|147:90|175:193|55:151,1,203.999993774414,2|0,0:0|0:0,0:0:0:0:
98,335,229107,6,0,P|162:328|271:315,1,152.999995330811,2|2,0:0|0:0,0:0:0:0:
328,354,229739,2,0,L|385:362,3,50.9999984436036,2|2|2|2,0:0|0:0|0:0|0:0,0:0:0:0:
449,315,230370,6,0,P|468:269|454:199,1,101.999996887207,2|2,0:0|0:0,0:0:0:0:
306,200,231002,2,0,P|287:246|301:316,1,101.999996887207,2|2,0:0|0:0,0:0:0:0:
404,136,231633,6,0,B|309:120|369:76|265:60,1,152.999995330811,2|2,0:0|0:0,0:0:0:0:
180,16,232265,2,0,P|201:84|202:181,1,152.999995330811,2|2,0:0|0:0,0:0:0:0:
91,217,232897,6,0,B|176:171|315:227|203:277|349:345|439:284,1,382.499988327027,2|0,0:0|0:0,0:0:0:0:
452,256,234160,6,0,B|461:208|461:208|455:182|455:182|468:116,2,118.999996368408,2|2|2,1:2|1:2|1:2,0:0:0:0:
431,351,235107,5,6,0:2:0:0:
431,351,235423,6,0,B|317:331|386:261|254:243,1,203.999993774414,6|10,1:2|0:2,0:0:0:0:
93,302,235897,2,0,P|146:342|199:331,1,101.999996887207,2|0,0:0|1:2,0:0:0:0:
198,91,236212,2,0,P|148:94|112:129,1,101.999996887207,2|8,0:0|0:2,0:0:0:0:
302,250,236528,2,0,P|311:191|326:123,1,101.999996887207,2|0,0:0|1:2,0:0:0:0:
158,11,236844,1,2,0:0:0:0:
325,77,237002,1,10,0:2:0:0:
164,166,237160,1,2,0:0:0:0:
302,2,237318,6,0,P|352:2|398:38,1,101.999996887207,6|0,1:2|0:0,0:0:0:0:
277,198,237633,2,0,P|227:198|181:162,1,101.999996887207,14|0,0:2|0:0,0:0:0:0:
464,130,237949,6,0,P|446:195|435:332,1,203.999993774414,6|10,1:2|0:2,0:0:0:0:
293,189,238423,2,0,P|306:247|312:309,1,101.999996887207,2|0,0:0|1:2,0:0:0:0:
154,118,238739,2,0,P|141:176|135:238,1,101.999996887207,2|8,0:0|0:2,0:0:0:0:
360,29,239054,2,0,P|373:87|379:149,1,101.999996887207,2|0,0:0|1:2,0:0:0:0:
110,54,239370,5,2,0:0:0:0:
284,12,239528,1,10,0:2:0:0:
216,170,239686,1,2,0:0:0:0:
117,31,239844,2,0,P|78:8|22:18,1,101.999996887207,6|0,1:2|0:0,0:0:0:0:
299,144,240160,2,0,P|348:153|391:129,1,101.999996887207,14|0,0:2|0:0,0:0:0:0:
61,100,240476,6,0,P|31:156|74:298,1,203.999993774414,6|10,1:2|0:2,0:0:0:0:
273,359,240949,2,0,P|336:363|379:326,1,101.999996887207,2|0,0:0|1:2,0:0:0:0:
268,144,241265,2,0,P|205:140|162:177,1,101.999996887207,2|8,0:0|0:2,0:0:0:0:
434,260,241581,6,0,P|440:188|474:47,1,203.999993774414,6|0,0:0|0:0,0:0:0:0:
347,16,242054,2,0,P|294:40|231:34,1,101.999996887207,10|0,0:2|0:0,0:0:0:0:
132,180,242370,2,0,P|182:181|227:203,1,101.999996887207,2|0,1:2|0:0,0:0:0:0:
367,366,242686,2,0,P|377:298|400:248,1,101.999996887207,10|0,0:2|0:0,0:0:0:0:
256,98,243002,6,0,P|193:65|107:167,1,203.999993774414,6|10,1:2|0:2,0:0:0:0:
204,333,243476,2,0,P|216:273|212:207,1,101.999996887207,2|0,0:0|1:2,0:0:0:0:
17,170,243791,2,0,P|17:220|28:270,1,101.999996887207,2|8,0:0|0:2,0:0:0:0:
154,92,244107,1,2,0:0:0:0:
310,296,244265,5,2,1:2:0:0:
68,236,244423,1,2,0:0:0:0:
326,117,244581,1,10,0:2:0:0:
121,157,244739,1,2,0:0:0:0:
340,311,244897,5,2,1:2:0:0:
98,251,245055,1,2,0:0:0:0:
357,133,245213,1,10,0:2:0:0:
151,173,245371,1,2,0:0:0:0:
432,288,245528,6,0,P|442:209|465:61,1,203.999993774414,6|10,1:2|0:2,0:0:0:0:
313,21,246002,2,0,P|324:85|327:136,1,101.999996887207,2|0,0:0|1:2,0:0:0:0:
184,293,246318,2,0,P|173:229|170:178,1,101.999996887207,2|8,0:0|0:2,0:0:0:0:
401,199,246633,6,0,P|358:231|306:227,1,101.999996887207,6|0,0:0|1:2,0:0:0:0:
151,87,246949,2,0,P|201:86|240:117,1,101.999996887207,2|8,0:0|0:2,0:0:0:0:
138,227,247265,1,2,0:0:0:0:
325,142,247423,1,0,1:2:0:0:
206,289,247581,1,0,0:0:0:0:
139,95,247739,1,8,0:2:0:0:
262,195,247897,1,0,0:0:0:0:
42,146,248054,6,0,P|46:62|185:8,1,203.999993774414,6|10,1:2|0:2,0:0:0:0:
244,89,248528,2,0,P|296:116|345:111,1,101.999996887207,2|0,0:0|1:2,0:0:0:0:
504,31,248844,2,0,P|452:4|403:9,1,101.999996887207,2|8,0:0|0:2,0:0:0:0:
261,140,249160,1,6,0:0:0:0:
436,83,249318,5,0,1:2:0:0:
402,285,249476,1,2,0:0:0:0:
266,46,249633,1,8,0:2:0:0:
292,251,249791,1,2,0:0:0:0:
426,92,249949,5,4,1:2:0:0:
392,294,250107,1,0,0:0:0:0:
256,55,250264,1,12,0:2:0:0:
282,260,250422,1,0,0:0:0:0:
107,105,250581,6,0,B|75:217|163:183|119:316,1,203.999993774414,6|10,1:2|0:2,0:0:0:0:
275,368,251054,2,0,P|331:374|380:335,1,101.999996887207,2|0,0:0|1:2,0:0:0:0:
308,146,251370,2,0,P|258:138|215:163,1,101.999996887207,2|8,0:0|0:2,0:0:0:0:
88,368,251686,6,0,P|79:304|66:240,1,101.999996887207,6|0,0:0|1:2,0:0:0:0:
198,53,252002,2,0,P|188:103|182:153,1,101.999996887207,2|8,0:0|0:2,0:0:0:0:
37,61,252318,1,2,0:0:0:0:
204,272,252476,2,0,P|258:297|316:285,1,101.999996887207,2|0,1:2|0:0,0:0:0:0:
150,126,252791,2,0,P|99:123|55:146,1,101.999996887207,10|0,0:2|0:0,0:0:0:0:
327,196,253107,5,6,1:2:0:0:
94,272,253265,1,2,0:2:0:0:
338,347,253423,1,10,0:2:0:0:
132,263,253581,1,2,0:2:0:0:
450,225,253739,5,2,1:2:0:0:
217,302,253897,1,2,0:2:0:0:
462,377,254055,1,10,0:2:0:0:
256,293,254213,1,2,0:2:0:0:
433,137,254370,5,2,1:2:0:0:
354,342,254528,1,10,0:2:0:0:
302,108,254686,1,10,0:2:0:0:
435,308,254844,1,2,0:2:0:0:
395,57,255002,1,10,0:2:0:0:
272,279,255160,1,10,0:2:0:0:
292,13,255318,1,2,1:2:0:0:
399,232,255476,1,10,0:2:0:0:
456,0,255633,5,6,0:0:0:0:
136,179,259423,5,6,1:2:0:0:
325,242,259581,1,0,1:2:0:0:
136,332,259739,1,0,1:2:0:0:
194,113,259897,1,0,1:2:0:0:
322,290,260054,1,6,1:2:0:0:
287,84,260212,1,2,1:2:0:0:
166,250,260370,1,8,0:2:0:0:
206,20,260528,1,8,0:2:0:0:
360,209,260686,6,0,P|443:216|496:88,1,203.999993774414,6|10,1:2|0:2,0:0:0:0:
393,21,261160,2,0,P|336:24|291:62,1,101.999996887207,2|0,0:2|1:2,0:0:0:0:
285,292,261476,2,0,P|295:217|311:162,1,101.999996887207,2|8,0:0|0:2,0:0:0:0:
99,34,261791,6,0,P|122:105|142:277,1,203.999993774414,6|0,0:0|0:0,0:0:0:0:
238,68,262265,2,0,P|289:41|350:52,1,101.999996887207,10|0,0:2|0:0,0:0:0:0:
133,255,262581,2,0,P|82:256|39:230,1,101.999996887207,2|0,1:2|0:0,0:0:0:0:
309,139,262897,2,0,P|322:202|318:278,1,101.999996887207,8|0,0:0|0:0,0:0:0:0:
64,350,263212,6,0,P|78:275|208:264,1,203.999993774414,6|10,1:2|0:2,0:0:0:0:
320,351,263686,2,0,P|367:378|426:365,1,101.999996887207,2|0,0:0|1:2,0:0:0:0:
467,198,264002,2,0,P|420:171|361:184,1,101.999996887207,2|8,0:0|0:2,0:0:0:0:
242,288,264318,1,2,0:0:0:0:
275,88,264476,5,2,1:2:0:0:
395,279,264633,1,2,0:0:0:0:
353,39,264791,1,10,0:2:0:0:
266,255,264949,1,2,0:0:0:0:
268,72,265107,5,2,1:2:0:0:
406,291,265264,1,2,0:0:0:0:
358,19,265422,1,8,0:2:0:0:
258,264,265580,1,10,0:2:0:0:
155,54,265739,6,0,P|122:33|59:47,1,102,0|0,0:0|0:0,0:0:0:0:
41,76,266055,6,0,B|7:225|115:155|67:327,1,238,12|0,0:2|0:0,0:0:0:0:
78,336,266687,6,0,B|9:318|13:426|181:403|210:326,1,238,12|0,0:0|0:0,0:0:0:0:
243,338,267318,6,0,P|218:275|218:102,1,238,12|0,0:0|0:0,0:0:0:0:
209,78,267950,6,0,P|156:39|158:160,1,238,12|0,0:0|0:0,0:0:0:0:
153,193,268581,6,0,B|290:149|246:257|381:219,1,238,12|0,0:0|0:0,0:0:0:0:
404,194,269213,6,0,P|348:186|288:222,1,101.999996887207,12|2,0:0|0:0,0:0:0:0:
173,335,269528,5,0,1:2:0:0:
360,268,269686,1,10,0:2:0:0:
131,208,269844,1,8,0:2:0:0:
276,290,270002,1,2,1:2:0:0:
85,322,270160,1,8,0:2:0:0:
179,121,270318,1,8,0:2:0:0:
292,304,270476,1,8,0:2:0:0:
67,219,270633,1,8,0:2:0:0:
272,34,270791,6,0,B|395:45|315:128|466:137,1,203.999993774414,6|10,1:2|0:2,0:0:0:0:
356,302,271265,2,0,P|294:291|257:244,1,101.999996887207,2|0,0:0|1:2,0:0:0:0:
115,77,271581,2,0,P|139:131|146:192,1,101.999996887207,2|8,0:0|0:2,0:0:0:0:
236,361,271897,6,0,P|245:310|266:264,1,101.999996887207,2|0,0:0|1:2,0:0:0:0:
443,95,272212,2,0,P|383:125|331:111,1,101.999996887207,2|8,0:0|0:2,0:0:0:0:
186,46,272528,1,2,0:0:0:0:
346,235,272686,2,0,P|358:299|369:358,1,101.999996887207,2|0,1:2|0:0,0:0:0:0:
255,119,273002,2,0,P|264:68|273:18,1,101.999996887207,10|0,0:2|0:0,0:0:0:0:
150,320,273318,5,6,1:2:0:0:
105,86,273476,1,2,0:2:0:0:
23,298,273633,5,14,0:2:0:0:
87,63,273791,1,2,0:0:0:0:
241,343,273949,5,6,1:2:0:0:
179,97,274107,1,2,0:0:0:0:
122,365,274265,5,14,0:2:0:0:
195,131,274423,1,2,0:0:0:0:
459,331,274581,5,2,1:2:0:0:
186,250,274739,1,10,0:2:0:0:
483,171,274897,1,10,0:2:0:0:
274,269,275054,1,2,0:0:0:0:
354,35,275212,5,10,0:2:0:0:
432,305,275370,1,10,0:2:0:0:
197,158,275528,1,2,1:2:0:0:
476,86,275686,1,10,0:2:0:0:
328,256,275844,6,0,L|325:295,3,34,6|2|2|2,0:2|0:2|0:2|0:2,0:0:0:0:
161,121,277107,2,0,L|158:87,3,34,2|2|2|2,0:2|0:2|0:2|0:2,0:0:0:0:
261,18,278370,6,0,B|425:60|299:145|490:188,1,255.000009727478,12|8,0:0|0:0,0:0:0:0:
264,360,279002,6,0,B|109:328|246:231|35:190,1,255.000009727478,12|8,0:0|0:0,0:0:0:0:
224,81,279633,5,14,0:2:0:0:
345,278,279791,1,2,0:2:0:0:
306,32,279949,1,2,0:2:0:0:
181,287,280265,1,6,1:2:0:0:
256,192,280344,12,0,281331,0:0:0:0:
