osu file format v14

[General]
AudioFilename: audio.mp3
AudioLeadIn: 0
PreviewTime: 87589
Countdown: 0
SampleSet: Soft
StackLeniency: 0.7
Mode: 0
LetterboxInBreaks: 0
WidescreenStoryboard: 1

[Editor]
DistanceSpacing: 0.1
BeatDivisor: 4
GridSize: 32
TimelineZoom: 1

[Metadata]
Title:SANTA SAN
TitleUnicode:サンタさん
Artist:MOMOIRO CLOVER Z
ArtistUnicode:ももいろクローバーZ
Creator:A r M i N
Version:LIGHT INSANE
Source:
Tags:Armin A_r_M_i_N Reform Kujinn SMOKELIND schoolboy Komore Curi [Curi] [C_u_r_i] Reillia Iljaaz Djulus Stixy メリー クリスマス ココナッツ merry christmas coconuts momoclo takagi reni momota kanako ariyasu momoka tamai shiori sasaki ayaka xmas japanese jpop pop
BeatmapID:2227697
BeatmapSetID:1045600

[Difficulty]
HPDrainRate:5
CircleSize:3.2
OverallDifficulty:8
ApproachRate:8.5
SliderMultiplier:1.6
SliderTickRate:1

[Events]
//Background and Video events
0,0,"SANTA BG.jpg",0,0
//Break Periods
//Storyboard Layer 0 (Background)
//Storyboard Layer 1 (Fail)
//Storyboard Layer 2 (Pass)
//Storyboard Layer 3 (Foreground)
//Storyboard Layer 4 (Overlay)
//Storyboard Sound Samples

[TimingPoints]
476,315.789473684211,4,2,1,50,1,0
1739,-166.666666666667,4,2,1,50,0,0
17054,-166.666666666667,4,2,1,5,0,0
17133,-166.666666666667,4,2,1,50,0,0
17370,-166.666666666667,4,2,1,5,0,0
17449,-166.666666666667,4,2,1,50,0,0
17765,-166.666666666667,4,2,1,5,0,0
17844,-166.666666666667,4,2,1,50,0,0
18160,-100,4,2,1,70,0,0
28265,-111.111111111111,4,2,1,60,0,0
38370,-125,4,2,1,50,0,0
48160,-100,4,2,1,50,0,0
48476,-100,4,2,1,70,0,0
68686,-111.111111111111,4,2,1,60,0,0
77528,-100,4,2,1,60,0,0
78791,-166.666666666667,4,2,1,50,0,0
79344,-166.666666666667,4,2,1,5,0,0
79423,-166.666666666667,4,2,1,50,0,0
81870,-125,4,2,1,5,0,0
81949,-125,4,2,1,50,0,0
82502,-125,4,2,1,5,0,0
82581,-125,4,2,1,50,0,0
83844,-166.666666666666,4,2,1,50,0,0
85107,-166.666666666667,4,2,1,50,0,0
87633,-100,4,2,1,60,0,0
87870,-100,4,2,1,5,0,0
87949,-100,4,2,1,60,0,0
88186,-100,4,2,1,5,0,0
88265,-100,4,2,1,60,0,0
88502,-100,4,2,1,5,0,0
88581,-100,4,2,1,60,0,0
88897,-83.3333333333333,4,2,1,75,0,1
109107,-83.3333333333333,4,2,1,70,0,0
114160,-83.3333333333333,4,2,1,75,0,1
119212,-125,4,2,1,70,0,0
119449,-125,4,2,1,5,0,0
119528,-125,4,2,1,70,0,0
120081,-125,4,2,1,5,0,0
120160,-125,4,2,1,70,0,0
120712,-125,4,2,1,5,0,0
120791,-125,4,2,1,70,0,0
121344,-125,4,2,1,5,0,0
121423,-125,4,2,1,70,0,0
121976,-125,4,2,1,5,0,0
122054,-125,4,2,1,70,0,0
122607,-125,4,2,1,5,0,0
122686,-83.3333333333333,4,2,1,70,0,0
124265,-83.3333333333333,4,2,1,75,0,1
129318,-166.666666666667,4,2,1,50,0,0
133502,-166.666666666667,4,2,1,5,0,0
133581,-100,4,2,1,50,0,0
134370,-100,4,2,1,70,0,0
138081,-100,4,2,1,5,0,0
138160,-100,4,2,1,70,0,0
146923,-100,4,2,1,5,0,0
147002,-100,4,2,1,70,0,0
152054,-111.111111111111,4,2,1,70,0,0
160897,-100,4,2,1,70,0,0
161133,-100,4,2,1,5,0,0
161212,-100,4,2,1,70,0,0
161449,-100,4,2,1,5,0,0
161528,-100,4,2,1,70,0,0
161765,-100,4,2,1,5,0,0
161844,-100,4,2,1,70,0,0
162160,-83.3333333333333,4,2,1,75,0,1
182370,-83.3333333333333,4,2,1,70,0,0
187423,-83.3333333333333,4,2,1,75,0,1
192476,-125,4,2,1,70,0,0
192712,-125,4,2,1,5,0,0
192791,-125,4,2,1,70,0,0
193344,-125,4,2,1,5,0,0
193423,-125,4,2,1,70,0,0
193976,-125,4,2,1,5,0,0
194054,-125,4,2,1,70,0,0
194607,-125,4,2,1,5,0,0
194686,-125,4,2,1,70,0,0
195239,-125,4,2,1,5,0,0
195318,-125,4,2,1,70,0,0
195870,-125,4,2,1,5,0,0
195949,-83.3333333333333,4,2,1,70,0,0
197528,-83.3333333333333,4,2,1,75,0,1
202581,-250,4,2,1,70,0,0
203528,-100,4,2,1,70,0,0
214502,-100,4,2,1,5,0,0
214581,-100,4,2,1,70,0,0
215133,-100,4,2,1,5,0,0
215212,-100,4,2,1,70,0,0
224054,-166.666666666667,4,2,1,60,0,0
234160,-100,4,2,1,60,0,0
234397,-100,4,2,1,60,0,0
234476,-100,4,2,1,60,0,0
234712,-100,4,2,1,60,0,0
234791,-100,4,2,1,60,0,0
235028,-100,4,2,1,60,0,0
235107,-100,4,2,1,60,0,0
235344,-100,4,2,1,5,0,0
235423,-83.3333333333333,4,2,1,75,0,1
255633,-125,4,2,1,60,0,0
259423,-100,4,2,1,60,0,0
260686,-83.3333333333333,4,2,1,75,0,1
265739,-83.3333333333333,4,2,1,70,0,1
265976,-125,4,2,1,5,0,0
266054,-125,4,2,1,70,0,0
266607,-125,4,2,1,5,0,0
266686,-125,4,2,1,70,0,0
267239,-125,4,2,1,5,0,0
267318,-125,4,2,1,70,0,0
267870,-125,4,2,1,5,0,0
267949,-125,4,2,1,70,0,0
268502,-125,4,2,1,5,0,0
268581,-125,4,2,1,70,0,0
269133,-125,4,2,1,5,0,0
269212,-83.3333333333333,4,2,1,70,0,0
270791,-83.3333333333333,4,2,1,75,0,1
275844,-500.000000000003,4,2,1,60,0,0
278370,-66.6666666666667,4,2,1,75,0,1
279633,-83.3333333333333,4,2,1,70,0,0

[Colours]
Combo1 : 98,179,91
Combo2 : 255,121,57
Combo3 : 199,71,94

[HitObjects]
366,206,1739,6,0,L|460:187,2,95.9999970703126,2|2|2,0:0|0:0|0:0,0:0:0:0:
150,84,3002,2,0,L|56:65,2,95.9999970703126,2|2|2,0:0|0:0|0:0,0:0:0:0:
268,305,4265,6,0,L|249:211,1,95.9999970703126,2|2,0:0|0:0,0:0:0:0:
370,170,4897,2,0,P|331:212|244:208,1,143.999995605469,2|2,0:0|0:0,0:0:0:0:
178,154,5528,2,0,B|113:116|45:151|45:151|43:183|56:211,1,191.999994140625,2|0,0:0|0:0,0:0:0:0:
236,39,6791,6,0,L|330:58,1,95.9999970703126,2|2,0:0|0:0,0:0:0:0:
450,24,7423,2,0,B|419:74|419:74|450:155,1,143.999995605469,2|2,0:0|0:0,0:0:0:0:
482,239,8054,2,0,L|388:258,1,95.9999970703126,2|2,0:0|0:0,0:0:0:0:
290,352,8686,2,0,L|196:333,1,95.9999970703126,2|2,0:0|0:0,0:0:0:0:
128,271,9160,1,2,0:0:0:0:
199,214,9318,6,0,P|190:167|159:130,1,95.9999970703126,2|2,0:0|0:0,0:0:0:0:
75,99,9949,2,0,P|83:52|114:15,1,95.9999970703126,2|2,0:0|0:0,0:0:0:0:
203,34,10581,1,2,0:0:0:0:
256,192,10739,12,0,12476,0:0:0:0:
256,192,13107,12,0,15002,0:0:0:0:
198,79,15633,6,0,B|198:111|185:134|185:134|220:187|220:187|205:212|205:244,1,179.999994506836,2|2,0:0|0:0,0:0:0:0:
205,243,17844,5,4,0:0:0:0:
292,111,18160,6,0,L|279:190,1,80,6|2,1:2|0:0,0:0:0:0:
368,208,18476,2,0,L|381:129,1,80,10|0,0:2|0:0,0:0:0:0:
469,147,18791,2,0,L|443:304,1,160,2|10,1:2|0:2,0:0:0:0:
373,362,19265,1,0,0:0:0:0:
302,306,19423,6,0,P|265:292|219:298,1,80,2|0,1:2|0:0,0:0:0:0:
151,347,19739,2,0,P|111:350|74:336,1,80,10|0,0:2|0:0,0:0:0:0:
27,258,20054,2,0,P|65:217|58:119,1,160,2|8,1:2|0:2,0:0:0:0:
0,49,20528,1,0,0:0:0:0:
90,33,20686,6,0,L|169:46,1,80,6|0,1:2|0:0,0:0:0:0:
230,113,21002,2,0,L|309:100,1,80,10|0,0:2|0:0,0:0:0:0:
411,84,21318,2,0,P|397:121|403:167,1,80,2|0,1:2|0:0,0:0:0:0:
490,173,21633,2,0,P|504:135|500:96,1,80,10|0,0:2|0:0,0:0:0:0:
435,246,21949,6,0,L|448:325,1,80,6|2,1:2|0:0,0:0:0:0:
348,218,22265,2,0,P|368:183|400:160,1,80,10|2,0:2|0:0,0:0:0:0:
360,309,22581,1,6,1:2:0:0:
261,192,22739,1,10,0:2:0:0:
435,246,22897,2,0,L|448:325,1,80,10|2,0:2|0:0,0:0:0:0:
348,218,23212,6,0,L|335:139,1,80,6|0,1:2|0:0,0:0:0:0:
282,64,23528,2,0,P|245:78|199:72,1,80,10|0,0:2|0:0,0:0:0:0:
129,25,23844,2,0,P|89:21|52:35,1,80,2|0,1:2|0:0,0:0:0:0:
2,111,24160,2,0,L|15:190,1,80,10|0,0:2|0:0,0:0:0:0:
97,231,24476,6,0,L|84:310,1,80,6|0,1:2|0:0,0:0:0:0:
159,361,24791,2,0,P|198:364|235:350,1,80,10|0,0:2|0:0,0:0:0:0:
285,273,25107,2,0,L|272:194,1,80,2|0,1:2|0:0,0:0:0:0:
331,125,25423,2,0,P|370:121|407:135,1,80,10|0,0:2|0:0,0:0:0:0:
460,210,25739,6,0,L|447:289,1,80,6|0,1:2|0:0,0:0:0:0:
376,347,26054,2,0,P|336:350|299:336,1,80,10|0,0:2|0:0,0:0:0:0:
234,273,26370,2,0,P|194:269|157:283,1,80,6|0,1:2|0:0,0:0:0:0:
77,338,26686,2,0,L|64:259,1,80,10|0,0:2|0:0,0:0:0:0:
46,169,27002,5,14,0:2:0:0:
234,273,27318,1,8,0:2:0:0:
223,58,27633,1,12,0:2:0:0:
64,259,27949,1,4,0:2:0:0:
296,206,28265,6,0,L|438:229,1,143.999995605469,6|8,1:2|0:2,0:0:0:0:
498,160,28739,1,2,1:2:0:0:
443,87,28897,2,0,L|371:75,1,71.9999978027344,2|2,0:0|1:2,0:0:0:0:
303,15,29212,1,8,0:2:0:0:
223,58,29370,6,0,B|196:102|196:102|225:199,1,143.999995605469,2|2,0:0|0:0,0:0:0:0:
249,278,29844,1,10,0:2:0:0:
311,211,30002,1,2,1:2:0:0:
160,258,30160,2,0,P|124:252|93:234,1,71.9999978027344,2|0,0:0|1:2,0:0:0:0:
155,166,30476,2,0,P|191:171|222:190,1,71.9999978027344,10|0,0:2|0:0,0:0:0:0:
338,298,30791,6,0,P|355:217|368:153,1,143.999995605469,2|10,1:2|0:2,0:0:0:0:
444,106,31265,1,0,1:2:0:0:
362,66,31423,2,0,P|307:88|276:164,1,143.999995605469,2|10,0:0|0:2,0:0:0:0:
328,238,31897,6,0,L|399:249,1,71.9999978027344,2|0,0:0|1:2,0:0:0:0:
367,156,32212,1,2,0:0:0:0:
237,245,32370,2,0,L|165:233,1,71.9999978027344,10|0,0:2|1:2,0:0:0:0:
50,122,32686,2,0,P|65:193|80:264,1,143.999995605469,2|8,0:0|0:2,0:0:0:0:
149,323,33160,1,0,1:2:0:0:
219,265,33318,6,0,P|249:201|315:178,1,143.999995605469,6|8,1:2|0:2,0:0:0:0:
400,215,33791,1,2,1:2:0:0:
463,150,33949,2,0,L|451:78,1,71.9999978027344,2|2,0:0|1:2,0:0:0:0:
384,17,34265,1,8,0:2:0:0:
324,88,34423,6,0,B|250:69|261:130|188:111,1,143.999995605469,2|2,1:2|0:0,0:0:0:0:
121,49,34897,1,10,0:2:0:0:
208,22,35054,1,2,1:2:0:0:
100,138,35212,1,2,0:0:0:0:
187,111,35369,1,2,1:2:0:0:
34,75,35528,2,0,P|12:114|10:148,1,71.9999978027344,10|0,0:2|1:2,0:0:0:0:
112,250,35844,6,0,P|182:235|253:222,1,143.999995605469,2|10,1:2|0:2,0:0:0:0:
354,26,36476,2,0,P|339:97|327:168,1,143.999995605469,2|10,1:2|0:2,0:0:0:0:
388,236,36949,1,2,0:0:0:0:
306,276,37107,6,0,L|235:265,1,71.9999978027344,8|2,0:2|1:2,0:0:0:0:
381,327,37423,2,0,L|452:338,1,71.9999978027344,10|0,0:2|1:2,0:0:0:0:
388,236,37739,1,10,0:2:0:0:
300,367,37897,1,0,1:2:0:0:
312,187,38054,1,12,0:2:0:0:
381,327,38212,1,0,1:2:0:0:
388,236,38370,6,0,L|451:226,1,64,4|2,1:2|0:0,0:0:0:0:
505,153,38686,2,0,P|504:121|491:92,1,64,2|2,0:0|0:0,0:0:0:0:
416,40,39002,2,0,P|386:52|355:53,1,64,2|2,0:0|0:0,0:0:0:0:
279,103,39318,2,0,P|249:90|218:89,1,64,2|2,0:0|0:0,0:0:0:0:
151,151,39633,6,0,L|160:214,2,64,2|2|2,0:0|1:2|0:0,0:0:0:0:
89,84,40107,1,2,0:0:0:0:
62,172,40265,2,0,L|71:235,1,64,2|2,0:0|1:2,0:0:0:0:
38,320,40581,1,2,0:0:0:0:
126,345,40739,6,0,B|192:328|182:382|247:365,1,128,2|2,0:0|0:0,0:0:0:0:
320,310,41212,2,0,L|383:319,1,64,2|2,0:0|0:0,0:0:0:0:
454,262,41528,2,0,P|453:230|440:201,1,64,2|2,0:0|0:0,0:0:0:0:
377,136,41844,1,2,0:0:0:0:
432,63,42002,1,2,0:0:0:0:
353,16,42160,6,0,L|289:25,1,64,2|2,0:0|1:2,0:0:0:0:
225,89,42476,2,0,L|161:79,1,64,2|0,0:0|0:0,0:0:0:0:
91,20,42791,1,2,1:2:0:0:
30,182,42949,1,2,0:0:0:0:
161,79,43107,2,0,P|177:159|187:218,1,128,2|0,0:0|0:0,0:0:0:0:
233,281,43581,6,0,P|204:294|173:295,2,64,2|2|2,1:2|0:0|0:0,0:0:0:0:
296,215,44054,2,0,P|327:215|356:228,1,64,2|2,0:0|0:0,0:0:0:0:
436,274,44370,2,0,L|445:210,1,64,2|2,0:0|0:0,0:0:0:0:
508,143,44686,6,0,L|498:79,1,64,2|2,0:0|1:2,0:0:0:0:
420,33,45002,2,0,P|388:33|359:46,1,64,2|2,0:0|0:0,0:0:0:0:
309,122,45318,1,2,0:0:0:0:
239,64,45476,1,2,1:2:0:0:
181,134,45633,2,0,L|117:143,1,64,2|2,0:0|0:0,0:0:0:0:
58,212,45949,5,2,1:2:0:0:
118,281,46107,2,0,P|163:292|239:253,1,128,2|2,0:0|0:0,0:0:0:0:
265,173,46581,1,2,1:2:0:0:
293,86,46739,2,0,P|338:75|414:114,1,128,2|2,0:0|0:0,0:0:0:0:
438,195,47212,6,0,L|428:258,1,64,2|2,1:2|0:0,0:0:0:0:
404,286,47449,1,2,0:0:0:0:
404,286,47528,2,0,L|413:349,1,64,2|0,1:2|0:0,0:0:0:0:
321,336,47844,2,0,L|257:326,1,64,2|0,1:2|0:0,0:0:0:0:
169,310,48160,1,4,0:2:0:0:
169,310,48476,6,0,L|156:231,1,80,6|0,1:2|0:0,0:0:0:0:
78,184,48791,2,0,L|91:105,1,80,10|0,0:2|1:2,0:0:0:0:
163,49,49107,2,0,B|244:28|232:96|314:75,1,160,2|8,0:0|0:2,0:0:0:0:
391,26,49581,1,0,0:0:0:0:
440,103,49739,6,0,P|443:142|429:179,1,80,6|0,1:2|0:0,0:0:0:0:
369,247,50054,2,0,P|365:286|379:323,1,80,10|0,0:2|1:2,0:0:0:0:
452,379,50370,2,0,P|390:368|288:357,1,160,2|8,0:0|0:2,0:0:0:0:
221,302,50844,1,0,0:0:0:0:
135,338,51002,6,0,L|122:259,1,80,6|0,1:2|0:0,0:0:0:0:
108,169,51318,2,0,L|187:156,1,80,10|0,0:2|1:2,0:0:0:0:
279,138,51633,2,0,P|264:100|268:61,1,80,2|0,0:0|1:2,0:0:0:0:
359,48,51949,2,0,P|373:86|369:125,1,80,10|0,0:2|0:0,0:0:0:0:
334,210,52265,6,0,P|379:150|458:162,1,160,6|10,1:2|0:2,0:0:0:0:
500,240,52739,1,0,1:2:0:0:
442,311,52897,2,0,L|363:298,1,80,2|0,0:0|1:2,0:0:0:0:
295,358,53212,2,0,L|216:345,1,80,10|0,0:2|0:0,0:0:0:0:
149,283,53528,5,2,1:2:0:0:
216,221,53686,2,0,P|219:181|205:144,1,80,2|8,0:0|0:2,0:0:0:0:
119,117,54002,2,0,P|115:156|129:193,1,80,2|0,1:2|0:0,0:0:0:0:
206,144,54318,1,2,1:2:0:0:
280,91,54476,2,0,P|319:87|356:101,1,80,10|0,0:2|0:0,0:0:0:0:
398,182,54791,6,0,L|424:19,1,160,2|10,1:2|0:2,0:0:0:0:
510,50,55265,2,0,L|484:208,1,160,2|0,1:2|1:2,0:0:0:0:
419,272,55739,2,0,L|340:285,1,80,10|0,0:2|0:0,0:0:0:0:
259,244,56054,6,0,P|244:206|248:167,1,80,2|0,1:2|0:0,0:0:0:0:
199,90,56370,2,0,P|236:76|276:80,1,80,10|0,0:2|1:2,0:0:0:0:
352,30,56686,2,0,P|366:67|362:106,1,80,2|0,0:0|1:2,0:0:0:0:
412,182,57002,2,0,P|374:196|335:192,1,80,10|0,0:2|0:0,0:0:0:0:
249,167,57318,5,6,1:2:0:0:
229,170,57396,1,2,0:0:0:0:
209,173,57475,1,2,0:0:0:0:
189,176,57554,1,2,0:0:0:0:
170,179,57633,2,0,L|157:258,1,80,6|2,1:2|0:0,0:0:0:0:
140,348,57949,2,0,L|61:361,2,80,6|0|14,1:2|0:0|0:2,0:0:0:0:
229,327,58423,1,0,0:0:0:0:
247,237,58581,6,0,L|326:250,1,80,6|0,1:2|0:0,0:0:0:0:
416,264,58897,2,0,P|431:226|427:187,1,80,10|0,0:2|1:2,0:0:0:0:
371,116,59212,2,0,P|414:150|445:67,1,160,2|8,0:2|0:2,0:0:0:0:
382,25,59686,1,0,0:0:0:0:
299,61,59844,6,0,P|259:64|222:49,1,80,2|0,1:2|0:0,0:0:0:0:
138,83,60160,2,0,P|123:119|126:159,1,80,10|0,0:2|1:2,0:0:0:0:
171,240,60476,2,0,B|252:219|240:287|322:266,1,160,2|8,0:0|0:2,0:0:0:0:
395,212,60949,1,0,0:0:0:0:
405,304,61107,6,0,L|392:383,1,80,2|0,1:2|0:0,0:0:0:0:
309,344,61423,2,0,L|322:265,1,80,10|0,0:2|1:2,0:0:0:0:
264,195,61739,2,0,P|227:180|187:183,1,80,2|0,0:0|1:2,0:0:0:0:
111,232,62054,2,0,P|71:235|34:220,1,80,10|0,0:2|0:0,0:0:0:0:
0,135,62370,6,0,P|54:90|139:113,1,160,2|10,1:2|0:2,0:0:0:0:
188,184,62844,1,0,1:2:0:0:
225,100,63002,2,0,P|261:85|301:88,1,80,2|0,0:0|1:2,0:0:0:0:
358,18,63318,2,0,P|383:48|392:87,1,80,10|0,0:2|0:0,0:0:0:0:
348,167,63633,5,2,1:2:0:0:
392,247,63791,2,0,L|471:234,1,80,2|8,0:0|0:2,0:0:0:0:
446,331,64107,2,0,L|367:344,1,80,2|0,1:2|0:0,0:0:0:0:
306,276,64423,1,2,1:2:0:0:
245,208,64581,2,0,L|166:195,1,80,10|0,0:2|0:0,0:0:0:0:
219,111,64897,5,2,1:2:0:0:
296,63,65054,2,0,P|309:100|305:140,1,80,2|8,0:0|0:2,0:0:0:0:
216,19,65370,2,0,L|373:-6,1,160,2|0,1:2|1:2,0:0:0:0:
456,33,65844,2,0,P|469:70|465:110,1,80,10|0,0:2|0:0,0:0:0:0:
401,174,66160,6,0,L|414:253,1,80,2|0,1:2|0:0,0:0:0:0:
328,281,66476,2,0,L|315:202,1,80,10|0,0:2|1:2,0:0:0:0:
244,145,66791,2,0,P|204:140|167:154,1,80,2|0,0:0|1:2,0:0:0:0:
80,125,67107,2,0,P|75:164|89:201,1,80,10|0,0:2|0:0,0:0:0:0:
148,64,67423,5,6,1:2:0:0:
0,175,67739,1,4,1:2:0:0:
168,246,68054,1,4,1:2:0:0:
80,125,68370,1,8,0:2:0:0:
162,338,68686,6,0,P|197:333|228:314,1,71.9999978027344,6|2,1:2|0:0,0:0:0:0:
257,228,69002,1,10,0:2:0:0:
317,297,69160,1,2,1:2:0:0:
168,246,69318,2,0,L|190:103,1,143.999995605469,2|10,1:2|0:2,0:0:0:0:
205,13,69791,6,0,L|284:26,2,71.9999978027344,2|0|2,0:0|1:2|1:2,0:0:0:0:
120,45,70265,2,0,L|48:33,1,71.9999978027344,10|0,0:2|1:2,0:0:0:0:
8,115,70581,2,0,P|51:169|120:161,1,143.999995605469,2|8,1:2|0:2,0:0:0:0:
190,103,71054,1,0,0:0:0:0:
242,178,71212,6,0,B|269:222|269:222|240:319,1,143.999995605469,2|10,1:2|0:2,0:0:0:0:
169,364,71686,1,2,1:2:0:0:
105,298,71844,2,0,L|33:286,2,71.9999978027344,2|2|10,1:2|0:0|0:2,0:0:0:0:
179,245,72318,6,0,P|194:212|195:176,1,71.9999978027344,2|0,0:0|1:2,0:0:0:0:
151,97,72633,1,0,1:2:0:0:
209,26,72791,2,0,L|280:37,1,71.9999978027344,10|0,0:2|1:2,0:0:0:0:
346,100,73107,2,0,L|417:88,1,71.9999978027344,2|8,1:2|0:2,0:0:0:0:
480,21,73423,1,8,0:2:0:0:
398,183,73581,1,0,0:0:0:0:
439,266,73739,6,0,P|392:221|313:226,1,143.999995605469,2|10,1:2|0:2,0:0:0:0:
252,289,74212,1,2,1:2:0:0:
190,222,74370,2,0,B|116:203|127:264|54:245,1,143.999995605469,2|8,1:2|0:2,0:0:0:0:
0,171,74844,6,0,L|11:99,1,71.9999978027344,2|0,0:0|1:2,0:0:0:0:
68,28,75160,2,0,P|137:23|190:70,1,143.999995605469,2|2,1:2|1:2,0:0:0:0:
219,157,75633,1,2,1:2:0:0:
284,92,75791,1,2,0:0:0:0:
307,181,75949,1,10,0:2:0:0:
372,117,76107,1,2,0:0:0:0:
219,157,76265,6,0,L|230:228,1,71.9999978027344,2|2,1:2|0:0,0:0:0:0:
307,181,76581,2,0,L|318:252,1,71.9999978027344,10|2,0:2|1:2,0:0:0:0:
395,205,76897,1,2,1:2:0:0:
131,133,77212,1,10,0:2:0:0:
349,29,77528,5,2,1:2:0:0:
307,181,77686,1,2,0:0:0:0:
353,7,77844,2,0,L|366:86,1,80,2|2,1:2|0:0,0:0:0:0:
229,227,78160,2,0,P|221:150|275:95,1,160,2|10,1:2|0:2,0:0:0:0:
339,304,78791,6,0,L|149:335,2,191.999994140625,6|2|2,0:0|0:0|0:0,0:0:0:0:
157,72,81318,6,0,P|73:102|83:190,2,191.999994140625,2|2|2,0:0|0:0|0:0,0:0:0:0:
463,332,83844,6,0,B|453:278|469:235|469:235|409:166|409:166|426:123|416:69,1,287.999991210938,2|2,0:0|0:0,0:0:0:0:
329,204,85107,6,0,B|182:156|207:298|61:251,1,287.999991210938,2|2,0:0|0:0,0:0:0:0:
256,192,86370,12,0,87318,0:0:0:0:
109,373,87633,5,2,1:2:0:0:
187,326,87949,5,2,1:2:0:0:
66,293,88265,5,2,1:2:0:0:
214,238,88581,5,6,0:2:0:0:
28,210,88897,6,0,L|59:20,1,191.999994140625,6|10,1:2|0:2,0:0:0:0:
149,35,89370,2,0,L|243:50,1,95.9999970703126,2|0,0:2|1:2,0:0:0:0:
288,131,89686,2,0,L|382:115,1,95.9999970703126,2|8,0:2|0:2,0:0:0:0:
440,43,90002,6,0,P|385:109|421:203,1,191.999994140625,2|2,0:2|0:2,0:0:0:0:
508,213,90476,1,8,0:2:0:0:
473,128,90633,1,2,0:2:0:0:
453,285,90791,2,0,L|468:379,1,95.9999970703126,6|0,1:2|0:0,0:0:0:0:
363,273,91107,2,0,L|378:367,1,95.9999970703126,14|0,0:2|0:0,0:0:0:0:
418,200,91423,6,0,P|347:183|272:268,1,191.999994140625,6|10,1:2|0:2,0:0:0:0:
225,341,91897,2,0,P|178:347|134:329,1,95.9999970703126,2|0,0:2|1:2,0:0:0:0:
86,251,92212,2,0,P|104:207|97:160,1,95.9999970703126,2|8,0:2|0:2,0:0:0:0:
28,102,92528,6,0,B|126:74|110:161|209:133,1,191.999994140625,2|2,0:2|0:2,0:0:0:0:
266,63,93002,1,8,0:2:0:0:
177,48,93160,1,2,0:2:0:0:
298,149,93318,2,0,P|334:124|356:75,1,95.9999970703126,6|0,1:2|0:0,0:0:0:0:
208,134,93633,2,0,P|216:189|240:220,1,95.9999970703126,14|0,0:2|0:0,0:0:0:0:
266,63,93949,6,0,L|76:94,1,191.999994140625,6|10,1:2|0:2,0:0:0:0:
11,158,94423,2,0,P|4:204|22:248,1,95.9999970703126,2|0,0:2|1:2,0:0:0:0:
103,291,94739,2,0,P|146:273|193:279,1,95.9999970703126,2|8,0:2|0:2,0:0:0:0:
259,344,95054,6,0,P|330:361|405:276,1,191.999994140625,6|0,0:2|0:0,0:0:0:0:
370,197,95528,2,0,L|464:181,1,95.9999970703126,10|0,0:2|0:0,0:0:0:0:
315,273,95844,2,0,L|254:199,1,95.9999970703126,2|0,1:2|0:0,0:0:0:0:
404,281,96160,2,0,L|370:370,1,95.9999970703126,10|0,0:2|0:0,0:0:0:0:
370,197,96476,6,0,L|339:7,1,191.999994140625,6|10,1:2|0:2,0:0:0:0:
254,47,96949,2,0,P|207:53|163:35,1,95.9999970703126,2|0,0:2|1:2,0:0:0:0:
80,72,97265,2,0,P|62:115|68:162,1,95.9999970703126,2|8,0:2|0:2,0:0:0:0:
141,219,97581,1,2,0:2:0:0:
56,254,97739,6,0,L|72:348,1,95.9999970703126,2|0,1:2|0:0,0:0:0:0:
141,219,98054,2,0,L|157:313,1,95.9999970703126,10|0,0:2|0:0,0:0:0:0:
225,183,98370,1,2,1:2:0:0:
152,128,98528,1,0,0:0:0:0:
239,274,98686,2,0,L|333:258,1,95.9999970703126,10|0,0:2|0:0,0:0:0:0:
413,303,99002,6,0,B|384:287|367:260|367:260|418:142,1,191.999994140625,6|10,1:2|0:2,0:0:0:0:
454,58,99476,2,0,P|407:51|363:69,1,95.9999970703126,2|0,0:2|1:2,0:0:0:0:
304,139,99791,2,0,P|257:145|213:127,1,95.9999970703126,2|8,0:2|0:2,0:0:0:0:
137,65,100107,6,0,L|121:159,1,95.9999970703126,6|0,0:2|1:2,0:0:0:0:
45,210,100423,2,0,L|61:304,1,95.9999970703126,2|8,0:2|0:2,0:0:0:0:
147,335,100739,2,0,B|245:307|229:394|328:366,1,191.999994140625,2|0,0:2|0:0,0:0:0:0:
391,301,101212,1,8,0:2:0:0:
338,227,101370,1,0,0:0:0:0:
399,159,101528,6,0,P|352:187|257:114,1,191.999994140625,6|10,1:2|0:2,0:0:0:0:
208,35,102002,2,0,P|161:27|117:45,1,95.9999970703126,2|0,0:2|1:2,0:0:0:0:
64,120,102318,2,0,L|80:214,1,95.9999970703126,2|8,0:2|0:2,0:0:0:0:
146,276,102633,6,0,P|189:258|236:265,1,95.9999970703126,6|0,0:2|1:2,0:0:0:0:
306,324,102949,2,0,L|400:308,1,95.9999970703126,2|8,0:2|0:2,0:0:0:0:
472,366,103265,2,0,P|454:284|433:178,1,191.999994140625,2|0,0:2|0:0,0:0:0:0:
358,127,103739,1,8,0:2:0:0:
405,48,103897,1,0,0:0:0:0:
325,6,104054,6,0,B|227:-22|243:65|144:37,1,191.999994140625,6|10,1:2|0:2,0:0:0:0:
71,92,104528,2,0,P|63:138|81:182,1,95.9999970703126,2|0,0:2|1:2,0:0:0:0:
164,218,104844,2,0,P|171:171|154:128,1,95.9999970703126,2|8,0:2|0:2,0:0:0:0:
92,274,105160,6,0,P|129:303|176:309,1,95.9999970703126,6|0,0:2|1:2,0:0:0:0:
249,254,105476,2,0,P|211:224|164:218,1,95.9999970703126,2|8,0:2|0:2,0:0:0:0:
260,345,105791,1,2,0:2:0:0:
332,289,105949,2,0,P|339:242|322:199,1,95.9999970703126,2|0,1:2|0:0,0:0:0:0:
238,163,106265,2,0,P|230:209|248:253,1,95.9999970703126,10|0,0:2|0:0,0:0:0:0:
310,108,106581,5,6,1:2:0:0:
227,72,106739,1,2,0:2:0:0:
322,199,106897,2,0,L|416:183,1,95.9999970703126,10|2,0:2|0:2,0:0:0:0:
248,253,107212,5,2,1:2:0:0:
332,289,107370,1,2,0:2:0:0:
238,163,107528,2,0,L|144:179,1,95.9999970703126,10|2,0:2|0:2,0:0:0:0:
310,108,107844,5,2,1:2:0:0:
322,199,108002,1,10,0:2:0:0:
256,35,108160,2,0,P|299:16|346:24,1,95.9999970703126,2|2,1:2|0:2,0:0:0:0:
248,253,108476,5,10,0:2:0:0:
310,108,108633,1,10,0:2:0:0:
332,289,108791,1,2,1:2:0:0:
238,163,108949,1,10,0:2:0:0:
259,344,109107,5,14,0:2:0:0:
29,108,110212,5,14,0:2:0:0:
470,42,111002,5,14,0:2:0:0:
261,124,111318,1,14,0:2:0:0:
351,168,111476,1,0,1:2:0:0:
351,168,111554,1,0,1:2:0:0:
351,168,111633,1,6,1:2:0:0:
45,316,112739,5,14,0:2:0:0:
256,39,113528,5,14,0:0:0:0:
349,252,113844,1,14,0:0:0:0:
279,195,114002,1,0,1:0:0:0:
279,195,114081,1,0,1:0:0:0:
279,195,114160,6,0,B|181:167|197:254|98:226,1,191.999994140625,6|10,1:2|0:2,0:0:0:0:
33,164,114633,2,0,P|51:120|43:73,1,95.9999970703126,2|0,0:2|1:2,0:0:0:0:
103,6,114949,2,0,P|149:-1|193:16,1,95.9999970703126,2|8,0:0|0:2,0:0:0:0:
251,86,115265,6,0,P|333:68|439:47,1,191.999994140625,6|0,0:0|0:0,0:0:0:0:
505,109,115739,2,0,P|512:155|494:199,1,95.9999970703126,10|0,0:2|0:0,0:0:0:0:
339,182,116054,2,0,P|376:152|423:146,1,95.9999970703126,2|0,1:2|0:0,0:0:0:0:
485,290,116370,2,0,P|440:273|412:236,1,95.9999970703126,8|0,0:0|0:0,0:0:0:0:
426,57,116686,6,0,P|502:107|494:199,1,191.999994140625,6|10,1:2|0:2,0:0:0:0:
412,235,117160,2,0,L|318:219,1,95.9999970703126,2|0,0:0|1:2,0:0:0:0:
265,292,117476,2,0,L|171:308,1,95.9999970703126,2|8,0:0|0:2,0:0:0:0:
99,253,117791,1,2,0:0:0:0:
172,200,117949,6,0,P|179:153|161:109,1,95.9999970703126,2|2,1:2|0:0,0:0:0:0:
14,216,118265,2,0,P|51:246|98:252,1,95.9999970703126,10|2,0:2|0:0,0:0:0:0:
79,72,118581,2,0,P|34:88|5:126,1,95.9999970703126,2|2,1:2|0:0,0:0:0:0:
172,200,118897,1,8,0:2:0:0:
161,109,119054,1,10,0:2:0:0:
161,109,119528,6,0,B|290:71|269:187|400:150,1,256,12|12,0:2|0:0,0:0:0:0:
402,150,120791,6,0,P|334:129|353:257,1,256,12|12,0:0|0:0,0:0:0:0:
345,256,122054,6,0,B|321:176|321:176|368:97|368:97|345:18,1,256,12|12,0:0|0:0,0:0:0:0:
177,70,123002,6,0,L|271:86,1,95.9999970703126,0|10,1:2|0:2,0:0:0:0:
232,171,123318,2,0,L|138:155,1,95.9999970703126,8|2,0:2|1:2,0:0:0:0:
322,162,123633,2,0,L|338:256,1,95.9999970703126,8|8,0:2|0:2,0:0:0:0:
232,171,123949,1,8,0:2:0:0:
271,86,124107,1,8,0:2:0:0:
248,261,124265,6,0,P|185:249|148:138,1,191.999994140625,6|10,1:2|0:2,0:0:0:0:
232,171,124739,2,0,L|326:187,1,95.9999970703126,2|0,0:0|1:2,0:0:0:0:
359,103,125054,2,0,L|265:87,1,95.9999970703126,2|8,0:0|0:2,0:0:0:0:
415,174,125370,6,0,P|445:128|445:75,1,95.9999970703126,2|0,0:0|1:2,0:0:0:0:
327,187,125686,2,0,P|344:230|387:260,1,95.9999970703126,2|8,0:0|0:2,0:0:0:0:
359,103,126002,1,2,0:0:0:0:
300,34,126160,2,0,L|206:50,1,95.9999970703126,2|0,1:2|0:0,0:0:0:0:
118,69,126476,2,0,L|134:163,1,95.9999970703126,10|0,0:2|0:0,0:0:0:0:
207,305,126791,5,6,1:2:0:0:
133,254,126949,1,2,0:2:0:0:
281,356,127107,2,0,L|375:340,1,95.9999970703126,14|2,0:2|0:0,0:0:0:0:
207,305,127423,5,6,1:2:0:0:
156,379,127581,1,2,0:0:0:0:
258,231,127739,2,0,L|242:137,1,95.9999970703126,14|2,0:2|0:0,0:0:0:0:
207,305,128054,5,2,1:2:0:0:
281,356,128212,1,10,0:2:0:0:
133,254,128370,2,0,L|39:270,1,95.9999970703126,10|2,0:2|0:0,0:0:0:0:
241,136,128686,5,10,0:2:0:0:
207,305,128844,1,10,0:2:0:0:
322,97,129002,1,2,1:2:0:0:
288,266,129160,1,10,0:2:0:0:
248,46,129318,6,0,L|154:62,2,95.9999970703126,4|2|2,0:2|0:0|0:0,0:0:0:0:
263,236,130581,6,0,L|357:252,2,95.9999970703126,2|2|2,0:0|0:0|0:0,0:0:0:0:
441,217,131844,6,0,P|447:264|429:308,1,95.9999970703126,2|2,0:0|0:0,0:0:0:0:
263,236,132476,2,0,P|257:189|275:145,1,95.9999970703126,2|2,0:0|0:0,0:0:0:0:
357,252,133107,1,2,0:0:0:0:
191,291,133423,1,2,0:0:0:0:
275,144,133739,1,2,0:0:0:0:
32,289,134370,5,6,1:2:0:0:
422,18,135633,5,4,1:2:0:0:
305,361,136897,6,0,L|291:282,1,80,4|0,1:2|0:0,0:0:0:0:
196,306,137212,2,0,L|209:227,1,80,4|0,1:2|0:0,0:0:0:0:
113,251,137528,2,0,L|99:172,1,80,6|0,1:2|0:0,0:0:0:0:
22,125,137844,2,0,P|83:122|125:85,1,120,12|0,0:2|0:0,0:0:0:0:
135,52,138160,6,0,B|216:31|204:99|286:78,1,160,6|10,1:2|0:2,0:0:0:0:
348,11,138633,2,0,B|305:79|305:79|348:146,1,160,2|2,1:2|1:2,0:0:0:0:
403,218,139107,2,0,L|389:296,1,80,10|2,0:2|1:2,0:0:0:0:
323,358,139423,6,0,P|247:368|201:308,1,160,6|10,1:2|0:2,0:0:0:0:
212,219,139897,2,0,P|211:268|118:241,1,160,2|2,1:2|1:2,0:0:0:0:
134,173,140370,2,0,L|147:94,1,80,10|2,0:2|1:2,0:0:0:0:
219,40,140686,6,0,B|269:5|269:5|361:39,1,160,6|10,1:2|0:2,0:0:0:0:
446,72,141160,2,0,L|473:229,1,160,2|2,1:2|1:2,0:0:0:0:
412,295,141633,2,0,P|372:298|335:283,1,80,10|2,0:2|1:2,0:0:0:0:
148,46,142265,5,6,1:2:0:0:
46,327,142581,1,6,1:2:0:0:
248,226,142897,1,12,0:2:0:0:
3,84,143212,5,6,1:2:0:0:
349,338,144476,5,4,1:2:0:0:
435,58,145739,2,0,P|396:62|359:47,1,80,6|2,1:2|0:0,0:0:0:0:
253,50,146054,2,0,P|276:82|282:121,1,80,6|2,1:2|0:0,0:0:0:0:
338,212,146370,2,0,P|354:176|386:152,1,80,6|0,1:2|0:0,0:0:0:0:
475,141,146686,2,0,L|495:259,1,120,14|0,0:2|0:0,0:0:0:0:
503,293,147002,6,0,B|422:272|434:340|352:319,1,160,6|10,1:2|0:2,0:0:0:0:
273,275,147476,2,0,B|206:232|206:232|138:275,1,160,2|2,1:2|1:2,0:0:0:0:
63,325,147949,2,0,P|48:288|51:248,1,80,10|2,0:2|1:2,0:0:0:0:
118,187,148265,6,0,L|90:29,1,160,6|10,1:2|0:2,0:0:0:0:
4,59,148739,2,0,L|161:86,1,160,2|2,1:2|1:2,0:0:0:0:
211,163,149212,2,0,L|290:149,1,80,10|2,0:2|1:2,0:0:0:0:
360,92,149528,6,0,P|313:153|334:227,1,160,6|10,1:2|0:2,0:0:0:0:
413,272,150002,2,0,P|338:250|277:297,1,160,2|2,1:2|1:2,0:0:0:0:
226,372,150476,2,0,P|186:375|149:360,1,80,10|2,0:2|1:2,0:0:0:0:
122,19,151107,5,4,1:2:0:0:
277,297,151423,1,4,1:2:0:0:
80,192,151739,1,12,0:0:0:0:
255,67,152054,6,0,B|329:48|318:109|391:90,1,143.999995605469,6|8,1:2|0:2,0:0:0:0:
456,27,152528,2,0,L|434:170,1,143.999995605469,0|0,1:2|1:2,0:0:0:0:
360,221,153002,2,0,L|370:292,1,71.9999978027344,8|2,0:2|1:2,0:0:0:0:
411,373,153318,6,0,P|364:328|285:333,1,143.999995605469,6|8,1:2|0:2,0:0:0:0:
212,284,153791,2,0,P|165:329|86:324,1,143.999995605469,0|0,1:2|1:2,0:0:0:0:
32,257,154265,2,0,L|42:185,1,71.9999978027344,10|0,0:2|1:2,0:0:0:0:
113,129,154581,6,0,B|157:102|157:102|245:128,1,143.999995605469,6|8,1:2|0:2,0:0:0:0:
313,69,155054,2,0,B|401:95|401:95|445:68,1,143.999995605469,0|0,1:2|1:2,0:0:0:0:
512,130,155528,2,0,P|510:165|495:198,1,71.9999978027344,8|0,0:2|1:2,0:0:0:0:
417,242,155844,6,0,B|343:223|354:284|281:265,1,143.999995605469,6|8,1:2|0:2,0:0:0:0:
223,195,156318,2,0,P|250:253|190:277,1,143.999995605469,0|0,1:2|1:2,0:0:0:0:
134,207,156791,2,0,P|136:172|153:138,1,71.9999978027344,10|0,0:2|1:2,0:0:0:0:
235,105,157107,6,0,L|378:83,1,143.999995605469,6|8,1:2|0:2,0:0:0:0:
457,43,157581,2,0,P|412:90|417:169,1,143.999995605469,0|0,1:2|1:2,0:0:0:0:
483,224,158054,2,0,P|481:259|466:292,1,71.9999978027344,10|0,0:2|1:2,0:0:0:0:
385,331,158370,6,0,L|242:309,1,143.999995605469,6|8,1:2|0:2,0:0:0:0:
164,352,158844,2,0,B|191:308|191:308|164:219,1,143.999995605469,0|0,1:2|1:2,0:0:0:0:
90,169,159318,2,0,L|100:97,1,71.9999978027344,8|0,0:2|1:2,0:0:0:0:
256,192,159633,12,0,160581,0:0:0:0:
26,105,160897,5,2,1:2:0:0:
73,183,161213,5,2,1:2:0:0:
106,62,161529,5,2,1:2:0:0:
161,210,161845,5,6,0:2:0:0:
189,24,162160,6,0,B|287:-4|271:83|370:55,1,191.999994140625,6|10,1:2|0:2,0:0:0:0:
442,0,162633,2,0,P|460:44|453:91,1,95.9999970703126,2|0,0:2|1:2,0:0:0:0:
381,145,162949,2,0,P|374:191|392:235,1,95.9999970703126,2|8,0:2|0:2,0:0:0:0:
477,269,163265,6,0,P|391:235|319:291,1,191.999994140625,2|2,0:2|0:2,0:0:0:0:
335,381,163739,1,8,0:2:0:0:
404,323,163897,1,2,0:2:0:0:
238,230,164054,2,0,L|222:324,1,95.9999970703126,6|0,1:2|0:0,0:0:0:0:
319,291,164370,2,0,L|335:197,1,95.9999970703126,14|0,0:2|0:0,0:0:0:0:
427,197,164686,6,0,L|237:229,1,191.999994140625,6|10,1:2|0:2,0:0:0:0:
150,252,165160,2,0,P|168:296|161:343,1,95.9999970703126,2|0,0:2|1:2,0:0:0:0:
73,357,165476,2,0,P|55:313|62:266,1,95.9999970703126,2|8,0:2|0:2,0:0:0:0:
94,181,165791,6,0,B|66:55|66:55|40:113,1,191.999994140625,2|2,0:2|0:2,0:0:0:0:
5,196,166265,1,8,0:2:0:0:
61,266,166423,1,2,0:2:0:0:
183,168,166581,2,0,L|277:184,1,95.9999970703126,6|0,1:2|0:0,0:0:0:0:
244,268,166897,2,0,L|150:252,1,95.9999970703126,14|0,0:2|0:0,0:0:0:0:
216,84,167212,6,0,L|405:116,1,191.999994140625,6|10,1:2|0:2,0:0:0:0:
471,178,167686,2,0,P|477:224|459:268,1,95.9999970703126,2|0,0:2|1:2,0:0:0:0:
304,249,168002,2,0,P|341:220|389:214,1,95.9999970703126,2|8,0:2|0:2,0:0:0:0:
295,340,168318,6,0,P|250:322|237:191,1,191.999994140625,6|0,0:2|0:0,0:0:0:0:
317,159,168791,2,0,P|323:206|305:249,1,95.9999970703126,10|0,0:2|0:0,0:0:0:0:
246,104,169107,2,0,P|283:74|330:69,1,95.9999970703126,2|0,1:2|0:0,0:0:0:0:
234,194,169423,2,0,P|190:176|161:138,1,95.9999970703126,10|0,0:2|0:0,0:0:0:0:
317,159,169739,6,0,L|349:348,1,191.999994140625,6|10,1:2|0:2,0:0:0:0:
256,334,170212,2,0,L|162:318,1,95.9999970703126,2|0,0:2|1:2,0:0:0:0:
73,303,170528,2,0,L|57:209,1,95.9999970703126,2|8,0:2|0:2,0:0:0:0:
39,119,170844,1,2,0:2:0:0:
124,148,171002,6,0,P|170:154|214:136,1,95.9999970703126,2|0,1:2|0:0,0:0:0:0:
250,53,171318,2,0,P|203:47|160:65,1,95.9999970703126,10|0,0:2|0:0,0:0:0:0:
304,127,171633,1,2,1:2:0:0:
340,43,171791,1,0,0:0:0:0:
214,136,171949,2,0,L|230:230,1,95.9999970703126,10|0,0:2|0:0,0:0:0:0:
307,280,172265,6,0,B|209:252|225:339|126:311,1,191.999994140625,6|10,1:2|0:2,0:0:0:0:
55,256,172739,2,0,P|73:212|67:165,1,95.9999970703126,2|0,0:2|1:2,0:0:0:0:
3,103,173054,2,0,P|-2:55|15:12,1,95.9999970703126,2|8,0:2|0:2,0:0:0:0:
103,34,173370,6,0,L|197:50,1,95.9999970703126,6|0,0:2|1:2,0:0:0:0:
262,114,173686,2,0,L|356:98,1,95.9999970703126,2|8,0:2|0:2,0:0:0:0:
412,25,174002,2,0,P|356:97|390:182,1,191.999994140625,2|0,0:2|0:0,0:0:0:0:
479,193,174476,1,8,0:2:0:0:
444,110,174633,1,0,0:0:0:0:
336,256,174791,6,0,L|147:224,1,191.999994140625,6|10,1:2|0:2,0:0:0:0:
86,77,175265,2,0,P|130:96|159:134,1,95.9999970703126,2|0,0:2|1:2,0:0:0:0:
63,258,175581,2,0,P|57:211|76:168,1,95.9999970703126,2|8,0:2|0:2,0:0:0:0:
135,314,175897,6,0,P|97:342|50:348,1,95.9999970703126,6|0,0:2|1:2,0:0:0:0:
147,224,176212,2,0,L|241:240,1,95.9999970703126,2|8,0:2|0:2,0:0:0:0:
322,281,176528,2,0,B|293:265|276:238|276:238|327:120,1,191.999994140625,2|0,0:2|0:0,0:0:0:0:
367,38,177002,1,8,0:2:0:0:
417,114,177160,1,0,0:0:0:0:
277,45,177318,6,0,B|179:17|195:104|96:76,1,191.999994140625,6|10,1:2|0:2,0:0:0:0:
14,41,177791,2,0,P|8:91|26:131,1,95.9999970703126,2|0,0:2|1:2,0:0:0:0:
108,166,178107,2,0,P|114:119|96:76,1,95.9999970703126,2|8,0:2|0:2,0:0:0:0:
37,222,178423,6,0,P|82:253|122:256,1,95.9999970703126,6|0,0:2|1:2,0:0:0:0:
193,200,178739,2,0,P|155:171|107:166,1,95.9999970703126,2|8,0:2|0:2,0:0:0:0:
205,290,179054,1,2,0:2:0:0:
276,235,179212,2,0,P|282:187|261:141,1,95.9999970703126,2|0,1:2|0:0,0:0:0:0:
180,109,179528,2,0,P|174:156|193:200,1,95.9999970703126,10|0,0:2|0:0,0:0:0:0:
252,54,179844,5,6,1:2:0:0:
169,19,180002,1,2,0:2:0:0:
264,144,180160,2,0,L|358:128,1,95.9999970703126,10|2,0:2|0:2,0:0:0:0:
180,109,180476,5,2,1:2:0:0:
193,199,180633,1,2,0:2:0:0:
252,54,180791,2,0,L|346:38,1,95.9999970703126,10|2,0:2|0:2,0:0:0:0:
425,188,181107,5,2,1:2:0:0:
358,127,181265,1,10,0:2:0:0:
508,153,181423,2,0,P|514:201|493:247,1,95.9999970703126,2|2,1:2|0:2,0:0:0:0:
300,278,181739,5,10,0:2:0:0:
358,127,181897,1,10,0:2:0:0:
367,339,182054,1,2,1:2:0:0:
425,188,182212,1,10,0:2:0:0:
282,367,182370,5,14,0:2:0:0:
111,36,183476,5,14,0:2:0:0:
432,97,184265,5,14,0:2:0:0:
201,183,184581,1,14,0:2:0:0:
283,243,184739,1,0,1:2:0:0:
283,243,184818,1,0,1:2:0:0:
283,243,184897,1,6,1:2:0:0:
55,35,186002,5,14,0:2:0:0:
224,272,186791,5,14,0:0:0:0:
320,36,187107,1,14,0:0:0:0:
359,130,187265,1,0,1:0:0:0:
359,130,187344,1,0,1:0:0:0:
359,130,187423,6,0,B|261:102|277:189|178:161,1,191.999994140625,6|10,1:2|0:2,0:0:0:0:
107,107,187897,2,0,P|89:151|97:198,1,95.9999970703126,2|0,0:2|1:2,0:0:0:0:
24,251,188212,2,0,P|60:281|107:288,1,95.9999970703126,2|8,0:0|0:2,0:0:0:0:
180,235,188528,6,0,L|369:267,1,191.999994140625,6|0,0:0|0:0,0:0:0:0:
464,284,189002,2,0,L|448:190,1,95.9999970703126,10|0,0:2|0:0,0:0:0:0:
366,150,189318,2,0,L|382:56,1,95.9999970703126,2|0,1:2|0:0,0:0:0:0:
303,11,189633,2,0,P|256:3|212:21,1,95.9999970703126,8|0,0:0|0:0,0:0:0:0:
163,97,189949,6,0,B|214:215|214:215|197:242|168:258,1,191.999994140625,6|10,1:2|0:2,0:0:0:0:
96,312,190423,2,0,P|78:268|85:221,1,95.9999970703126,2|0,0:0|1:2,0:0:0:0:
21,159,190739,2,0,P|38:115|31:68,1,95.9999970703126,2|8,0:0|0:2,0:0:0:0:
95,5,191054,1,2,0:0:0:0:
170,57,191212,6,0,L|264:41,1,95.9999970703126,2|2,1:2|0:0,0:0:0:0:
293,211,191528,2,0,L|233:138,1,95.9999970703126,10|2,0:2|0:0,0:0:0:0:
367,27,191844,2,0,L|333:116,1,95.9999970703126,2|2,1:2|0:0,0:0:0:0:
170,57,192160,1,8,0:2:0:0:
260,52,192318,1,10,0:2:0:0:
260,52,192791,6,0,B|237:129|237:129|284:208|284:208|260:288,1,256,12|12,0:2|0:0,0:0:0:0:
260,288,194054,6,0,B|211:237|207:174|207:174|172:227|105:246,1,256,12|12,0:0|0:0,0:0:0:0:
105,247,195318,6,0,B|58:87|58:87|86:54|134:42,1,256,12|12,0:0|0:0,0:0:0:0:
286,138,196265,6,0,P|241:121|213:83,1,95.9999970703126,0|10,1:2|0:2,0:0:0:0:
369,101,196581,2,0,P|375:147|357:191,1,95.9999970703126,8|2,0:2|1:2,0:0:0:0:
295,47,196897,2,0,P|331:17|378:10,1,95.9999970703126,8|8,0:2|0:2,0:0:0:0:
286,138,197212,1,8,0:2:0:0:
213,84,197370,1,8,0:2:0:0:
369,101,197528,6,0,L|401:290,1,191.999994140625,6|10,1:2|0:2,0:0:0:0:
347,362,198002,2,0,P|300:369|256:351,1,95.9999970703126,2|0,0:0|1:2,0:0:0:0:
309,280,198318,2,0,P|356:272|400:290,1,95.9999970703126,2|8,0:0|0:2,0:0:0:0:
221,269,198633,6,0,L|237:175,1,95.9999970703126,2|0,0:0|1:2,0:0:0:0:
326,185,198949,2,0,L|310:279,1,95.9999970703126,2|8,0:0|0:2,0:0:0:0:
291,102,199265,1,2,0:0:0:0:
381,113,199423,2,0,P|410:152|414:203,1,95.9999970703126,2|0,1:2|0:0,0:0:0:0:
291,102,199739,2,0,P|311:56|348:28,1,95.9999970703126,10|0,0:2|0:0,0:0:0:0:
326,185,200054,5,6,1:2:0:0:
237,174,200212,1,2,0:2:0:0:
381,113,200370,2,0,L|475:97,1,95.9999970703126,14|2,0:2|0:0,0:0:0:0:
326,185,200686,5,6,1:2:0:0:
291,102,200844,1,2,0:0:0:0:
414,198,201002,2,0,L|398:292,1,95.9999970703126,14|2,0:2|0:0,0:0:0:0:
381,113,201318,5,2,1:2:0:0:
470,127,201476,1,10,0:2:0:0:
326,185,201633,2,0,L|232:201,1,95.9999970703126,10|2,0:2|0:0,0:0:0:0:
381,113,201949,5,10,0:2:0:0:
397,292,202107,1,10,0:2:0:0:
291,102,202265,1,2,1:2:0:0:
308,280,202423,1,10,0:2:0:0:
363,208,202581,6,0,P|413:203|475:248,1,128,6|2,0:2|0:0,0:0:0:0:
203,303,203528,6,0,L|217:225,1,80,14|2,0:2|0:2,0:0:0:0:
233,135,203844,6,0,P|193:138|156:123,1,80,6|2,1:2|0:2,0:0:0:0:
175,34,204160,2,0,P|214:31|251:46,1,80,10|2,0:2|0:2,0:0:0:0:
318,107,204476,1,2,1:2:0:0:
384,46,204633,2,0,P|420:31|460:34,1,80,2|8,0:2|0:2,0:0:0:0:
512,109,204949,6,0,L|498:187,1,80,2|0,0:0|1:2,0:0:0:0:
420,233,205265,2,0,L|434:311,1,80,2|8,0:0|0:2,0:0:0:0:
491,381,205581,2,0,P|429:334|355:355,1,160,2|2,0:0|0:0,0:0:0:0:
286,298,206054,1,14,0:2:0:0:
217,356,206212,6,0,P|142:377|81:330,1,160,2|2,0:0|0:0,0:0:0:0:
72,297,206607,1,2,0:0:0:0:
72,297,206686,2,0,L|86:219,1,80,10|2,0:2|0:0,0:0:0:0:
28,149,207002,1,2,1:2:0:0:
117,133,207160,2,0,L|195:119,1,80,2|10,0:0|0:2,0:0:0:0:
256,51,207476,6,0,B|213:119|213:119|256:186,1,160,2|0,0:0|0:0,0:0:0:0:
309,259,207949,1,8,0:2:0:0:
345,176,208107,2,0,P|384:172|421:187,1,80,0|6,0:0|1:2,0:0:0:0:
496,239,208423,2,0,P|511:202|507:162,1,80,2|14,0:0|0:2,0:0:0:0:
445,98,208739,1,2,0:0:0:0:
376,40,208897,6,0,L|298:54,1,80,6|2,1:2|0:0,0:0:0:0:
273,78,209133,1,0,0:0:0:0:
273,78,209212,2,0,L|195:64,1,80,10|2,0:2|0:0,0:0:0:0:
116,109,209528,2,0,P|100:145|104:185,1,80,2|2,1:2|0:0,0:0:0:0:
160,256,209844,1,10,0:2:0:0:
103,327,210002,6,0,P|164:280|238:300,1,160,6|2,0:0|0:0,0:0:0:0:
301,366,210476,2,0,P|340:369|377:354,1,80,8|2,0:2|0:0,0:0:0:0:
423,276,210791,2,0,L|409:198,1,80,2|0,1:2|0:0,0:0:0:0:
344,133,211107,1,10,0:2:0:0:
400,62,211265,1,2,0:0:0:0:
322,17,211423,6,0,B|241:-4|253:64|171:43,1,160,6|8,1:2|0:2,0:0:0:0:
83,18,211897,2,0,P|80:57|95:94,1,80,2|0,0:0|1:2,0:0:0:0:
166,152,212212,2,0,P|169:191|154:228,1,80,2|8,0:0|0:2,0:0:0:0:
92,295,212528,1,6,0:0:0:0:
142,370,212686,6,0,L|220:356,1,80,0|0,1:2|0:0,0:0:0:0:
309,337,213002,2,0,L|387:323,1,80,12|0,0:2|0:0,0:0:0:0:
444,253,213318,1,4,1:2:0:0:
477,338,213476,1,0,0:0:0:0:
356,238,213633,1,12,0:2:0:0:
388,323,213791,1,0,0:0:0:0:
413,168,213949,6,0,L|399:90,1,80,6|2,1:2|0:0,0:0:0:0:
429,3,214265,2,0,P|385:41|327:34,1,120,10|0,0:2|0:0,0:0:0:0:
300,15,214581,2,0,L|286:93,1,80,2|2,1:2|0:0,0:0:0:0:
317,179,214897,2,0,P|272:141|214:148,1,120,10|0,0:2|0:0,0:0:0:0:
186,168,215212,6,0,P|201:204|197:244,1,80,2|2,1:2|0:0,0:0:0:0:
123,294,215528,2,0,P|107:257|111:217,1,80,10|2,0:2|0:0,0:0:0:0:
204,335,215844,1,2,1:2:0:0:
128,384,216002,1,0,0:0:0:0:
198,244,216160,1,8,0:2:0:0:
123,294,216318,1,0,0:0:0:0:
279,284,216476,6,0,L|357:298,1,80,6|2,1:2|0:0,0:0:0:0:
427,240,216791,1,10,0:2:0:0:
487,307,216949,2,0,B|444:240|444:240|487:172,1,160,0|2,0:0|0:0,0:0:0:0:
443,93,217423,2,0,P|406:77|366:81,1,80,10|4,0:2|0:0,0:0:0:0:
294,133,217739,6,0,B|233:114|233:114|178:128|178:128|132:96|132:96|68:93,1,240,2|0,1:2|0:0,0:0:0:0:
7,160,218370,2,0,P|3:199|19:235,1,80,6|0,1:2|0:0,0:0:0:0:
101,269,218686,2,0,P|137:252|176:260,1,80,14|0,0:2|0:0,0:0:0:0:
279,339,219002,6,0,B|302:373|302:373|328:339|328:339|369:330|369:330|346:296|346:296|347:251|347:251|308:263|308:263|265:249|265:249|263:292|263:292|239:323|239:323|258:330,1,400,6|0,1:2|0:0,0:0:0:0:
176,260,219949,2,0,L|162:182,1,80,10|6,0:2|0:0,0:0:0:0:
200,100,220265,6,0,P|236:83|275:87,1,80,2|2,1:2|0:0,0:0:0:0:
348,34,220581,2,0,P|384:50|423:46,1,80,10|2,0:2|0:0,0:0:0:0:
504,5,220897,2,0,B|469:55|469:55|503:147,1,160,2|8,1:2|0:2,0:0:0:0:
438,210,221370,1,0,0:0:0:0:
492,283,221528,6,0,L|499:322,3,40,6|2|2|2,1:2|0:0|0:0|0:0,0:0:0:0:
507,356,221844,2,0,L|429:342,1,80,10|2,0:2|0:0,0:0:0:0:
340,325,222160,2,0,L|333:286,3,40,2|2|2|2,1:2|0:0|0:0|0:0,0:0:0:0:
327,251,222476,2,0,L|249:237,1,80,10|2,0:2|0:0,0:0:0:0:
160,221,222791,5,2,1:2:0:0:
218,151,222949,1,10,0:2:0:0:
190,306,223107,2,0,L|176:384,1,80,10|2,0:2|0:0,0:0:0:0:
160,221,223423,5,2,1:2:0:0:
278,322,223581,1,10,0:2:0:0:
101,290,223739,1,2,1:2:0:0:
218,151,223897,1,10,0:2:0:0:
248,236,224054,5,6,0:2:0:0:
188,65,224370,2,0,P|149:93|129:135,1,95.9999970703126,2|0,0:0|0:0,0:0:0:0:
277,82,225002,1,2,0:0:0:0:
342,252,225318,2,0,L|248:236,1,95.9999970703126,2|2,0:0|0:0,0:0:0:0:
424,189,225949,2,0,L|440:283,1,95.9999970703126,2|2,0:0|0:0,0:0:0:0:
338,162,226581,5,2,0:0:0:0:
489,127,226897,1,2,0:0:0:0:
273,224,227212,1,2,0:0:0:0:
424,189,227528,1,2,0:0:0:0:
208,286,227844,2,0,B|110:258|126:345|26:317|26:317|79:327|104:383,1,287.999991210938,2|0,0:0|0:0,0:0:0:0:
60,232,229107,6,0,L|84:91,1,143.999995605469,2|2,0:0|0:0,0:0:0:0:
159,40,229739,2,0,P|184:45|205:55,1,47.9999985351563,2|2,0:0|0:0,0:0:0:0:
260,124,230054,2,0,P|283:119|305:109,1,47.9999985351563,2|2,0:0|0:0,0:0:0:0:
362,39,230370,2,0,P|391:81|393:124,1,95.9999970703126,2|2,0:0|0:0,0:0:0:0:
228,209,231002,2,0,P|232:162|260:124,1,95.9999970703126,2|2,0:0|0:0,0:0:0:0:
458,169,231633,6,0,L|317:194,1,143.999995605469,2|2,0:0|0:0,0:0:0:0:
261,265,232265,2,0,L|119:240,1,143.999995605469,2|2,0:0|0:0,0:0:0:0:
59,308,232897,1,2,0:0:0:0:
256,192,233054,12,0,233844,0:0:0:0:
294,77,234160,5,2,1:2:0:0:
365,133,234476,5,2,1:2:0:0:
281,166,234791,5,2,1:2:0:0:
377,43,235107,6,0,P|423:64|455:127,1,120,6|0,0:2|0:0,0:0:0:0:
452,157,235423,6,0,L|421:347,1,191.999994140625,6|10,1:2|0:2,0:0:0:0:
336,315,235897,2,0,P|289:308|245:326,1,95.9999970703126,2|0,0:0|1:2,0:0:0:0:
174,270,236212,2,0,P|127:276|83:258,1,95.9999970703126,2|8,0:0|0:2,0:0:0:0:
39,180,236528,6,0,B|66:135|66:135|61:94|38:55|38:55|63:73|88:78,1,191.999994140625,2|2,0:0|0:0,0:0:0:0:
177,79,237002,1,10,0:2:0:0:
133,0,237160,1,2,0:0:0:0:
151,166,237318,2,0,L|166:260,1,95.9999970703126,6|0,1:2|0:0,0:0:0:0:
238,145,237633,2,0,L|253:239,1,95.9999970703126,14|0,0:2|0:0,0:0:0:0:
177,79,237949,6,0,P|257:57|326:130,1,191.999994140625,6|10,1:2|0:2,0:0:0:0:
358,214,238423,2,0,P|401:232|449:226,1,95.9999970703126,2|0,0:0|1:2,0:0:0:0:
505,155,238739,2,0,P|461:137|414:143,1,95.9999970703126,2|8,0:0|0:2,0:0:0:0:
358,214,239054,6,0,B|409:332|409:332|392:359|363:375,1,191.999994140625,2|2,0:0|0:0,0:0:0:0:
216,337,239528,1,10,0:2:0:0:
301,309,239686,1,2,0:0:0:0:
249,154,239844,2,0,L|234:248,1,95.9999970703126,6|0,1:2|0:0,0:0:0:0:
344,129,240160,2,0,L|329:223,1,95.9999970703126,14|0,0:2|0:0,0:0:0:0:
277,68,240476,6,0,P|335:39|432:113,1,191.999994140625,6|10,1:2|0:2,0:0:0:0:
409,192,240949,2,0,P|367:169|344:129,1,95.9999970703126,2|0,0:0|1:2,0:0:0:0:
496,167,241265,2,0,P|496:217|465:264,1,95.9999970703126,2|8,0:0|0:2,0:0:0:0:
387,280,241581,6,0,B|289:252|305:339|206:311,1,191.999994140625,6|0,0:0|0:0,0:0:0:0:
138,253,242054,2,0,L|153:159,1,95.9999970703126,10|0,0:2|0:0,0:0:0:0:
123,342,242370,2,0,L|34:376,1,95.9999970703126,2|0,1:2|0:0,0:0:0:0:
206,311,242686,2,0,L|279:370,1,95.9999970703126,10|0,0:2|0:0,0:0:0:0:
138,253,243002,6,0,L|168:63,1,191.999994140625,6|10,1:2|0:2,0:0:0:0:
243,13,243476,2,0,P|289:6|333:24,1,95.9999970703126,2|0,0:0|1:2,0:0:0:0:
377,104,243791,2,0,P|358:147|365:194,1,95.9999970703126,2|8,0:0|0:2,0:0:0:0:
433,255,244107,1,2,0:0:0:0:
348,283,244265,6,0,L|254:268,1,95.9999970703126,2|2,1:2|0:0,0:0:0:0:
222,353,244581,2,0,L|316:368,1,95.9999970703126,10|2,0:2|0:0,0:0:0:0:
165,284,244897,1,2,1:2:0:0:
134,368,245054,1,2,0:0:0:0:
254,268,245212,2,0,L|239:174,1,95.9999970703126,10|2,0:2|0:0,0:0:0:0:
185,99,245528,6,0,P|238:172|329:161,1,191.999994140625,6|10,1:2|0:2,0:0:0:0:
364,77,246002,2,0,P|317:71|274:90,1,95.9999970703126,2|0,0:0|1:2,0:0:0:0:
329,161,246318,2,0,P|376:167|419:148,1,95.9999970703126,2|8,0:0|0:2,0:0:0:0:
239,174,246633,6,0,L|254:268,1,95.9999970703126,6|0,0:0|1:2,0:0:0:0:
344,255,246949,2,0,L|329:161,1,95.9999970703126,2|8,0:0|0:2,0:0:0:0:
149,187,247265,2,0,L|179:376,1,191.999994140625,2|0,0:0|0:0,0:0:0:0:
268,358,247739,1,8,0:2:0:0:
254,268,247897,1,0,0:0:0:0:
344,255,248054,6,0,B|468:228|468:228|401:197,1,191.999994140625,6|10,1:2|0:2,0:0:0:0:
328,160,248528,2,0,L|313:66,1,95.9999970703126,2|0,0:0|1:2,0:0:0:0:
237,17,248844,2,0,P|190:10|146:28,1,95.9999970703126,2|8,0:0|0:2,0:0:0:0:
89,98,249160,6,0,P|106:141|100:188,1,95.9999970703126,6|0,0:0|1:2,0:0:0:0:
37,253,249476,2,0,L|52:347,1,95.9999970703126,2|8,0:0|0:2,0:0:0:0:
138,375,249791,2,0,B|237:403|221:316|319:344,1,191.999994140625,2|0,0:0|0:0,0:0:0:0:
400,384,250265,1,12,0:2:0:0:
443,304,250423,1,0,0:0:0:0:
512,364,250581,6,0,P|494:282|473:176,1,191.999994140625,6|10,1:2|0:2,0:0:0:0:
441,92,251054,2,0,P|398:109|351:103,1,95.9999970703126,2|0,0:0|1:2,0:0:0:0:
295,29,251370,2,0,P|339:11|386:18,1,95.9999970703126,2|8,0:0|0:2,0:0:0:0:
261,113,251686,6,0,P|222:82|206:38,1,95.9999970703126,6|0,0:0|1:2,0:0:0:0:
350,102,252002,2,0,P|342:151|312:187,1,95.9999970703126,2|8,0:0|0:2,0:0:0:0:
296,29,252318,1,2,0:0:0:0:
441,92,252476,2,0,L|456:186,1,95.9999970703126,2|0,1:2|0:0,0:0:0:0:
365,196,252791,2,0,L|350:102,1,95.9999970703126,10|0,0:2|0:0,0:0:0:0:
419,269,253107,5,6,1:2:0:0:
330,279,253265,1,2,0:2:0:0:
456,186,253423,2,0,P|497:224|509:264,1,95.9999970703126,10|2,0:2|0:2,0:0:0:0:
330,279,253739,5,2,1:2:0:0:
365,196,253897,1,2,0:2:0:0:
385,351,254054,2,0,P|341:369|283:356,1,95.9999970703126,10|2,0:2|0:2,0:0:0:0:
365,196,254370,5,2,1:2:0:0:
419,269,254528,1,10,0:2:0:0:
276,207,254686,2,0,P|282:163|319:118,1,95.9999970703126,10|2,0:2|0:2,0:0:0:0:
330,279,255002,5,10,0:2:0:0:
187,196,255160,1,10,0:2:0:0:
365,196,255318,1,2,1:2:0:0:
222,279,255476,1,10,0:2:0:0:
276,207,255633,6,0,L|295:80,1,128,6|2,0:0|0:0,0:0:0:0:
206,69,256107,2,0,L|186:195,2,128,2|2|2,0:0|0:0|0:0,0:0:0:0:
221,279,257054,6,0,P|158:282|108:241,1,128,2|2,0:0|0:0,0:0:0:0:
187,196,257528,1,2,0:0:0:0:
34,291,257844,1,2,0:0:0:0:
187,196,258160,6,0,P|249:192|299:233,1,128,2|2,0:0|0:0,0:0:0:0:
345,307,258633,2,0,P|341:244|380:195,2,128,2|2|2,0:0|0:0|0:0,0:0:0:0:
427,272,259423,6,0,L|506:258,1,80,6|0,1:2|1:2,0:0:0:0:
345,307,259739,2,0,L|317:382,1,80,0|0,1:2|1:2,0:0:0:0:
357,217,260054,2,0,L|305:155,1,80,6|2,1:2|1:2,0:0:0:0:
440,182,260370,1,8,0:2:0:0:
345,307,260528,1,8,0:2:0:0:
384,112,260686,6,0,P|452:131|491:34,1,191.999994140625,6|10,1:2|0:2,0:0:0:0:
403,23,261160,2,0,L|308:6,1,95.9999970703126,2|0,0:2|1:2,0:0:0:0:
250,75,261476,2,0,L|155:91,1,95.9999970703126,2|8,0:0|0:2,0:0:0:0:
78,45,261791,6,0,B|107:61|124:88|124:88|73:206,1,191.999994140625,6|0,0:0|0:0,0:0:0:0:
37,289,262265,2,0,P|83:295|127:277,1,95.9999970703126,10|0,0:2|0:0,0:0:0:0:
174,200,262581,2,0,P|220:193|264:211,1,95.9999970703126,2|0,1:2|0:0,0:0:0:0:
321,282,262897,2,0,L|305:377,1,95.9999970703126,8|0,0:0|0:0,0:0:0:0:
264,211,263212,6,0,B|316:175|370:205|370:205|396:170|391:125,1,191.999994140625,6|10,1:2|0:2,0:0:0:0:
353,48,263686,2,0,L|258:32,1,95.9999970703126,2|0,0:0|1:2,0:0:0:0:
217,113,264002,2,0,L|122:129,1,95.9999970703126,2|8,0:0|0:2,0:0:0:0:
40,92,264318,1,2,0:0:0:0:
50,183,264476,6,0,P|43:229|61:273,1,95.9999970703126,2|2,1:2|0:0,0:0:0:0:
217,254,264791,2,0,P|180:225|133:219,1,95.9999970703126,10|2,0:2|0:0,0:0:0:0:
71,364,265107,2,0,P|115:346|145:309,1,95.9999970703126,2|2,1:2|0:0,0:0:0:0:
50,183,265423,1,8,0:2:0:0:
61,273,265581,1,10,0:2:0:0:
61,273,266054,6,0,B|86:265|118:273|118:273|162:293|162:293|154:253|154:253|198:273|198:273|230:281|258:273,1,256,12|12,0:2|0:0,0:0:0:0:
258,273,267318,6,0,B|226:185|226:185|258:97|258:97|287:160,1,256,12|12,0:0|0:0,0:0:0:0:
286,159,268581,6,0,P|364:169|317:54,1,256,12|12,0:0|0:0,0:0:0:0:
144,67,269528,6,0,L|238:82,1,95.9999970703126,0|10,1:2|0:2,0:0:0:0:
196,163,269844,2,0,L|102:148,1,95.9999970703126,8|2,0:2|1:2,0:0:0:0:
286,159,270160,2,0,L|301:253,1,95.9999970703126,8|8,0:2|0:2,0:0:0:0:
196,163,270476,1,8,0:2:0:0:
238,82,270633,1,8,0:2:0:0:
211,253,270791,6,0,B|113:225|129:312|30:284,1,191.999994140625,6|10,1:2|0:2,0:0:0:0:
0,198,271265,2,0,L|15:104,1,95.9999970703126,2|0,0:0|1:2,0:0:0:0:
77,36,271581,2,0,P|123:29|167:47,1,95.9999970703126,2|8,0:0|0:2,0:0:0:0:
229,115,271897,6,0,P|275:121|319:103,1,95.9999970703126,2|0,0:0|1:2,0:0:0:0:
444,6,272212,2,0,P|414:43|409:91,1,95.9999970703126,2|8,0:0|0:2,0:0:0:0:
375,175,272528,1,2,0:0:0:0:
320,103,272686,2,0,P|273:96|229:114,1,95.9999970703126,2|0,1:2|0:0,0:0:0:0:
193,198,273002,2,0,P|240:205|284:186,1,95.9999970703126,10|0,0:2|0:0,0:0:0:0:
140,126,273318,5,6,1:2:0:0:
104,209,273476,1,2,0:2:0:0:
229,114,273633,2,0,P|211:70|173:42,1,95.9999970703126,14|2,0:2|0:0,0:0:0:0:
193,198,273949,5,6,1:2:0:0:
284,186,274107,1,2,0:0:0:0:
140,126,274265,2,0,P|110:161|106:217,1,95.9999970703126,14|2,0:2|0:0,0:0:0:0:
229,114,274581,5,2,1:2:0:0:
173,42,274739,1,10,0:2:0:0:
193,198,274897,2,0,P|235:205|285:185,1,95.9999970703126,10|2,0:2|0:0,0:0:0:0:
140,126,275212,5,10,0:2:0:0:
204,295,275370,1,10,0:2:0:0:
229,114,275528,1,2,1:2:0:0:
293,283,275686,1,10,0:2:0:0:
193,198,275844,6,0,L|161:203,1,32,6|2,0:2|0:2,0:0:0:0:
1,231,276476,2,0,L|32:225,1,32,2|2,0:2|0:2,0:0:0:0:
80,119,277107,6,0,L|86:151,1,32,2|2,0:2|0:2,0:0:0:0:
117,311,277739,2,0,L|112:280,1,32,2|2,0:2|0:2,0:0:0:0:
170,111,278370,6,0,B|274:53|274:53|317:164,1,240.000009155274,12|8,0:0|0:0,0:0:0:0:
501,267,279002,6,0,B|396:209|396:209|353:320,1,240.000009155274,12|8,0:0|0:0,0:0:0:0:
395,118,279633,6,0,B|395:82|393:57|393:57|432:65|450:30|450:30|468:48|496:70,2,191.999994140625,14|2|6,0:2|0:2|1:2,0:0:0:0:
