osu file format v14

[General]
AudioFilename: audio.mp3
AudioLeadIn: 0
PreviewTime: 133940
Countdown: 0
SampleSet: Normal
StackLeniency: 0.7
Mode: 0
LetterboxInBreaks: 0
WidescreenStoryboard: 0

[Editor]
Bookmarks: 5941,16607,27274,37940,43274,51274,53940,73940,75274,85940,93940,96607,101940,107274,117940,123274,131274,155274,165940,176607,183274,204607,215274,220607,223274,232607,232649,232690,232732,232774,232815,232857,232899,232940,232982,233024,233065,233107,233149,233190,233232,233274,233315,233357,233399,233440,233482,233524,233565,233607,233649,233690,233732,233774,233815,233857,233899,233940
DistanceSpacing: 0.37
BeatDivisor: 4
GridSize: 4
TimelineZoom: 4.399998

[Metadata]
Title:Pinky Jones
TitleUnicode:ピンキージョ-ンズ
Artist:MOMOIRO CLOVER Z
ArtistUnicode:ももいろクローバーZ
Creator:Luscent
Version:Insane
Source:ヨスガノソラ
Tags:corsace 2021 final f dt1 co2021 wf 緣の空 Yosuga no Sora Sky of Connection Haruka na ハルカナソラ japanese anime pop jpop eroge ed ending vn visual novel full version sphere Laurier Enon
BeatmapID:3216668
BeatmapSetID:1575491

[Difficulty]
HPDrainRate:6
CircleSize:4
OverallDifficulty:8
ApproachRate:9
SliderMultiplier:1.6
SliderTickRate:1

[Events]
//Background and Video events
0,0,"bg.jpg",0,0
//Break Periods
2,85974,93190
//Storyboard Layer 0 (Background)
//Storyboard Layer 1 (Fail)
//Storyboard Layer 2 (Pass)
//Storyboard Layer 3 (Foreground)
//Storyboard Layer 4 (Overlay)
//Storyboard Sound Samples

[TimingPoints]
1275,333.333333333333,4,2,3,80,1,0
3941,-100,4,2,3,50,0,0
5608,-83.3333333333333,4,2,3,50,0,0
5941,333.333333333333,4,2,3,70,1,0
5941,-90.9090909090909,4,1,3,70,0,0
16607,-90.9090909090909,4,2,3,70,0,0
43274,-90.9090909090909,4,1,3,70,0,0
53940,-83.3333333333359,4,1,3,60,0,1
73940,-133.333333333333,4,1,3,60,0,0
75274,-90.9090909090909,4,1,3,60,0,0
96607,-100,4,2,3,60,0,0
101940,-83.3333333333333,4,1,3,60,0,0
107274,-90.9090909090909,4,2,3,60,0,0
123274,-90.9090909090909,4,1,3,60,0,0
133940,-83.3333333333333,4,1,3,60,0,1
155274,-90.9090909090909,4,2,3,60,0,0
183274,-83.3333333333333,4,1,3,60,0,1
203274,-83.3333333333333,4,1,3,60,0,0
204607,-83.3333333333333,4,1,4,60,0,1
204628,-83.3333333333333,4,1,3,60,0,1
215274,-100,4,2,3,60,0,0
220607,-100,4,1,3,60,0,0
223274,-83.3333333333333,4,1,3,60,0,1
232607,-83.3333333333333,4,1,3,60,0,0
233940,-90.9090909090909,4,1,3,60,0,0
244774,-83.3333333333333,4,1,3,60,0,0
247357,-83.3333333333333,4,1,3,5,0,0

[Colours]
Combo1 : 255,236,179
Combo2 : 204,255,204
Combo3 : 183,216,255
Combo4 : 251,187,197

[HitObjects]
270,126,1275,5,4,1:2:0:0:
142,215,1442,1,0,1:0:0:0:
280,312,1609,5,4,1:2:0:0:
335,169,1774,1,0,1:0:0:0:
171,106,1942,5,4,1:2:0:0:
187,294,2109,1,0,1:0:0:0:
397,248,2275,5,4,1:2:0:0:
239,214,2442,1,0,1:0:0:0:
416,94,2608,6,0,P|414:160|415:211,1,80,0|0,1:2|1:0,1:0:0:0:
159,295,2941,2,0,P|161:229|160:178,1,80,0|0,1:2|1:0,1:0:0:0:
467,309,3274,6,8,L|470:269,3,40,8|8|8|8,1:1|1:1|1:1|1:1,1:1:0:0:
498,241,3608,2,8,L|501:201,3,40,8|8|8|8,1:1|1:1|1:1|1:1,1:1:0:0:
478,156,3940,5,2,0:0:0:0:
419,105,4108,1,2,0:0:0:0:
348,134,4274,1,2,0:0:0:0:
340,210,4441,1,2,0:0:0:0:
405,250,4608,1,2,0:0:0:0:
476,221,4774,5,2,0:0:0:0:
229,157,4941,1,2,0:0:0:0:
421,170,5108,1,2,0:0:0:0:
421,170,5191,2,0,L|440:173,2,20,2|0|8,1:2|1:0|1:0,1:0:0:0:
139,213,5441,1,0,1:0:0:0:
330,151,5608,6,0,B|355:74|322:-2,1,143.999995605469,12|0,1:0|0:0,0:0:0:0:
293,2,5941,5,6,1:2:0:0:
211,102,6107,1,2,0:2:0:0:
321,186,6274,1,10,0:2:0:0:
211,102,6440,1,2,0:2:0:0:
383,89,6607,2,0,B|424:86|485:84,1,88.000002685547,2|0,0:2|0:0,0:0:0:0:
142,251,6940,5,10,0:2:0:0:
68,183,7107,2,0,B|35:90|68:0,2,176.000005371094,2|2|2,0:2|0:2|0:2,0:0:0:0:
183,349,7940,1,0,0:0:0:0:
183,349,8107,1,2,0:2:0:0:
161,168,8274,1,10,0:2:0:0:
34,278,8440,1,2,0:2:0:0:
229,260,8607,6,0,B|278:263|339:269,1,88.000002685547,2|0,0:2|0:0,0:0:0:0:
443,139,8940,2,0,B|394:136|333:130,1,88.000002685547,10|0,0:2|0:0,0:0:0:0:
389,242,9274,1,2,0:2:0:0:
475,108,9440,1,2,0:2:0:0:
321,100,9607,1,8,0:0:0:0:
389,242,9774,6,0,B|438:245|499:251,1,88.000002685547,2|0,0:2|0:0,0:0:0:0:
235,78,10107,2,0,B|240:124|248:187,1,88.000002685547,2|8,0:2|0:0,0:0:0:0:
264,348,10440,1,2,0:2:0:0:
64,261,10607,5,2,0:0:0:0:
270,243,10774,1,2,0:2:0:0:
64,261,10940,1,10,0:0:0:0:
270,243,11107,1,2,0:2:0:0:
114,105,11274,6,0,B|104:147|103:191,1,88.000002685547,6|2,0:2|0:2,0:2:0:0:
175,343,11607,1,10,0:2:0:0:
241,174,11774,1,2,0:2:0:0:
26,253,11940,2,0,B|80:270|122:274,1,88.000002685547,2|0,0:2|0:0,0:0:0:0:
339,344,12274,5,10,0:2:0:0:
424,288,12440,2,0,B|446:191|421:101,2,176.000005371094,2|2|2,0:2|0:2|0:2,0:0:0:0:
243,193,13274,1,0,0:0:0:0:
243,193,13440,1,2,0:2:0:0:
399,155,13607,1,10,0:2:0:0:
344,298,13774,1,2,0:2:0:0:
220,168,13940,6,0,B|217:103|218:53,1,88.000002685547,6|0,0:2|0:0,0:0:0:0:
44,265,14274,2,0,B|47:330|46:380,1,88.000002685547,10|0,0:2|0:0,0:0:0:0:
249,249,14607,1,2,0:2:0:0:
53,166,14774,1,2,0:2:0:0:
185,312,14940,1,8,0:0:0:0:
217,80,15107,6,0,B|151:91|121:169|158:221,1,176.000005371094,2|2,0:2|0:2,0:0:0:0:
398,217,15607,1,8,0:0:0:0:
248,178,15774,1,2,0:2:0:0:
363,304,15940,1,0,0:0:0:0:
506,236,16107,5,0,0:2:0:0:
508,214,16190,1,0,0:2:0:0:
502,192,16273,1,10,0:2:0:0:
504,170,16357,1,0,0:2:0:0:
498,148,16440,1,0,0:2:0:0:
500,126,16523,1,0,0:2:0:0:
494,104,16607,6,0,B|443:102|393:95,1,88.000002685547,6|0,0:2|0:2,0:2:0:0:
273,9,16940,2,0,B|321:87|289:187,1,176.000005371094,2|2,1:2|0:2,0:2:0:0:
212,238,17440,1,2,0:2:0:0:
374,220,17607,1,0,1:2:0:0:
212,238,17774,1,2,0:2:0:0:
321,381,17940,6,0,B|327:318|338:262,1,88.000002685547,2|0,0:2|0:2,0:2:0:0:
134,326,18274,2,0,B|186:318|246:315,1,88.000002685547,2|0,1:2|0:2,0:2:0:0:
71,118,18607,2,0,B|-4:189|40:282,1,176.000005371094,2|2,0:2|1:2,0:2:0:0:
38,277,19107,1,2,0:2:0:0:
212,238,19274,6,0,B|259:235|314:236,1,88.000002685547,2|0,0:2|0:2,0:2:0:0:
411,103,19607,2,0,B|364:106|313:104,1,88.000002685547,2|0,1:2|0:2,0:2:0:0:
254,322,19940,1,2,0:2:0:0:
383,236,20107,1,2,0:2:0:0:
252,149,20274,1,0,1:2:0:0:
387,325,20440,6,0,B|455:318|487:249|461:187,1,176.000005371094,2|0,0:2|0:2,0:2:0:0:
390,117,20940,1,2,1:2:0:0:
363,218,21107,1,2,0:2:0:0:
490,113,21274,2,0,B|489:53|492:5,1,88.000002685547,2|0,0:2|0:2,0:2:0:0:
190,83,21607,5,2,1:2:0:0:
143,213,21774,1,2,0:2:0:0:
308,101,21940,2,0,B|310:37|310:-4,1,88.000002685547,6|0,0:2|0:2,0:2:0:0:
298,305,22274,1,2,1:2:0:0:
298,305,22440,1,2,0:2:0:0:
226,151,22607,5,2,0:2:0:0:
399,250,22774,1,2,0:2:0:0:
192,234,22940,1,0,1:2:0:0:
380,165,23107,2,0,B|432:169|471:177,1,88.000002685547,2|0,0:2|0:2,0:2:0:0:
461,324,23440,1,2,0:2:0:0:
303,219,23607,2,0,B|301:158|311:102,1,88.000002685547,2|0,1:2|0:2,0:2:0:0:
284,17,23940,1,2,0:2:0:0:
188,146,24107,1,0,0:2:0:0:
113,30,24274,1,2,1:2:0:0:
27,75,24440,1,2,0:2:0:0:
238,83,24607,5,2,0:2:0:0:
27,75,24774,1,0,0:2:0:0:
27,75,24857,1,0,0:2:0:0:
27,75,24940,1,0,1:2:0:0:
90,208,25107,1,0,0:2:0:0:
238,83,25274,6,0,B|241:28|242:-15,1,88.000002685547,2|0,0:2|0:2,0:2:0:0:
177,290,25607,1,0,1:2:0:0:
318,142,25774,1,0,0:2:0:0:
83,182,25940,6,0,B|133:195|198:199,1,88.000002685547,2|0,0:2|0:2,0:2:0:0:
382,255,26274,2,0,B|332:242|271:237,1,88.000002685547,2|0,1:2|0:2,0:2:0:0:
177,290,26607,1,2,0:2:0:0:
318,142,26774,1,0,0:2:0:0:
305,363,26940,2,0,L|307:390,6,22.0000006713867,2|0|0|0|0|0|0,1:1|1:1|1:1|1:1|1:1|1:1|1:1,1:1:0:0:
333,341,27274,6,0,B|379:339|432:339,1,88.000002685547,6|0,0:1|0:1,0:1:0:0:
512,225,27607,2,0,B|461:225|413:224,1,88.000002685547,2|0,1:1|0:1,0:1:0:0:
424,224,27857,1,0,0:1:0:0:
424,224,27940,1,2,1:1:0:0:
264,299,28107,1,2,1:1:0:0:
429,372,28274,1,0,1:1:0:0:
222,229,28440,6,0,B|162:264|175:353|234:373,1,176.000005371094,2|0,1:1|0:1,0:1:0:0:
409,216,28940,2,0,B|407:154|400:105,1,88.000002685547,2|0,1:1|0:1,0:1:0:0:
196,110,29274,2,0,B|198:172|205:221,1,88.000002685547,2|0,1:1|0:1,0:1:0:0:
440,215,29607,2,0,B|438:153|431:104,1,88.000002685547,2|0,1:1|0:1,0:1:0:0:
128,235,29940,5,2,1:1:0:0:
337,170,30107,1,0,1:1:0:0:
111,122,30274,1,2,1:1:0:0:
257,260,30440,1,0,0:1:0:0:
257,260,30524,1,0,0:1:0:0:
257,260,30607,1,2,1:1:0:0:
348,148,30774,2,0,B|351:96|347:44,1,88.000002685547,2|0,1:1|1:1,0:1:0:0:
71,52,31107,6,2,B|8:81|17:176|82:199,1,176.000005371094,2|2,1:1|0:1,0:1:0:0:
128,353,31607,1,2,1:1:0:0:
128,353,31774,1,0,1:1:0:0:
257,208,31940,1,2,0:1:0:0:
257,208,32107,1,0,0:1:0:0:
64,274,32274,5,2,1:1:0:0:
296,301,32440,1,0,0:1:0:0:
154,145,32607,2,0,B|145:201|149:244,1,88.000002685547,6|0,1:1|0:1,0:1:0:0:
339,108,32940,1,2,1:1:0:0:
228,98,33107,1,0,0:1:0:0:
402,172,33274,2,2,B|444:84|410:-16,1,176.000005371094,2|2,1:1|1:1,0:1:0:0:
263,73,33774,5,2,1:1:0:0:
402,172,33940,1,0,0:1:0:0:
415,0,34107,1,2,0:1:0:0:
263,73,34274,2,0,B|267:126|267:174,1,88.000002685547,2|0,1:1|0:1,0:1:0:0:
117,346,34607,2,2,B|48:326|23:246|80:189,1,176.000005371094,2|2,1:1|1:1,0:1:0:0:
65,205,35107,1,0,0:1:0:0:
323,286,35274,5,2,1:1:0:0:
133,265,35440,1,0,0:1:0:0:
133,265,35607,1,2,1:1:0:0:
412,225,35774,5,2,1:1:0:0:
227,280,35941,1,0,0:1:0:0:
227,280,36108,1,0,1:1:0:0:
487,285,36274,5,2,1:1:0:0:
328,193,36440,2,0,B|322:131|325:72,1,88.000002685547,6|0,1:2|0:0,0:0:0:0:
414,361,36774,5,2,1:0:0:0:
414,361,36940,1,2,1:0:0:0:
493,207,37107,1,2,0:0:0:0:
493,207,37274,1,2,1:0:0:0:
329,291,37440,1,2,1:0:0:0:
203,201,37607,1,0,1:0:0:0:
118,234,37774,1,0,0:0:0:0:
293,220,37940,5,2,1:2:0:0:
104,135,38107,1,0,0:2:0:0:
279,121,38274,1,2,1:2:0:0:
118,234,38440,1,0,0:2:0:0:
373,234,38607,5,2,1:2:0:0:
201,117,38774,1,2,1:2:0:0:
376,134,38941,1,2,0:2:0:0:
198,217,39107,1,0,1:2:0:0:
374,217,39274,6,0,B|420:224|476:239,1,88.000002685547,2|2,0:2|1:2,0:2:0:0:
373,52,39607,2,0,B|419:45|475:30,1,88.000002685547,2|0,1:2|0:2,0:2:0:0:
289,134,39940,2,0,B|197:147|194:110|114:121,1,176.000005371094,2|2,1:2|0:2,0:2:0:0:
115,120,40440,1,0,0:2:0:0:
161,341,40607,5,2,1:2:0:0:
267,216,40774,1,2,0:2:0:0:
267,216,40858,1,0,0:2:0:0:
267,216,40940,1,2,1:2:0:0:
42,256,41107,1,0,0:2:0:0:
333,291,41274,5,2,1:2:0:0:
168,242,41440,1,2,1:2:0:0:
403,154,41607,1,0,0:2:0:0:
249,115,41774,1,2,1:2:0:0:
409,236,41940,6,0,B|458:232|514:232,1,88.000002685547,2|6,1:2|1:2,1:2:0:0:
171,158,42274,2,0,B|122:162|66:162,1,88.000002685547,2|6,1:2|1:2,1:2:0:0:
237,362,42607,2,0,L|243:311,1,44.0000013427735,2|0,1:2|1:2,1:2:0:0:
337,244,42774,2,0,L|330:185,1,44.0000013427735,2|0,1:2|1:2,1:2:0:0:
249,115,42940,1,6,1:2:0:0:
249,115,43274,5,4,1:2:0:0:
274,145,43357,1,0,1:0:0:0:
307,165,43440,1,2,1:0:0:0:
346,165,43524,1,0,1:0:0:0:
383,153,43607,1,2,1:0:0:0:
335,0,43940,2,2,B|328:49|328:107,1,88.000002685547,2|2,0:0|1:0,0:0:0:0:
462,300,44274,5,0,0:0:0:0:
462,300,44440,2,2,B|528:281|515:161|448:152,1,176.000005371094,6|2,0:2|0:0,0:0:0:0:
144,225,44940,2,0,B|191:221|236:221,1,88.000002685547,2|0,0:0|2:0,0:0:0:0:
394,137,45274,2,0,B|347:133|302:133,1,88.000002685547,2|0,0:0|2:0,0:0:0:0:
139,53,45607,2,0,B|186:49|231:49,1,88.000002685547,0|0,0:0|2:0,0:0:0:0:
314,249,45940,5,6,0:2:0:0:
291,281,46023,1,0,0:0:0:0:
258,302,46106,1,2,0:0:0:0:
218,302,46190,1,0,0:0:0:0:
179,291,46273,1,2,0:0:0:0:
221,133,46607,2,2,B|229:181|233:237,1,88.000002685547
59,363,46940,5,0,0:0:0:0:
59,363,47106,2,2,B|-6:351|-5:232|58:221,1,176.000005371094,6|2,0:2|0:0,0:0:0:0:
243,252,47607,2,0,B|200:248|141:246,1,88.000002685547,2|0,0:0|2:0,0:0:0:0:
2,133,47940,2,0,B|45:129|104:127,1,88.000002685547,2|0,0:0|2:0,0:0:0:0:
254,18,48274,2,0,B|211:14|152:12,1,88.000002685547,2|0,0:0|2:0,0:0:0:0:
346,231,48607,5,6,0:2:0:0:
368,198,48690,1,0,0:0:0:0:
378,159,48773,1,2,0:0:0:0:
373,119,48857,1,0,0:0:0:0:
357,82,48940,1,2,0:0:0:0:
249,154,49107,1,2,2:0:0:0:
346,231,49274,2,2,B|400:233|458:242,1,88.000002685547
251,302,49607,1,0,0:0:0:0:
467,315,49774,6,2,B|529:286|531:194|478:166,1,176.000005371094,6|2,0:2|0:0,0:0:0:0:
290,24,50274,1,2,0:0:0:0:
366,108,50440,1,0,2:0:0:0:
479,88,50607,1,2,0:0:0:0:
366,108,50774,1,0,2:0:0:0:
285,188,50940,2,0,B|237:184|169:181,1,88.000002685547,2|0,0:0|0:0,0:0:0:0:
22,171,51274,5,2,0:2:0:0:
146,283,51607,1,2,0:2:0:0:
285,188,51940,1,2,0:2:0:0:
161,80,52274,1,2,0:2:0:0:
464,32,52607,37,2,2:2:0:0:
464,48,52691,1,2,2:2:0:0:
464,64,52774,1,2,2:2:0:0:
464,80,52857,1,2,2:2:0:0:
448,104,52941,5,2,2:2:0:0:
448,120,53024,1,2,2:2:0:0:
448,136,53107,1,2,2:2:0:0:
448,152,53191,1,2,2:2:0:0:
432,176,53274,6,0,L|435:224,3,44.0000013427735,2|2|2|2,2:2|2:2|2:2|2:2,2:2:0:0:
409,240,53607,6,0,L|412:288,3,44.0000013427735,2|2|2|2,2:2|2:2|2:2|2:2,2:2:0:0:
400,320,53940,6,1,B|364:384|240:360|244:292,1,191.999994140625,4|10,0:2|0:0,0:0:0:0:
161,154,54440,1,0,0:0:0:0:
161,154,54524,1,0,0:0:0:0:
161,154,54607,2,0,B|182:202|174:266,1,95.9999970703126,2|2,0:0|0:0,0:0:0:0:
145,349,54940,1,8,0:0:0:0:
0,267,55107,6,0,L|110:257,1,95.9999970703126,2|0,0:0|0:0,0:0:0:0:
256,146,55440,1,2,0:0:0:0:
256,146,55607,2,0,L|160:154,1,95.9999970703126,10|0,0:0|0:0,0:0:0:0:
45,4,55940,2,2,B|-13:37|-5:139|62:162,1,191.999994140625,2|10,0:0|0:0,0:0:0:0:
211,263,56440,1,0,0:0:0:0:
192,96,56607,5,2,0:0:0:0:
22,230,56774,1,0,0:0:0:0:
275,188,56940,2,0,B|324:182|387:178,1,95.9999970703126,12|2,0:2|0:0,0:0:0:0:
138,164,57274,5,2,0:0:0:0:
304,270,57440,1,0,0:0:0:0:
411,109,57607,2,0,B|423:54|430:2,1,95.9999970703126,12|0,0:2|0:0,0:0:0:0:
455,250,57940,5,2,0:0:0:0:
304,270,58107,1,2,0:0:0:0:
370,179,58274,1,10,0:0:0:0:
389,328,58440,5,0,0:0:0:0:
290,190,58607,1,2,0:0:0:0:
449,168,58774,1,8,0:0:0:0:
302,364,58940,5,14,0:2:0:0:
125,274,59107,1,2,0:0:0:0:
125,274,59190,1,0,0:0:0:0:
125,274,59274,2,0,B|178:273|236:277,1,95.9999970703126
320,278,59607,2,0,B|383:261|407:159|340:110,1,191.999994140625,10|2,0:2|0:0,0:0:0:0:
236,59,60107,1,2,0:0:0:0:
169,151,60274,2,0,B|189:213|224:269,1,95.9999970703126,8|2,0:0|0:0,0:0:0:0:
352,120,60607,6,0,B|332:58|297:2,1,95.9999970703126
28,89,60940,2,0,B|27:155|115:202|172:148,1,191.999994140625,8|2,0:0|0:0,0:0:0:0:
178,0,61440,1,2,0:0:0:0:
112,89,61607,1,8,0:0:0:0:
321,175,61774,5,2,0:0:0:0:
321,175,61857,1,0,0:0:0:0:
321,175,61940,2,0,B|315:105|304:57,1,95.9999970703126,6|0,0:2|0:0,0:0:0:0:
134,288,62274,1,8,0:0:0:0:
313,255,62440,1,0,0:0:0:0:
136,184,62607,1,2,0:0:0:0:
251,330,62774,1,0,0:0:0:0:
244,154,62940,1,10,0:0:0:0:
244,154,63107,1,0,0:0:0:0:
54,328,63274,5,2,0:0:0:0:
224,243,63440,2,0,L|277:248,2,47.9999985351563,8|0|10,0:0|0:0|0:0,0:0:0:0:
70,150,63774,2,0,L|17:155,2,47.9999985351563,10|0|0,0:0|0:0|0:2,0:0:0:0:
218,321,64107,5,10,0:0:0:0:
232,321,64190,1,0,0:0:0:0:
246,321,64274,1,8,0:0:0:0:
260,321,64357,1,0,0:0:0:0:
274,321,64440,1,0,0:0:0:0:
288,321,64524,1,0,0:0:0:0:
302,321,64607,2,0,B|367:319|405:218|347:169,1,191.999994140625,4|10,0:2|0:0,0:0:0:0:
58,165,65107,5,0,0:0:0:0:
58,165,65190,1,0,0:0:0:0:
58,165,65274,2,0,B|64:219|72:268,1,95.9999970703126,2|2,0:0|0:0,0:0:0:0:
286,239,65607,1,8,0:0:0:0:
286,239,65774,2,0,B|280:185|272:136,1,95.9999970703126,2|0,0:0|0:0,0:0:0:0:
249,0,66107,5,0,0:0:0:0:
95,65,66274,2,0,B|147:86|201:91,1,95.9999970703126,10|0,0:0|0:0,0:0:0:0:
352,58,66607,1,2,0:0:0:0:
327,240,66774,1,0,0:0:0:0:
159,219,66940,1,10,0:0:0:0:
428,198,67107,5,0,0:0:0:0:
258,267,67274,2,2,B|238:218|242:124|266:73,1,191.999994140625,2|12,0:0|0:2,0:0:0:0:
359,10,67774,1,2,0:0:0:0:
459,118,67940,2,0,B|412:129|347:130,1,95.9999970703126,2|0,0:0|0:0,0:0:0:0:
169,117,68274,1,12,0:2:0:0:
169,117,68607,5,2,0:0:0:0:
346,222,68774,1,2,0:0:0:0:
97,192,68940,5,10,0:0:0:0:
251,124,69107,1,0,0:0:0:0:
305,285,69274,1,2,0:0:0:0:
31,265,69440,5,8,0:0:0:0:
213,238,69607,1,14,0:1:0:0:
31,265,69774,1,2,0:0:0:0:
31,265,69857,1,0,0:0:0:0:
31,265,69940,2,0,B|20:194|18:153,1,95.9999970703126,0|0,0:1|0:0,0:0:0:0:
166,27,70274,2,0,B|177:98|179:139,1,95.9999970703126,8|0,0:0|0:0,0:0:0:0:
249,238,70607,5,2,0:0:0:0:
100,149,70774,1,2,0:0:0:0:
254,46,70940,1,8,0:0:0:0:
162,220,71107,5,2,0:0:0:0:
329,140,71274,2,0,B|385:137|444:137,1,95.9999970703126,0|0,0:2|0:0,0:0:0:0:
146,241,71607,2,0,B|90:244|31:244,1,95.9999970703126,8|0,0:0|0:0,0:0:0:0:
179,339,71940,1,2,0:0:0:0:
294,234,72107,1,2,0:0:0:0:
173,138,72274,1,8,0:0:0:0:
270,317,72440,1,10,0:0:0:0:
453,215,72607,5,4,0:2:0:0:
453,215,72774,1,0,0:0:0:0:
173,243,72940,1,12,0:2:0:0:
173,243,73107,1,0,0:0:0:0:
443,328,73274,5,4,0:2:0:0:
443,328,73441,1,0,0:0:0:0:
205,131,73607,1,12,0:2:0:0:
205,131,73774,1,0,0:0:0:0:
305,367,73940,6,0,B|312:301|317:240,1,120.000004577637,2|2,0:2|0:2,0:2:0:0:
316,247,74440,1,2,0:2:0:0:
316,247,74774,1,2,0:2:0:0:
316,247,75107,1,2,0:2:0:0:
204,86,75274,5,6,0:2:0:0:
236,238,75440,1,2,0:2:0:0:
314,144,75607,1,10,0:2:0:0:
126,184,75774,1,2,0:2:0:0:
318,161,75940,6,0,B|369:156|413:155,1,88.000002685547,2|0,0:2|0:0,0:0:0:0:
199,169,76274,1,10,0:2:0:0:
371,66,76440,2,0,B|317:100|239:73|232:9,2,176.000005371094,2|2|2,0:2|0:2|0:2,0:0:0:0:
432,227,77274,1,0,0:0:0:0:
432,227,77440,1,2,0:2:0:0:
453,50,77607,1,10,0:2:0:0:
302,147,77774,1,2,0:2:0:0:
506,184,77940,6,0,B|510:139|513:76,1,88.000002685547,2|0,0:2|0:0,0:0:0:0:
302,147,78274,2,0,B|298:192|295:255,1,88.000002685547,10|0,0:2|0:0,0:0:0:0:
384,334,78607,1,2,0:2:0:0:
185,290,78774,2,0,B|185:237|192:188,1,88.000002685547,2|8,0:2|0:0,0:0:0:0:
16,149,79107,6,0,B|71:143|111:140,1,88.000002685547,2|0,0:2|0:0,0:0:0:0:
261,87,79440,2,0,B|272:36|269:-17,1,88.000002685547,2|8,0:2|0:0,0:0:0:0:
137,0,79774,1,2,0:2:0:0:
201,135,79940,5,2,0:0:0:0:
16,149,80107,1,2,0:2:0:0:
201,135,80274,1,10,0:0:0:0:
16,149,80441,1,2,0:2:0:0:
246,201,80607,5,6,0:2:0:0:
144,74,80774,1,2,0:2:0:0:
55,216,80940,2,0,B|109:216|151:219,1,88.000002685547,10|2,0:2|0:2,0:2:0:0:
308,298,81274,1,2,0:2:0:0:
390,239,81440,2,0,B|396:185|392:130,1,88.000002685547,0|10,0:0|0:2,0:0:0:0:
222,23,81774,2,0,B|238:85|320:108|370:73,2,176.000005371094,2|2|2,0:2|0:2|0:2,0:0:0:0:
225,253,82607,1,0,0:0:0:0:
225,253,82774,1,2,0:2:0:0:
206,89,82940,1,10,0:2:0:0:
88,185,83107,1,2,0:2:0:0:
302,173,83274,6,0,B|342:171|397:169,1,88.000002685547,2|0,0:2|0:0,0:0:0:0:
133,257,83607,2,0,B|93:259|38:261,1,88.000002685547,10|0,0:2|0:0,0:0:0:0:
303,270,83940,1,2,0:2:0:0:
130,178,84107,1,2,0:2:0:0:
192,361,84274,1,8,0:0:0:0:
319,270,84440,6,0,B|320:209|319:162,1,88.000002685547,2|0,0:2|0:0,0:0:0:0:
112,35,84774,2,0,B|57:70|67:166|148:184,1,176.000005371094,2|2,0:2|0:2,0:0:0:0:
350,89,85275,5,2,0:0:0:0:
161,105,85440,1,2,0:2:0:0:
350,89,85607,1,10,0:0:0:0:
161,105,85774,1,2,0:2:0:0:
255,192,93940,5,6,0:0:0:0:
173,199,94441,5,2,0:0:0:0:
339,185,94607,1,6,0:0:0:0:
153,172,95107,5,2,0:0:0:0:
304,270,95274,1,6,0:0:0:0:
319,94,95441,1,2,0:0:0:0:
175,268,95607,5,6,0:0:0:0:
339,185,95774,1,2,0:0:0:0:
199,82,95940,1,6,0:0:0:0:
257,355,96274,1,2,2:0:0:0:
257,355,96440,1,2,2:0:0:0:
334,316,96607,6,0,B|374:312|413:311,1,80,6|0,1:2|0:0,0:0:0:0:
512,354,96940,2,0,B|478:273|486:182,1,160,8|2,0:0|1:2,0:0:0:0:
497,118,97440,1,2,0:2:0:0:
497,118,97607,1,10,0:2:0:0:
404,224,97774,1,2,0:2:0:0:
270,157,97940,6,0,B|320:153|369:150,1,80,0|0,1:0|0:0,0:0:0:0:
458,35,98274,2,0,B|408:39|359:42,1,80,8|0,0:0|0:0,0:0:0:0:
163,16,98607,2,0,B|102:35|102:130|174:149,1,160,0|8,1:0|0:0,0:0:0:0:
201,216,99107,1,0,0:0:0:0:
271,81,99274,5,0,1:0:0:0:
271,81,99440,1,2,0:2:0:0:
69,188,99607,1,8,0:0:0:0:
69,188,99773,1,2,0:2:0:0:
275,232,99940,1,0,1:0:0:0:
138,295,100107,1,2,0:2:0:0:
275,232,100274,1,8,0:0:0:0:
156,142,100440,6,0,B|156:188|162:234,1,80,2|0,0:2|1:0,0:0:0:0:
344,349,100774,1,2,0:2:0:0:
344,349,100940,2,0,B|348:309|347:269,1,80,8|2,0:0|0:2,0:0:0:0:
303,116,101274,2,0,B|314:169|387:199|436:175,1,160,0|8,1:0|0:0,0:0:0:0:
494,120,101774,1,2,0:2:0:0:
512,268,101940,6,0,B|466:260|385:253,1,95.9999970703126,4|0,0:2|2:0,0:0:0:0:
96,125,102274,2,0,B|111:179|120:236,1,95.9999970703126,4|0,0:2|2:0,0:0:0:0:
274,370,102607,1,4,0:2:0:0:
274,370,103274,6,0,B|328:360|413:357,1,95.9999970703126,4|0,0:2|2:0,0:0:0:0:
117,218,103607,2,0,B|69:208|22:204,1,95.9999970703126,4|0,0:2|2:0,0:0:0:0:
264,35,103940,1,4,0:2:0:0:
264,35,104607,6,0,B|272:89|277:152,1,95.9999970703126,4|0,0:2|2:0,0:0:0:0:
483,306,104940,2,0,B|487:258|494:210,1,95.9999970703126,4|0,0:2|2:0,0:0:0:0:
174,199,105274,1,4,0:2:0:0:
174,199,105940,5,6,1:2:0:0:
313,276,106107,1,2,2:0:0:0:
313,276,106190,1,2,2:0:0:0:
313,276,106274,1,2,2:0:0:0:
386,138,106440,1,2,2:0:0:0:
212,291,106607,5,6,1:2:0:0:
281,170,106774,1,2,2:0:0:0:
399,231,106940,1,2,2:0:0:0:
281,170,107107,1,2,2:0:0:0:
326,321,107274,6,0,B|381:312|439:307,1,88.000002685547,6|0,1:0|0:0,0:0:0:0:
162,220,107607,2,0,B|107:229|49:234,1,88.000002685547,2|0,1:1|0:1,0:1:0:0:
74,232,107857,1,0,0:1:0:0:
74,232,107940,1,2,1:1:0:0:
4,180,108107,1,0,1:1:0:0:
90,318,108274,1,2,1:1:0:0:
215,287,108440,6,0,B|269:246|243:139|181:134,1,176.000005371094,2|2,1:1|0:1,0:1:0:0:
98,51,108940,2,0,B|104:98|114:150,1,88.000002685547,2|0,1:1|0:1,0:1:0:0:
331,117,109274,2,0,B|325:70|315:18,1,88.000002685547,2|0,1:1|0:1,0:1:0:0:
66,54,109607,2,0,B|72:101|82:153,1,88.000002685547,2|0,1:1|0:1,0:1:0:0:
398,167,109940,5,2,1:1:0:0:
258,221,110107,1,0,0:1:0:0:
152,115,110274,1,2,1:1:0:0:
258,221,110440,1,0,0:1:0:0:
357,146,110607,6,0,B|362:97|363:36,1,88.000002685547,2|0,1:1|0:1,0:1:0:0:
354,253,110940,1,2,1:1:0:0:
104,254,111107,2,2,B|106:319|182:358|240:311,1,176.000005371094,2|2,1:1|0:1,0:1:0:0:
354,253,111607,1,2,1:1:0:0:
354,253,111774,1,0,0:1:0:0:
258,221,111940,5,2,1:1:0:0:
374,342,112107,1,0,0:1:0:0:
512,291,112274,1,2,1:1:0:0:
434,133,112440,5,0,1:1:0:0:
434,133,112524,1,0,1:1:0:0:
434,133,112607,2,0,B|428:191|423:239,1,88.000002685547,6|0,1:1|0:1,0:1:0:0:
222,78,112940,1,2,1:1:0:0:
370,71,113107,1,0,0:1:0:0:
192,157,113274,2,0,B|133:138|129:37|180:13,1,176.000005371094,2|2,1:1|1:1,0:1:0:0:
370,71,113774,5,2,1:1:0:0:
192,157,113940,1,0,0:1:0:0:
179,13,114107,1,2,0:1:0:0:
361,150,114274,2,0,B|355:196|350:254,1,88.000002685547,2|0,1:1|0:1,0:1:0:0:
70,277,114607,2,2,B|126:263|196:298|219:350,1,176.000005371094,2|2,1:1|1:1,0:1:0:0:
217,347,115107,1,0,0:1:0:0:
218,205,115274,5,2,1:1:0:0:
45,297,115440,1,0,0:1:0:0:
45,297,115607,1,0,1:1:0:0:
312,250,115774,5,2,1:1:0:0:
127,235,115940,1,0,0:1:0:0:
127,235,116107,1,0,1:1:0:0:
369,322,116274,5,2,1:1:0:0:
302,161,116440,2,0,B|293:107|295:43,1,88.000002685547,6|0,1:1|0:1,0:1:0:0:
194,292,116774,5,2,1:1:0:0:
383,218,116940,1,2,1:1:0:0:
232,200,117107,1,0,1:1:0:0:
458,240,117274,5,2,0:1:0:0:
307,232,117440,1,2,1:1:0:0:
458,199,117607,1,0,1:1:0:0:
23,191,117940,5,2,1:2:0:0:
145,238,118107,1,2,0:2:0:0:
145,238,118190,1,0,0:0:0:0:
145,238,118274,1,2,1:2:0:0:
231,140,118440,2,0,L|284:147,2,44.0000013427735,2|2|2,0:2|0:2|1:2,0:2:0:0:
109,91,118774,1,2,1:2:0:0:
259,238,118940,5,0,1:0:0:0:
286,53,119107,1,2,0:2:0:0:
100,169,119274,2,0,B|163:166|206:165,1,88.000002685547,6|0,1:2|0:0,0:0:0:0:
409,130,119607,2,0,B|346:127|303:126,1,88.000002685547,2|0,1:2|0:0,0:2:0:0:
63,12,119940,2,0,B|71:71|148:104|210:58,1,176.000005371094,2|0,1:2|1:0,0:0:0:0:
140,304,120607,5,2,1:2:0:0:
5,243,120774,1,2,0:2:0:0:
5,243,120857,1,2,0:2:0:0:
5,243,120940,1,2,1:2:0:0:
138,162,121107,2,0,L|185:165,2,44.0000013427735,2|2|2,0:2|0:2|1:2,0:2:0:0:
54,333,121440,5,2,0:2:0:0:
194,236,121607,1,2,1:2:0:0:
46,146,121774,1,2,0:2:0:0:
189,316,121940,6,0,B|240:321|307:332,1,88.000002685547,2|4,1:2|1:2,1:0:0:0:
475,241,122274,2,0,B|424:236|357:225,1,88.000002685547,2|4,1:2|1:2,1:0:0:0:
108,180,122607,2,0,B|145:144|174:88,1,88.000002685547,2|4,1:2|1:2,1:0:0:0:
396,8,122940,2,0,B|412:56|435:98,1,88.000002685547,2|4,1:2|1:2,1:0:0:0:
270,237,123274,5,4,0:2:0:0:
246,205,123357,1,0,0:0:0:0:
234,167,123440,1,2,0:0:0:0:
234,127,123523,1,0,0:0:0:0:
249,90,123607,1,2,0:0:0:0:
410,159,123940,2,2,B|363:160|299:150,1,88.000002685547
27,301,124274,5,0,0:0:0:0:
27,301,124440,2,2,B|82:276|157:304|180:362,1,176.000005371094,6|2,0:2|0:0,0:0:0:0:
346,255,124940,2,0,B|296:254|251:245,1,88.000002685547,2|0,0:0|2:0,0:0:0:0:
54,134,125274,2,0,B|104:135|149:144,1,88.000002685547,2|0,0:0|2:0,0:0:0:0:
297,27,125607,2,0,B|247:26|202:17,1,88.000002685547,0|0,0:0|2:0,0:0:0:0:
446,182,125940,5,4,0:2:0:0:
469,149,126023,1,0,0:0:0:0:
480,111,126106,1,2,0:0:0:0:
478,71,126189,1,0,0:0:0:0:
463,33,126273,1,2,0:0:0:0:
296,97,126607,2,2,B|350:103|400:106,1,88.000002685547
126,238,126940,5,0,0:0:0:0:
126,238,127107,2,2,B|65:208|84:109|148:97,1,176.000005371094,6|2,0:2|0:0,0:0:0:0:
376,238,127607,2,0,B|373:292|364:336,1,88.000002685547,2|0,0:0|2:0,0:0:0:0:
211,145,127940,2,0,B|214:91|223:47,1,88.000002685547,2|0,0:0|2:0,0:0:0:0:
458,243,128274,2,0,B|455:297|446:341,1,88.000002685547,2|0,0:0|2:0,0:0:0:0:
96,313,128607,5,4,0:2:0:0:
135,313,128690,1,0,0:0:0:0:
171,327,128773,1,2,0:0:0:0:
204,347,128856,1,0,0:0:0:0:
233,374,128940,1,2,0:0:0:0:
330,280,129107,1,0,0:0:0:0:
244,186,129274,2,2,B|196:195|146:197,1,88.000002685547
53,290,129607,5,0,0:0:0:0:
53,290,129774,2,2,B|-9:279|-25:168|52:142,1,176.000005371094,6|2,0:2|0:0,0:0:0:0:
229,0,130274,1,2,0:0:0:0:
153,84,130440,1,0,2:0:0:0:
40,64,130607,1,2,0:0:0:0:
153,84,130774,1,0,2:0:0:0:
234,164,130940,2,0,B|282:160|350:157,1,88.000002685547,2|0,0:0|0:0,0:0:0:0:
439,259,131274,5,2,0:2:0:0:
512,131,131607,1,2,0:2:0:0:
402,25,131940,1,2,0:2:0:0:
322,158,132274,1,2,0:2:0:0:
453,361,132607,37,2,3:2:0:0:
437,361,132691,1,2,2:2:0:0:
421,361,132774,1,2,2:2:0:0:
405,361,132857,1,2,2:2:0:0:
381,345,132941,5,2,3:2:0:0:
365,345,133024,1,2,2:2:0:0:
349,345,133107,1,2,2:2:0:0:
333,345,133191,1,2,2:2:0:0:
309,329,133274,6,4,L|261:332,3,44.0000013427735,2|2|2|2,3:2|2:2|2:2|2:2,2:2:0:0:
245,306,133607,6,0,L|197:309,3,44.0000013427735,2|2|2|2,3:2|2:2|2:2|2:2,2:2:0:0:
173,327,133940,6,0,B|96:301|100:186|185:172,1,191.999994140625,4|10,0:2|0:0,0:0:0:0:
323,122,134440,1,0,0:0:0:0:
323,122,134524,1,0,0:0:0:0:
323,122,134607,2,0,B|329:174|332:220,1,95.9999970703126,2|2,0:0|0:0,0:0:0:0:
267,304,134940,1,8,0:0:0:0:
63,218,135107,6,0,B|114:213|181:209,1,95.9999970703126,2|0,0:0|0:0,0:0:0:0:
323,122,135440,1,2,0:0:0:0:
323,122,135607,2,0,B|275:125|227:129,1,95.9999970703126,10|0,0:0|0:0,0:0:0:0:
6,22,135940,2,2,B|-7:90|87:138|142:88,1,191.999994140625,2|10,0:0|0:0,0:0:0:0:
185,27,136440,1,0,0:0:0:0:
201,232,136607,5,2,0:0:0:0:
16,161,136774,1,0,0:0:0:0:
249,131,136940,2,0,B|301:126|363:126,1,95.9999970703126,12|2,1:2|0:0,0:0:0:0:
112,182,137274,5,2,0:0:0:0:
268,54,137440,1,0,0:0:0:0:
417,171,137607,2,0,B|421:221|421:274,1,95.9999970703126,12|0,0:2|0:0,0:0:0:0:
49,268,137940,5,2,0:0:0:0:
198,299,138107,1,2,0:0:0:0:
138,204,138274,1,10,0:0:0:0:
109,351,138440,5,0,0:0:0:0:
217,220,138607,1,2,0:0:0:0:
60,187,138774,1,8,0:0:0:0:
189,384,138940,5,14,0:2:0:0:
323,304,139107,1,2,0:0:0:0:
323,304,139190,1,0,0:0:0:0:
323,304,139274,2,0,B|327:258|327:204,1,95.9999970703126
172,70,139607,2,0,B|124:105|144:220|228:220,1,191.999994140625,10|2,0:2|0:0,0:0:0:0:
327,208,140107,1,2,0:0:0:0:
394,125,140274,2,0,B|373:66|346:25,1,95.9999970703126,8|2,0:0|0:0,0:0:0:0:
216,219,140607,6,0,B|237:278|264:319,1,95.9999970703126
511,353,140940,2,0,B|508:291|415:236|353:290,1,191.999994140625,8|2,0:0|0:0,0:0:0:0:
295,384,141440,1,0,0:0:0:0:
411,357,141607,1,10,0:0:0:0:
153,221,141774,5,10,0:0:0:0:
153,221,141857,1,0,0:0:0:0:
153,221,141940,2,0,B|154:270|155:317,1,95.9999970703126,4|0,0:2|0:0,0:0:0:0:
272,85,142274,1,8,0:0:0:0:
88,134,142440,1,0,0:0:0:0:
260,198,142607,1,2,0:0:0:0:
161,37,142774,1,0,0:0:0:0:
153,221,142940,1,10,0:0:0:0:
153,221,143107,1,0,0:0:0:0:
345,44,143274,5,2,0:0:0:0:
175,129,143440,2,0,L|122:124,2,47.9999985351563,8|0|10,0:0|0:0|0:0,0:0:0:0:
329,222,143774,2,0,L|382:217,2,47.9999985351563,10|0|0,0:0|0:0|0:0,0:0:0:0:
190,342,144107,5,10,0:0:0:0:
176,342,144190,1,0,0:0:0:0:
162,342,144274,1,8,0:0:0:0:
148,342,144357,1,0,0:0:0:0:
134,342,144440,1,0,0:0:0:0:
120,342,144524,1,0,0:0:0:0:
106,342,144607,2,0,B|29:340|2:227|65:193,1,191.999994140625,4|10,0:2|0:0,0:0:0:0:
305,289,145107,5,0,0:0:0:0:
305,289,145190,1,0,0:0:0:0:
305,289,145274,2,0,B|298:348|295:406,1,95.9999970703126,2|2,0:0|0:0,0:0:0:0:
162,253,145607,1,8,0:0:0:0:
406,128,145774,2,2,B|394:191|302:230|247:166,1,191.999994140625
68,182,146274,2,0,B|122:179|175:177,1,95.9999970703126,8|0,0:0|0:0,0:0:0:0:
254,173,146607,1,2,0:0:0:0:
128,58,146774,1,0,0:0:0:0:
271,4,146940,2,0,B|262:63|259:113,1,95.9999970703126,10|0,0:0|0:0,0:0:0:0:
126,262,147274,6,2,B|204:306|322:275,1,191.999994140625,2|12,0:0|0:2,0:0:0:0:
430,279,147774,1,2,0:0:0:0:
287,207,147941,5,2,0:0:0:0:
390,353,148108,1,0,0:0:0:0:
511,277,148274,2,0,B|514:221|512:170,1,95.9999970703126,12|0,0:2|0:0,0:0:0:0:
313,45,148607,5,2,0:0:0:0:
477,118,148774,1,2,0:0:0:0:
338,193,148940,1,10,0:0:0:0:
477,118,149107,1,0,0:0:0:0:
277,111,149274,5,2,0:0:0:0:
432,214,149440,1,8,0:0:0:0:
469,35,149607,1,14,0:2:0:0:
261,137,149774,5,2,0:0:0:0:
261,137,149857,1,0,0:0:0:0:
261,137,149940,2,0,B|259:188|262:241,1,95.9999970703126
12,166,150274,2,0,B|14:115|11:62,1,95.9999970703126,8|0,0:0|0:0,0:0:0:0:
22,278,150607,5,2,0:0:0:0:
187,187,150774,1,2,0:0:0:0:
96,95,150940,1,8,0:0:0:0:
193,267,151107,5,2,0:0:0:0:
326,110,151274,2,0,B|281:113|219:117,1,95.9999970703126
254,319,151607,2,0,B|299:316|361:312,1,95.9999970703126,8|0,0:0|0:0,0:0:0:0:
438,207,151940,1,2,0:0:0:0:
335,213,152107,1,2,0:0:0:0:
509,279,152274,1,8,0:0:0:0:
433,108,152440,1,2,0:0:0:0:
349,312,152607,5,4,0:2:0:0:
349,312,152774,1,0,0:0:0:0:
512,160,152940,1,4,0:2:0:0:
512,160,153107,1,0,0:0:0:0:
431,337,153274,5,4,0:2:0:0:
431,337,153440,1,0,0:0:0:0:
348,106,153607,1,4,0:2:0:0:
348,106,153774,1,0,0:0:0:0:
147,280,153940,6,0,B|201:284|253:289,1,95.9999970703126,6|0,0:1|0:0,0:0:0:0:
445,206,154274,2,0,B|391:202|339:197,1,95.9999970703126,6|2,0:1|0:0,0:0:0:0:
156,175,154607,1,0,0:0:0:0:
172,181,154690,1,0,0:0:0:0:
190,184,154773,1,2,0:0:0:0:
208,183,154857,1,0,0:0:0:0:
226,180,154940,1,0,0:0:0:0:
241,170,155024,1,0,0:0:0:0:
255,159,155107,1,2,0:0:0:0:
267,146,155190,1,0,0:0:0:0:
269,129,155274,6,0,B|267:90|263:36,1,88.000002685547,4|0,1:2|0:0,0:0:0:0:
27,94,155607,1,2,1:2:0:0:
2,178,155774,1,2,0:2:0:0:
57,245,155940,2,0,B|113:240|154:232,1,88.000002685547,2|0,1:2|1:0,0:0:0:0:
259,312,156274,1,2,1:2:0:0:
223,191,156440,1,2,1:2:0:0:
259,312,156607,2,0,B|312:304|376:303,1,88.000002685547,2|0,0:2|1:0,0:0:0:0:
447,359,156940,5,2,1:2:0:0:
475,257,157107,1,2,0:2:0:0:
389,194,157274,1,2,1:2:0:0:
407,90,157440,1,2,1:2:0:0:
447,359,157774,1,2,1:2:0:0:
62,338,158274,5,2,1:2:0:0:
18,261,158440,1,2,0:2:0:0:
55,181,158607,2,0,B|105:187|160:193,1,88.000002685547,2|0,1:2|1:0,0:0:0:0:
235,221,158940,1,2,1:2:0:0:
281,99,159107,1,2,1:2:0:0:
235,221,159274,2,0,B|240:267|244:332,1,88.000002685547,2|0,0:2|1:0,0:0:0:0:
183,363,159607,5,2,1:2:0:0:
320,282,159774,1,2,0:2:0:0:
160,221,159940,1,2,1:2:0:0:
295,150,160107,1,2,1:2:0:0:
183,363,160440,1,2,1:2:0:0:
56,193,160940,5,2,1:2:0:0:
186,88,161107,1,2,0:2:0:0:
53,24,161274,2,0,B|49:74|67:116,1,88.000002685547,2|0,1:2|0:0,0:0:0:0:
121,270,161607,1,2,1:2:0:0:
212,129,161774,1,2,0:2:0:0:
64,110,161941,2,0,B|81:155|119:191,1,88.000002685547,2|0,1:2|0:0,0:0:0:0:
282,297,162274,5,2,1:2:0:0:
306,131,162440,1,2,0:2:0:0:
179,204,162607,1,2,1:2:0:0:
369,230,162774,2,0,B|418:237|472:244,1,88.000002685547,2|0,1:2|1:0,0:0:0:0:
512,77,163107,6,0,B|512:134|440:179|371:138,1,176.000005371094,2|0,1:2|0:0,0:0:0:0:
330,76,163607,1,4,1:2:0:0:
99,165,163940,1,2,1:2:0:0:
99,165,164107,1,0,1:0:0:0:
182,223,164274,5,4,1:2:0:0:
120,71,164440,1,0,1:0:0:0:
0,173,164607,1,2,1:2:0:0:
231,357,164940,1,2,1:2:0:0:
303,211,165274,6,0,L|351:208,2,44.0000013427735,2|2|2,1:2|1:2|1:2,1:2:0:0:
185,107,165607,1,6,1:2:0:0:
188,85,165690,1,0,1:0:0:0:
191,63,165773,1,0,1:0:0:0:
195,41,165857,1,0,1:0:0:0:
199,19,165940,2,0,B|242:12|286:11,1,88.000002685547,6|0,1:0|0:0,0:0:0:0:
381,109,166274,5,0,1:0:0:0:
434,24,166440,1,0,3:0:0:0:
434,24,166524,1,0,3:0:0:0:
434,24,166607,1,0,1:0:0:0:
298,114,166774,1,0,1:0:0:0:
447,196,166940,2,0,B|467:144|472:89,1,88.000002685547,0|0,1:0|1:0,0:0:0:0:
187,228,167274,6,0,B|129:232|94:237,1,88.000002685547,2|0,1:1|1:0,0:0:0:0:
276,279,167607,1,0,1:0:0:0:
175,138,167774,1,0,3:0:0:0:
175,138,167857,1,0,3:0:0:0:
175,138,167940,1,0,3:0:0:0:
197,321,168107,1,0,1:0:0:0:
269,170,168274,5,0,1:0:0:0:
118,284,168440,1,0,0:0:0:0:
273,369,168607,1,6,1:0:0:0:
273,369,168940,6,0,B|336:363|391:363,1,88.000002685547,0|0,1:0|0:0,0:0:0:0:
484,273,169274,2,0,B|443:257|407:231,1,88.000002685547,0|0,1:0|1:0,0:0:0:0:
320,264,169607,1,0,1:0:0:0:
471,143,169774,1,0,1:0:0:0:
328,92,169940,2,0,B|338:146|353:179,1,88.000002685547,0|0,1:0|0:0,0:0:0:0:
53,138,170274,5,0,1:0:0:0:
145,238,170440,1,0,0:0:0:0:
274,197,170607,1,0,1:0:0:0:
145,238,170774,2,0,B|136:288|125:347,1,88.000002685547,0|0,1:0|1:0,0:0:0:0:
181,58,171107,1,0,1:0:0:0:
181,58,171274,1,6,1:1:0:0:
512,301,171607,6,0,B|456:293|409:290,1,88.000002685547,0|0,1:0|0:0,0:0:0:0:
306,349,171940,2,0,B|361:268|348:169,1,176.000005371094,0|0,1:0|1:0,0:0:0:0:
306,101,172440,1,0,1:0:0:0:
94,207,172607,2,0,B|158:279|265:240,1,176.000005371094,2|0,1:0|1:0,0:0:0:0:
433,267,173107,1,0,0:0:0:0:
272,171,173274,1,0,1:0:0:0:
434,86,173440,1,0,1:0:0:0:
324,23,173607,1,0,1:0:0:0:
324,23,173774,1,0,1:0:0:0:
425,173,173940,6,0,B|480:168|529:167,1,88.000002685547,6|0,1:1|0:0,0:0:0:0:
407,269,174274,2,0,B|462:264|511:263,1,88.000002685547,2|0,1:2|0:0,0:0:0:0:
193,218,174607,1,2,1:2:0:0:
324,331,174774,1,0,1:0:0:0:
264,171,174940,1,2,1:2:0:0:
245,364,175107,1,0,1:0:0:0:
89,285,175274,6,0,B|25:206|58:101,2,176.000005371094,2|2|2,1:2|1:2|1:2,0:0:0:0:
188,316,176107,1,0,1:0:0:0:
256,243,176274,2,0,B|257:189|229:139,1,88.000002685547,2|0,1:2|0:0,0:0:0:0:
166,69,176607,5,6,3:1:0:0:
166,69,176690,1,0,3:0:0:0:
166,69,176774,1,0,3:0:0:0:
166,69,176857,1,0,3:0:0:0:
166,69,176940,2,0,L|109:66,3,44.0000013427735,0|0|0|0,1:0|3:0|3:0|3:0,2:0:0:0:
290,32,177274,2,0,L|349:42,3,44.0000013427735,0|0|0|0,3:0|3:0|3:0|3:0,2:0:0:0:
161,145,177607,2,0,L|104:142,3,44.0000013427735,0|0|0|0,1:0|3:0|3:0|3:0,2:0:0:0:
252,142,177940,6,0,L|256:85,3,44.0000013427735,2|0|0|0,3:2|3:0|3:0|3:0,2:0:0:0:
335,201,178274,2,0,L|331:244,3,44.0000013427735,0|0|0|0,1:0|3:0|3:0|3:0,2:0:0:0:
427,150,178607,2,0,L|430:106,3,44.0000013427735,0|0|0|0,3:0|3:0|3:0|3:0,2:0:0:0:
502,196,178940,2,0,L|498:239,3,44.0000013427735,0|0|0|0,1:0|3:0|3:0|3:0,2:0:0:0:
427,150,179274,6,0,L|430:106,1,44.0000013427735,6|0,1:1|1:0,1:0:0:0:
335,201,179440,2,0,L|331:244,1,44.0000013427735,0|0,1:0|1:0,1:0:0:0:
252,142,179607,2,0,L|256:85,1,44.0000013427735,0|0,1:0|1:0,1:0:0:0:
125,194,179774,2,0,L|118:255,1,44.0000013427735,0|0,1:0|1:0,1:0:0:0:
222,315,179940,5,0,1:0:0:0:
231,305,180023,1,0,1:0:0:0:
239,294,180106,1,0,1:0:0:0:
245,282,180190,1,0,1:0:0:0:
250,269,180273,1,0,1:0:0:0:
254,256,180356,1,0,1:0:0:0:
256,243,180440,1,0,1:0:0:0:
256,229,180523,1,0,1:0:0:0:
254,216,180606,1,6,1:2:0:0:
256,192,180690,12,4,183274,0:2:0:0:
222,69,183607,6,0,B|221:136|209:183,1,95.9999970703126,10|0,0:0|0:0,0:0:0:0:
157,326,183940,1,2,0:0:0:0:
50,254,184107,2,0,B|101:240|166:236,1,95.9999970703126,2|8,0:0|0:0,0:0:0:0:
391,328,184440,2,2,B|362:388|253:370|237:303,1,191.999994140625
321,284,184940,1,8,0:0:0:0:
443,189,185107,1,0,0:0:0:0:
274,111,185274,2,0,B|276:170|287:212,1,95.9999970703126,2|0,0:0|0:0,0:0:0:0:
417,271,185607,2,0,B|470:269|512:250,1,95.9999970703126,10|0,0:0|0:0,0:0:0:0:
305,27,185940,5,2,0:0:0:0:
131,144,186107,1,0,0:0:0:0:
396,122,186274,2,0,B|448:117|508:114,1,95.9999970703126,12|2,0:2|0:0,0:0:0:0:
173,68,186607,5,2,0:0:0:0:
369,201,186774,1,0,0:0:0:0:
125,218,186941,2,0,B|73:213|13:210,1,95.9999970703126,12|0,0:2|0:0,0:0:0:0:
218,319,187274,5,2,0:0:0:0:
196,174,187440,1,2,0:0:0:0:
218,319,187607,1,8,0:0:0:0:
365,300,187774,1,2,0:0:0:0:
151,259,187940,5,2,0:0:0:0:
296,363,188107,1,8,0:0:0:0:
353,203,188274,1,14,0:2:0:0:
506,285,188440,5,2,0:0:0:0:
506,285,188524,1,0,0:0:0:0:
506,285,188607,2,0,B|499:332|490:379,1,95.9999970703126
307,275,188940,2,0,B|240:227|267:124|344:116,1,191.999994140625,10|2,0:0|0:0,0:0:0:0:
423,84,189440,1,2,0:0:0:0:
488,165,189607,2,0,B|480:219|466:271,1,95.9999970703126,8|2,0:0|0:0,0:0:0:0:
325,120,189940,6,0,B|333:66|347:14,1,95.9999970703126
307,275,190274,2,0,B|224:271|191:170|251:121,1,191.999994140625,10|2,0:0|0:0,0:0:0:0:
423,84,190774,1,2,0:0:0:0:
303,192,190940,1,8,0:0:0:0:
156,59,191107,5,2,0:0:0:0:
156,59,191190,1,0,0:0:0:0:
156,59,191274,2,0,B|210:57|273:54,1,95.9999970703126,4|0,0:2|0:0,0:0:0:0:
158,154,191607,1,8,0:0:0:0:
32,59,191774,1,0,0:0:0:0:
4,218,191940,1,2,0:0:0:0:
158,154,192107,1,0,0:0:0:0:
0,138,192274,5,10,0:0:0:0:
0,138,192440,1,2,0:0:0:0:
126,231,192607,5,0,0:0:0:0:
242,137,192774,2,0,L|238:80,2,47.9999985351563,10|0|0,0:0|0:0|0:0,0:0:0:0:
366,265,193107,2,0,L|369:312,2,47.9999985351563,10|0|0,0:0|0:0|0:0,0:0:0:0:
485,186,193440,1,10,0:0:0:0:
486,176,193524,1,0,0:0:0:0:
487,166,193607,1,8,0:0:0:0:
488,156,193690,1,0,0:0:0:0:
489,146,193774,1,0,0:0:0:0:
490,136,193857,1,0,0:0:0:0:
491,126,193940,6,0,B|470:63|362:52|333:122,1,191.999994140625,4|10,0:2|0:0,0:0:0:0:
366,265,194440,1,0,0:0:0:0:
366,265,194524,1,0,0:0:0:0:
366,265,194607,2,0,B|413:257|468:253,1,95.9999970703126,2|2,0:0|0:0,0:0:0:0:
336,115,194940,1,8,0:0:0:0:
336,115,195107,2,0,B|289:123|234:127,1,95.9999970703126,2|0,0:0|0:0,0:0:0:0:
138,189,195440,1,0,0:0:0:0:
43,117,195607,2,0,B|32:65|35:14,1,95.9999970703126,10|0,0:0|0:0,0:0:0:0:
241,127,195940,2,2,B|285:173|266:275|194:289,1,191.999994140625,2|10,0:0|0:0,0:0:0:0:
140,358,196440,1,0,0:0:0:0:
138,188,196607,5,2,0:0:0:0:
328,308,196774,1,0,0:0:0:0:
95,269,196940,2,0,B|51:263|-8:257,1,95.9999970703126,12|2,0:2|0:0,0:0:0:0:
387,199,197274,5,2,0:0:0:0:
259,352,197440,1,0,0:0:0:0:
219,141,197607,2,0,B|212:84|206:28,1,95.9999970703126,12|0,0:2|0:0,0:0:0:0:
303,234,197940,5,2,0:0:0:0:
469,191,198107,1,2,0:0:0:0:
367,115,198274,1,10,0:0:0:0:
404,278,198440,5,0,0:0:0:0:
293,155,198607,1,2,0:0:0:0:
454,116,198774,1,8,0:0:0:0:
454,116,198940,1,14,0:2:0:0:
303,234,199107,5,2,0:0:0:0:
303,234,199190,1,0,0:0:0:0:
303,234,199274,2,0,B|247:232|197:230,1,95.9999970703126,0|0,0:2|0:0,0:0:0:0:
112,361,199607,2,0,B|91:302|92:248,1,95.9999970703126,8|0,0:0|0:0,0:0:0:0:
135,91,199940,1,2,0:0:0:0:
0,150,200107,2,0,B|62:177|121:179,1,95.9999970703126,2|8,0:0|0:0,0:0:0:0:
244,140,200440,5,2,0:0:0:0:
244,140,200524,1,0,0:0:0:0:
244,140,200607,2,0,B|261:66|256:19,1,95.9999970703126
28,13,200940,2,0,B|11:87|16:134,1,95.9999970703126,8|0,0:0|0:0,0:0:0:0:
65,265,201274,1,2,0:0:0:0:
175,212,201440,2,0,B|170:156|165:111,1,95.9999970703126,2|8,0:0|0:0,0:0:0:0:
91,63,201774,1,2,0:0:0:0:
0,186,201940,5,4,0:2:0:0:
0,186,202107,1,0,0:0:0:0:
261,140,202274,1,12,0:2:0:0:
261,140,202440,1,0,0:0:0:0:
65,265,202607,5,4,0:2:0:0:
65,265,202774,1,0,0:0:0:0:
234,56,202940,1,12,0:2:0:0:
234,56,203107,1,0,0:0:0:0:
293,242,203274,5,6,0:1:0:0:
86,182,203440,1,0,0:0:0:0:
358,158,203607,5,14,0:1:0:0:
163,220,203774,1,2,0:0:0:0:
435,219,203940,5,6,0:2:0:0:
241,184,204107,1,2,0:0:0:0:
381,304,204274,5,12,0:2:0:0:
381,304,204440,1,2,0:0:0:0:
509,266,204607,6,0,B|514:210|510:149,1,95.9999970703126,6|0,0:2|0:0,0:0:0:0:
304,109,204940,1,10,0:0:0:0:
438,195,205107,1,0,0:0:0:0:
438,195,205190,1,0,0:0:0:0:
438,195,205274,1,2,0:0:0:0:
468,35,205440,1,2,0:0:0:0:
312,188,205607,5,8,0:0:0:0:
509,266,205774,2,0,B|514:210|510:149,1,95.9999970703126,2|0,0:0|0:0,0:0:0:0:
251,250,206107,1,2,0:0:0:0:
251,250,206274,2,0,B|253:302|257:355,1,95.9999970703126,10|0,0:0|0:0,0:0:0:0:
8,290,206607,2,2,B|1:194|6:125,1,143.999995605469,2|0,0:0|2:0,0:1:0:0:
10,111,206940,1,10,0:0:0:0:
234,109,207107,5,0,0:0:0:0:
75,177,207274,1,2,0:0:0:0:
234,109,207440,1,0,0:0:0:0:
98,7,207607,2,0,B|103:62|107:109,1,95.9999970703126,12|2,0:2|0:0,0:0:0:0:
345,272,207940,1,2,0:0:0:0:
186,204,208106,1,0,0:0:0:0:
322,102,208273,2,0,B|317:157|313:204,1,95.9999970703126,12|0,0:2|0:0,0:0:0:0:
207,376,208607,5,2,0:0:0:0:
280,313,208774,1,2,0:0:0:0:
191,276,208940,1,8,0:0:0:0:
118,339,209107,1,2,0:0:0:0:
263,208,209274,5,2,0:0:0:0:
103,234,209440,1,8,0:0:0:0:
207,376,209607,1,14,0:2:0:0:
368,303,209774,5,2,0:0:0:0:
368,303,209857,1,0,0:0:0:0:
368,303,209940,2,0,B|378:249|385:193,1,95.9999970703126
124,99,210274,2,0,B|121:165|211:207|269:163,1,191.999994140625,10|2,0:0|0:0,0:0:0:0:
328,70,210774,1,2,0:0:0:0:
225,2,210940,2,0,B|200:43|214:120,1,95.9999970703126,8|2,0:0|0:0,0:0:0:0:
383,208,211274,6,0,B|408:167|394:90,1,95.9999970703126,0|2,0:0|0:0,0:0:0:0:
124,99,211607,2,0,B|121:165|211:207|269:163,1,191.999994140625,10|2,0:0|0:0,0:0:0:0:
328,70,212107,1,2,0:0:0:0:
446,170,212274,1,8,0:0:0:0:
328,70,212440,1,2,0:0:0:0:
341,267,212607,6,0,B|390:253|449:242,1,95.9999970703126,4|0,0:2|0:0,0:0:0:0:
139,238,212940,2,0,B|90:252|31:263,1,95.9999970703126,8|0,0:0|0:0,0:0:0:0:
244,97,213274,1,2,0:0:0:0:
230,288,213440,1,0,0:0:0:0:
58,177,213607,1,10,0:0:0:0:
115,367,213774,1,0,0:0:0:0:
312,271,213940,5,6,0:0:0:0:
139,238,214107,2,0,L|79:245,2,47.9999985351563,12|0|0,1:2|1:0|1:0,1:0:0:0:
354,144,214440,1,10,0:0:0:0:
354,144,214523,1,0,0:0:0:0:
354,144,214607,2,0,B|359:103|364:66,1,47.9999985351563
213,44,214774,2,0,B|216:67|218:91,1,47.9999985351563,10|0,0:0|0:0,0:0:0:0:
409,244,214940,6,0,B|415:207|416:177,1,47.9999985351563,10|0,0:2|0:0,0:0:0:0:
245,173,215107,2,0,B|247:196|251:220,1,47.9999985351563,2|0,0:2|0:0,0:0:0:0:
473,316,215274,6,0,B|490:228|490:140,2,160,6|0|2,0:0|1:0|0:2,0:0:0:0:
226,368,216274,1,0,1:0:0:0:
21,174,216607,2,0,B|102:169|189:197,1,160,2|0,0:2|1:0,0:0:0:0:
359,320,217274,2,0,B|335:234|332:145,1,160,2|0,0:2|1:0,0:0:0:0:
183,45,217940,5,2,0:2:0:0:
252,206,218274,1,0,1:0:0:0:
420,232,218607,1,2,0:0:0:0:
512,70,218940,5,2,1:2:0:0:
512,70,219107,1,2,0:2:0:0:
512,70,219274,2,0,B|506:125|496:238,1,160,2|0,0:2|1:0,0:0:0:0:
176,279,219940,2,0,B|277:298|346:323,2,160,2|2|6,0:2|1:2|0:2,0:0:0:0:
103,363,220774,5,0,0:0:0:0:
12,291,220940,2,0,B|2:239|-1:192,1,80,8|0,0:0|0:0,0:0:0:0:
121,62,221274,1,0,0:0:0:0:
0,132,221440,1,0,0:0:0:0:
203,202,221607,2,0,B|202:147|191:106,1,80,8|0,0:0|0:0,0:0:0:0:
248,3,221940,6,0,B|236:62|291:111|354:92,1,160,6|8,0:2|0:0,0:0:0:0:
421,51,222440,1,8,0:0:0:0:
273,162,222607,1,8,0:0:0:0:
494,118,222774,1,8,0:0:0:0:
324,19,222940,1,8,0:0:0:0:
403,210,223107,1,8,0:0:0:0:
494,118,223274,6,0,B|504:68|510:17,1,95.9999970703126,14|0,0:2|0:0,0:0:0:0:
273,162,223607,2,0,B|263:212|255:259,1,95.9999970703126,8|0,0:0|0:0,0:0:0:0:
358,346,223940,5,10,0:0:0:0:
403,210,224107,1,2,0:0:0:0:
158,279,224274,1,8,0:0:0:0:
130,162,224440,1,2,0:0:0:0:
358,346,224607,6,0,B|411:339|466:335,1,95.9999970703126,12|0,0:2|0:0,0:0:0:0:
352,152,224940,2,0,B|299:159|244:162,1,95.9999970703126,8|0,0:0|0:0,0:0:0:0:
75,215,225274,1,10,0:0:0:0:
225,286,225440,1,2,0:0:0:0:
42,367,225607,1,8,0:0:0:0:
225,286,225774,1,2,0:0:0:0:
0,180,225940,6,0,B|4:227|17:280,1,95.9999970703126,12|0,0:2|0:0,0:0:0:0:
208,380,226274,2,0,B|222:322|225:282,1,95.9999970703126,8|0,0:0|0:0,0:0:0:0:
269,109,226607,1,10,0:0:0:0:
75,215,226774,1,2,0:0:0:0:
328,194,226940,1,8,0:0:0:0:
130,93,227107,1,2,0:0:0:0:
299,275,227274,6,0,B|357:270|421:267,1,95.9999970703126,12|0,0:2|0:0,0:0:0:0:
447,95,227607,2,0,B|389:100|325:103,1,95.9999970703126,8|0,0:0|0:0,0:0:0:0:
44,164,227940,1,10,0:0:0:0:
84,301,228107,1,2,0:0:0:0:
271,98,228274,1,8,0:0:0:0:
257,213,228440,5,10,0:0:0:0:
257,213,228524,1,8,0:0:0:0:
257,213,228607,2,0,B|203:209|140:205,1,95.9999970703126,12|0,0:2|0:0,0:0:0:0:
54,131,228940,1,12,0:2:0:0:
171,0,229107,1,0,0:0:0:0:
344,162,229274,5,14,0:1:0:0:
274,9,229440,1,2,0:0:0:0:
187,130,229607,1,12,0:2:0:0:
396,229,229774,1,2,0:0:0:0:
241,294,229940,6,0,B|232:235|226:162,1,95.9999970703126,12|0,0:2|0:0,0:0:0:0:
0,235,230274,2,0,B|9:294|15:367,1,95.9999970703126,12|0,0:2|0:0,0:0:0:0:
235,379,230607,1,14,0:1:0:0:
83,274,230774,1,2,0:0:0:0:
187,130,230940,1,12,0:2:0:0:
83,274,231107,1,2,0:0:0:0:
376,256,231274,5,8,0:2:0:0:
150,218,231440,1,0,0:0:0:0:
393,176,231607,5,8,0:2:0:0:
164,301,231774,1,0,0:0:0:0:
464,231,231940,5,8,0:2:0:0:
237,205,232106,1,0,0:0:0:0:
482,151,232273,5,8,0:2:0:0:
250,288,232440,1,0,0:0:0:0:
492,352,232607,5,6,0:2:0:0:
282,0,233940,1,6,1:2:0:0:
200,100,234107,1,2,0:2:0:0:
310,184,234274,1,10,0:2:0:0:
200,100,234440,1,2,0:2:0:0:
372,87,234607,2,0,B|413:84|474:82,1,88.000002685547,2|0,0:2|0:0,0:0:0:0:
142,251,234940,5,10,0:2:0:0:
68,183,235107,2,0,B|34:90|68:1,2,176.000005371094,2|2|2,0:2|0:2|0:2,0:0:0:0:
183,349,235940,1,0,0:0:0:0:
183,349,236107,1,2,0:2:0:0:
161,168,236274,1,10,0:2:0:0:
34,278,236440,1,2,0:2:0:0:
229,260,236607,6,0,B|278:263|339:269,1,88.000002685547,2|0,0:2|0:0,0:0:0:0:
443,139,236940,2,0,B|394:136|333:130,1,88.000002685547,10|0,0:2|0:0,0:0:0:0:
389,242,237274,1,2,0:2:0:0:
475,108,237440,1,2,0:2:0:0:
321,100,237607,1,8,0:0:0:0:
389,242,237774,6,0,B|438:245|499:251,1,88.000002685547,2|0,0:2|0:0,0:0:0:0:
235,78,238107,2,0,B|240:124|248:187,1,88.000002685547,2|8,0:2|0:0,0:0:0:0:
264,348,238440,1,2,0:2:0:0:
64,261,238607,5,2,0:0:0:0:
270,243,238774,1,2,0:2:0:0:
64,261,238940,1,10,0:0:0:0:
270,243,239107,1,2,0:2:0:0:
114,105,239274,6,0,B|104:147|103:191,1,88.000002685547,6|2,0:2|0:2,0:0:0:0:
175,343,239606,1,10,0:2:0:0:
241,174,239773,1,2,0:2:0:0:
26,253,239940,2,0,B|80:270|122:274,1,88.000002685547,2|0,0:2|0:0,0:0:0:0:
339,344,240274,5,10,0:2:0:0:
424,288,240440,2,0,B|454:198|414:80,2,176.000005371094,2|2|2,0:2|0:2|0:2,0:0:0:0:
243,193,241273,1,0,0:0:0:0:
243,193,241439,1,2,0:2:0:0:
399,155,241606,1,10,0:2:0:0:
344,298,241773,1,2,0:2:0:0:
189,132,241940,5,4,0:2:0:0:
317,221,242107,1,0,0:0:0:0:
179,318,242274,5,4,0:2:0:0:
124,175,242441,1,0,0:0:0:0:
288,112,242607,5,4,0:2:0:0:
272,300,242774,1,0,0:0:0:0:
62,254,242940,5,4,0:2:0:0:
220,220,243107,1,0,0:0:0:0:
83,112,243274,6,0,L|75:59,3,44.0000013427735,0|0|0|0,0:2|0:0|0:0|0:0,0:0:0:0:
150,177,243607,2,0,L|143:220,3,44.0000013427735,0|0|0|0,0:2|0:0|0:0|0:0,0:0:0:0:
230,111,243940,6,8,L|226:45,1,44.0000013427735,8|8,0:2|0:0,0:0:0:0:
308,174,244107,2,8,L|312:228,1,44.0000013427735
393,113,244274,2,8,L|401:56,1,44.0000013427735,8|8,0:2|0:0,0:0:0:0:
481,154,244440,2,8,L|491:206,1,44.0000013427735
32,321,244774,5,2,1:2:0:0:
126,339,244940,1,2,1:2:0:0:
406,199,245274,1,2,1:2:0:0:
311,217,245440,1,2,1:2:0:0:
53,113,245774,1,2,1:2:0:0:
131,77,245940,6,0,L|138:7,3,47.9999985351563,2|2|2|2,1:2|2:0|2:0|2:0,2:0:0:0:
120,254,246274,2,0,L|115:301,1,47.9999985351563,2|2,1:2|2:0,2:0:0:0:
205,131,246440,6,0,L|269:102,3,47.9999985351563,2|2|2|2,1:2|2:0|2:0|2:0,2:0:0:0:
46,209,246774,2,0,L|2:228,3,47.9999985351563,2|2|2|2,1:2|2:0|2:0|2:0,2:0:0:0:
125,167,247107,5,4,0:0:0:0:
256,192,247274,12,0,248274,2:2:0:0:
