osu file format v14

[General]
AudioFilename: audio.mp3
AudioLeadIn: 0
PreviewTime: 133940
Countdown: 0
SampleSet: Soft
StackLeniency: 0.7
Mode: 0
LetterboxInBreaks: 0
WidescreenStoryboard: 0

[Editor]
Bookmarks: 35274,42607,65774,70607,115774,124440,196607
DistanceSpacing: 0.4
BeatDivisor: 4
GridSize: 4
TimelineZoom: 5.499997

[Metadata]
Title:Pinky Jones
TitleUnicode:ピンキージョ-ンズ
Artist:MOMOIRO CLOVER
ArtistUnicode:ももいろクローバー
Creator:jordanlr7
Version:Insane
Source:ヨスガノソラ
Tags:pewdekz kazuma yosuga no sora eroge sky of connection ed ending japanese anime jpop pop j-pop momoiro_clover_z
BeatmapID:3208293
BeatmapSetID:1571154

[Difficulty]
HPDrainRate:6
CircleSize:4
OverallDifficulty:8.5
ApproachRate:9
SliderMultiplier:1.6
SliderTickRate:1

[Events]
//Background and Video events
0,0,"bg.jpg",0,0
//Break Periods
2,86140,93340
//Storyboard Layer 0 (Background)
//Storyboard Layer 1 (Fail)
//Storyboard Layer 2 (Pass)
//Storyboard Layer 3 (Foreground)
//Storyboard Layer 4 (Overlay)
//Storyboard Sound Samples

[TimingPoints]
1275,333.333333333333,4,2,1,50,1,0
3274,-100,4,2,2,50,0,0
3941,-100,4,2,1,40,0,0
5191,-100,4,2,2,50,0,0
5441,-100,4,2,1,50,0,0
5608,-83.3333333333333,4,2,2,50,0,0
5774,-83.3333333333333,4,2,1,50,0,0
5941,333.333333333333,4,2,1,60,1,0
5941,-90.9090909090909,4,2,1,60,0,0
16107,-90.9090909090909,4,2,2,60,0,0
16190,-90.9090909090909,4,2,1,60,0,0
16607,-90.9090909090909,4,2,1,50,0,0
36690,-90.9090909090909,4,2,1,5,0,0
36774,-90.9090909090909,4,2,1,50,0,0
42940,-90.9090909090909,4,2,1,60,0,0
51274,-90.9090909090909,4,2,1,50,0,0
53940,-83.3333333333359,4,2,1,80,0,1
73940,-133.333333333333,4,2,1,50,0,0
75274,-90.9090909090909,4,2,1,60,0,0
85940,-90.9090909090909,4,2,1,40,0,0
93940,-90.9090909090909,4,2,1,50,0,0
96607,-100,4,2,1,50,0,0
101940,-83.3333333333333,4,2,1,60,0,0
107274,-90.9090909090909,4,2,1,50,0,0
121940,-90.9090909090909,4,2,1,60,0,0
131274,-90.9090909090909,4,2,1,50,0,0
133940,-83.3333333333333,4,2,1,80,0,1
155274,-90.9090909090909,4,2,1,50,0,0
157690,-90.9090909090909,4,2,1,5,0,0
157774,-90.9090909090909,4,2,1,50,0,0
160357,-90.9090909090909,4,2,1,5,0,0
160440,-90.9090909090909,4,2,1,50,0,0
165940,-90.9090909090909,4,2,1,60,0,0
168357,-90.9090909090909,4,2,1,5,0,0
168440,-90.9090909090909,4,2,1,60,0,0
171024,-90.9090909090909,4,2,1,5,0,0
171107,-90.9090909090909,4,2,1,60,0,0
176607,-90.9090909090909,4,2,1,50,0,0
179274,-90.9090909090909,4,2,1,70,0,0
183274,-83.3333333333333,4,2,1,80,0,1
203940,-83.3333333333333,4,2,1,80,0,0
204607,-83.3333333333333,4,2,1,80,0,1
207190,-83.3333333333333,4,2,1,5,0,1
207274,-83.3333333333333,4,2,1,80,0,1
215274,-111.111111111111,4,2,1,50,0,0
220607,-100,4,2,1,60,0,0
223274,-83.3333333333333,4,2,1,70,0,1
228607,-83.3333333333333,4,2,1,80,0,1
232607,-90.9090909090909,4,2,1,40,0,0
233940,-90.9090909090909,4,2,1,60,0,0
241940,-90.9090909090909,4,2,1,50,0,0
243940,-90.9090909090909,4,2,2,60,0,0
244690,-90.9090909090909,4,2,1,5,0,0
244774,-83.3333333333333,4,2,1,60,0,0
248274,-83.3333333333333,4,2,1,5,0,0

[Colours]
Combo1 : 159,255,255
Combo2 : 249,254,186
Combo3 : 166,143,149
Combo4 : 255,183,183

[HitObjects]
304,296,1275,5,6,1:2:0:0:
304,296,1441,1,0,0:0:0:0:
380,192,1608,1,6,1:2:0:0:
380,192,1774,1,0,0:0:0:0:
316,96,1941,2,0,B|306:68|306:68|321:7,1,80,6|0,1:2|0:0,0:0:0:0:
208,184,2274,2,0,B|218:212|218:212|203:273,1,80,6|0,1:2|0:0,0:0:0:0:
88,128,2608,5,2,1:2:0:0:
68,130,2691,1,0,1:0:0:0:
48,132,2774,1,0,1:0:0:0:
28,134,2857,1,0,1:0:0:0:
8,136,2941,6,0,L|2:197,3,40,2|0|0|0,1:2|1:0|1:0|1:2,0:0:0:0:
132,320,3274,5,10,1:2:0:0:
165,340,3357,1,8,1:2:0:0:
205,345,3440,1,8,1:2:0:0:
243,334,3523,1,8,1:2:0:0:
273,308,3607,1,10,1:2:0:0:
290,272,3690,1,8,1:2:0:0:
307,236,3775,1,8,1:2:0:0:
337,210,3859,1,8,1:2:0:0:
375,199,3942,5,2,0:0:0:0:
452,215,4108,1,0,0:0:0:0:
493,282,4274,1,2,0:0:0:0:
463,356,4441,1,0,0:0:0:0:
385,375,4608,5,2,0:0:0:0:
397,280,4774,1,0,0:0:0:0:
296,364,4941,1,2,0:0:0:0:
310,268,5108,1,2,0:0:0:0:
310,268,5191,6,0,P|313:251|315:234,2,20,8|8|8,0:0|0:0|0:0,0:0:0:0:
192,192,5441,1,0,1:0:0:0:
72,288,5608,2,0,P|67:339|57:394,1,95.9999970703126,4|0,0:0|1:0,0:0:0:0:
56,168,5941,5,6,0:0:0:0:
56,168,6107,1,2,0:0:0:0:
192,192,6274,1,10,0:0:0:0:
192,192,6440,1,2,0:0:0:0:
140,64,6607,6,0,P|63:53|25:48,1,88.000002685547,2|2,1:2|1:2,0:0:0:0:
192,192,6940,1,10,0:0:0:0:
304,85,7107,2,0,P|381:79|426:184,2,176.000005371094,2|2|2,1:2|1:2|0:0,0:0:0:0:
232,20,7940,1,0,1:0:0:0:
232,20,8107,1,2,1:2:0:0:
344,160,8274,2,0,P|333:237|328:275,1,88.000002685547,10|2,0:0|0:0,0:0:0:0:
136,328,8607,5,2,1:2:0:0:
136,328,8940,5,10,0:0:0:0:
331,271,9107,1,0,0:0:0:0:
471,365,9274,1,2,1:2:0:0:
352,384,9440,1,2,1:2:0:0:
450,252,9607,1,8,0:0:0:0:
226,379,9774,2,0,P|243:259|250:200,2,176.000005371094,2|2|2,1:2|1:2|0:0,0:0:0:0:
331,271,10607,5,2,1:2:0:0:
156,236,10774,1,2,1:2:0:0:
331,271,10940,1,10,0:0:0:0:
156,236,11107,1,10,0:0:0:0:
260,132,11274,5,6,1:2:0:0:
260,132,11440,1,2,0:0:0:0:
404,108,11607,1,10,0:0:0:0:
404,108,11774,1,2,0:0:0:0:
512,224,11940,6,0,B|471:251|471:251|332:231,1,176.000005371094,2|10,1:2|0:0,0:0:0:0:
129,324,12440,2,0,P|205:317|240:224,2,176.000005371094,2|2|2,1:2|1:2|0:0,0:0:0:0:
48,264,13274,1,0,1:0:0:0:
48,264,13440,1,2,1:2:0:0:
156,236,13607,1,10,0:0:0:0:
28,164,13773,1,2,0:0:0:0:
168,64,13940,6,0,P|256:60|343:79,1,176.000005371094,2|10,1:2|0:0,0:0:0:0:
448,60,14440,1,0,0:0:0:0:
504,168,14607,5,2,1:2:0:0:
415,165,14774,1,2,1:2:0:0:
342,213,14940,1,8,0:0:0:0:
325,299,15107,1,2,1:2:0:0:
325,299,15440,5,2,1:2:0:0:
176,352,15607,1,8,0:0:0:0:
176,352,15774,1,2,1:2:0:0:
72,308,15940,1,0,1:0:0:0:
24,208,16108,5,8,0:0:0:0:
16,187,16191,1,8,0:3:0:0:
14,165,16274,1,8,2:3:0:0:
17,143,16358,1,4,3:0:0:0:
27,124,16441,1,4,0:3:0:0:
41,107,16524,1,4,0:3:0:0:
59,94,16607,6,0,B|82:83|82:83|178:103,1,88.000002685547,6|0,1:2|0:0,0:0:0:0:
287,177,16940,2,0,P|311:258|261:337,1,176.000005371094,8|2,0:0|1:2,0:0:0:0:
168,336,17440,1,2,1:2:0:0:
228,240,17607,1,8,0:0:0:0:
228,240,17774,1,2,1:2:0:0:
143,95,17940,6,0,P|98:90|46:84,1,88.000002685547,2|0,0:0|1:0,0:0:0:0:
287,177,18274,2,0,P|332:182|384:188,1,88.000002685547,10|0,0:0|0:0,0:0:0:0:
168,336,18607,2,0,P|104:255|141:173,1,176.000005371094,2|10,1:2|0:0,0:0:0:0:
121,192,19107,1,2,0:0:0:0:
92,72,19274,6,0,P|42:82|21:124,1,88.000002685547,2|0,1:2|0:0,0:0:0:0:
218,215,19607,2,0,P|268:205|289:163,1,88.000002685547,10|2,0:0|0:0,0:0:0:0:
392,88,19940,5,2,1:2:0:0:
374,186,20107,1,2,1:2:0:0:
472,204,20274,1,10,0:0:0:0:
490,106,20440,2,0,P|501:56|500:10,1,88.000002685547,2|0,1:2|0:0,0:0:0:0:
324,0,20774,1,2,1:2:0:0:
303,107,20941,1,10,0:0:0:0:
282,214,21107,1,2,0:0:0:0:
261,321,21274,5,2,1:2:0:0:
261,321,21607,5,10,0:0:0:0:
372,288,21774,1,2,0:0:0:0:
196,184,21940,2,0,P|189:232|183:281,1,88.000002685547,6|2,1:2|0:0,0:0:0:0:
360,132,22274,1,10,0:0:0:0:
360,132,22440,1,2,0:0:0:0:
372,288,22607,5,2,1:2:0:0:
282,214,22774,1,2,1:2:0:0:
428,192,22940,1,10,0:0:0:0:
260,315,23107,2,0,P|207:291|210:167,1,176.000005371094,2|0,1:2|0:0,0:0:0:0:
148,80,23607,1,10,0:0:0:0:
148,80,23774,1,2,0:0:0:0:
52,144,23940,2,0,B|35:184|35:184|46:243,1,88.000002685547,2|0,1:2|1:0,0:0:0:0:
136,292,24274,1,10,0:0:0:0:
136,292,24440,1,2,0:0:0:0:
84,364,24607,5,2,1:2:0:0:
184,224,24774,1,2,0:0:0:0:
184,224,24857,1,2,0:0:0:0:
184,224,24940,1,10,0:0:0:0:
264,308,25107,1,2,0:0:0:0:
336,200,25274,2,0,P|391:200|428:304,1,176.000005371094,2|10,1:2|0:0,0:0:0:0:
352,376,25774,1,2,1:2:0:0:
356,276,25940,5,2,0:0:0:0:
156,220,26107,1,0,1:0:0:0:
284,140,26274,1,10,0:0:0:0:
232,332,26440,1,2,1:2:0:0:
149,210,26607,5,2,0:0:0:0:
365,271,26774,1,0,1:0:0:0:
287,127,26940,6,0,L|294:91,6,22.0000006713867,2|0|2|0|2|0|2,0:0|0:0|0:0|0:0|0:0|0:0|0:0,0:0:0:0:
241,32,27274,6,0,P|185:33|141:80,1,88.000002685547,6|2,1:2|0:0,0:0:0:0:
368,56,27607,2,0,P|415:84|430:147,1,88.000002685547,10|0,0:0|0:0,0:0:0:0:
429,112,27857,1,0,0:0:0:0:
429,112,27940,1,2,1:2:0:0:
245,191,28107,1,2,1:2:0:0:
452,248,28274,1,10,0:0:0:0:
216,112,28440,6,0,P|161:162|187:254,1,176.000005371094,2|2,1:2|1:2,0:0:0:0:
340,356,28940,2,0,P|392:348|446:341,1,88.000002685547,10|0,0:0|0:0,0:0:0:0:
184,251,29274,2,0,P|132:259|78:266,1,88.000002685547,2|2,1:2|1:2,0:0:0:0:
352,192,29607,2,0,P|404:184|458:177,1,88.000002685547,10|2,0:0|0:0,0:0:0:0:
300,84,29940,5,2,1:2:0:0:
184,251,30107,1,2,0:0:0:0:
352,192,30274,1,10,0:0:0:0:
144,128,30441,1,2,0:0:0:0:
144,128,30524,1,0,0:0:0:0:
144,128,30607,1,2,1:2:0:0:
276,252,30774,1,2,1:2:0:0:
240,164,30940,1,10,0:0:0:0:
63,338,31107,6,0,P|23:307|46:192,1,176.000005371094,2|2,1:2|0:0,0:0:0:0:
144,128,31607,1,10,0:0:0:0:
124,248,31774,1,2,0:0:0:0:
252,76,31940,2,0,P|300:72|349:67,1,88.000002685547,2|2,1:2|1:2,0:0:0:0:
164,8,32274,1,10,0:0:0:0:
49,113,32440,1,2,0:0:0:0:
49,113,32524,1,0,0:0:0:0:
49,113,32607,5,6,1:2:0:0:
144,128,32774,1,2,0:0:0:0:
220,187,32940,1,10,0:0:0:0:
229,283,33107,1,2,0:0:0:0:
164,355,33274,6,0,P|108:350|68:329,1,88.000002685547,2|0,1:2|1:0,0:0:0:0:
243,267,33607,1,10,0:0:0:0:
346,353,33774,2,0,P|395:354|441:237,1,176.000005371094,2|2,1:2|1:2,0:0:0:0:
374,182,34274,1,10,0:0:0:0:
374,182,34440,1,2,0:0:0:0:
430,87,34607,6,0,P|480:94|540:99,1,88.000002685547,2|0,1:2|1:0,0:0:0:0:
308,24,34940,2,0,P|258:31|198:36,1,88.000002685547,10|2,0:0|0:0,0:0:0:0:
436,4,35274,5,2,1:2:0:0:
320,144,35440,1,2,0:0:0:0:
320,144,35607,1,10,0:0:0:0:
220,34,35774,5,2,0:0:0:0:
292,252,35940,1,2,1:2:0:0:
320,144,36107,1,2,1:2:0:0:
196,216,36274,1,10,0:0:0:0:
321,60,36440,6,0,P|370:68|403:145,1,132.00000402832,2|0,1:2|0:0,0:0:0:0:
403,158,36774,1,2,1:2:0:0:
375,251,36940,1,10,0:0:0:0:
470,235,37107,1,2,0:0:0:0:
391,350,37274,5,2,1:2:0:0:
375,251,37440,1,10,0:0:0:0:
486,334,37607,1,2,1:2:0:0:
470,235,37774,1,10,0:0:0:0:
284,384,37940,5,6,1:2:0:0:
184,328,38107,2,0,P|155:332|133:335,2,44.0000013427735,2|2|10,0:0|0:0|0:0,0:0:0:0:
268,248,38440,1,2,0:0:0:0:
268,248,38523,1,0,0:0:0:0:
268,248,38607,5,2,1:2:0:0:
224,161,38774,1,2,1:2:0:0:
139,136,38940,1,10,0:0:0:0:
61,152,39107,1,2,1:2:0:0:
0,215,39274,6,0,B|43:230|43:230|181:208,2,176.000005371094,2|10|2,0:0|0:0|1:2,0:0:0:0:
277,203,40107,1,2,1:2:0:0:
364,188,40274,1,10,0:0:0:0:
292,289,40440,1,2,0:0:0:0:
379,274,40607,5,2,1:2:0:0:
182,241,40774,1,2,0:0:0:0:
182,241,40857,1,2,0:0:0:0:
182,241,40940,1,10,0:0:0:0:
292,92,41107,1,2,0:0:0:0:
292,92,41190,1,0,0:0:0:0:
292,92,41274,5,2,1:2:0:0:
236,168,41440,1,2,1:2:0:0:
380,128,41607,1,10,0:0:0:0:
208,52,41774,1,2,1:2:0:0:
101,152,41940,6,0,P|108:197|116:255,1,88.000002685547,10|2,0:0|1:2,0:0:0:0:
380,128,42274,2,0,P|373:83|365:25,1,88.000002685547,10|2,0:0|1:2,0:0:0:0:
236,168,42607,6,0,P|239:190|243:219,1,44.0000013427735,10|8,0:0|0:3,0:0:0:0:
328,244,42774,2,0,P|324:266|320:295,1,44.0000013427735,4|4,0:3|0:3,0:0:0:0:
248,352,42940,1,14,0:0:0:0:
248,352,43274,5,8,0:0:0:0:
275,369,43357,1,8,0:0:0:0:
307,378,43440,1,8,0:0:0:0:
340,375,43524,1,10,0:0:0:0:
370,363,43607,2,0,P|416:368|467:374,1,88.000002685547,10|2,0:0|1:2,0:0:0:0:
328,244,43940,6,0,P|282:239|233:262,2,88.000002685547,2|10|2,1:2|0:0|1:2,0:0:0:0:
444,280,44440,2,0,P|469:203|440:98,1,176.000005371094,6|2,0:0|1:2,0:0:0:0:
384,40,44940,5,10,0:0:0:0:
384,40,45107,1,2,1:2:0:0:
256,96,45274,1,10,0:0:0:0:
256,96,45440,1,0,1:0:0:0:
338,156,45607,2,0,L|326:256,1,88.000002685547,8|0,0:0|1:0,0:0:0:0:
120,92,45940,5,10,0:0:0:0:
98,89,46023,1,8,0:0:0:0:
76,86,46106,1,10,0:0:0:0:
54,84,46190,1,8,0:0:0:0:
32,81,46274,2,0,L|20:181,1,88.000002685547,10|2,0:0|1:2,0:0:0:0:
120,280,46607,5,2,1:2:0:0:
4,252,46774,1,10,0:0:0:0:
136,168,46940,1,2,1:2:0:0:
202,334,47107,2,0,P|258:332|328:235,1,176.000005371094,6|2,0:0|1:2,0:0:0:0:
280,144,47607,5,10,0:0:0:0:
280,144,47774,1,2,1:2:0:0:
412,176,47940,1,10,0:0:0:0:
412,176,48107,1,2,1:2:0:0:
492,72,48274,1,10,0:0:0:0:
492,72,48440,1,2,1:2:0:0:
359,25,48607,5,8,0:0:0:0:
337,26,48690,1,8,0:0:0:0:
315,28,48773,1,10,0:0:0:0:
293,30,48857,1,8,0:0:0:0:
271,31,48940,2,0,P|229:29|181:22,1,88.000002685547,10|2,0:0|1:2,0:0:0:0:
393,105,49274,6,0,P|442:105|481:166,2,88.000002685547,2|6|2,1:2|0:0|1:2,0:0:0:0:
256,220,49774,2,0,P|196:223|76:207,1,176.000005371094,6|2,0:0|1:2,0:0:0:0:
32,132,50274,5,10,0:0:0:0:
32,132,50440,1,2,1:2:0:0:
124,72,50607,1,10,0:0:0:0:
124,72,50774,1,0,1:0:0:0:
261,132,50940,2,0,P|254:175|255:219,1,88.000002685547,10|2,0:0|1:2,0:0:0:0:
352,48,51274,5,6,1:2:0:0:
489,132,51607,1,2,1:2:0:0:
346,208,51940,1,2,1:2:0:0:
483,292,52274,1,6,1:2:0:0:
208,352,52607,5,2,0:0:0:0:
196,356,52690,1,0,0:0:0:0:
184,359,52773,1,2,0:0:0:0:
171,362,52857,1,0,0:0:0:0:
159,363,52940,1,2,0:0:0:0:
146,363,53023,1,0,0:0:0:0:
134,363,53107,1,2,0:0:0:0:
121,361,53190,1,0,0:0:0:0:
106,358,53274,6,0,L|44:355,3,44.0000013427735,2|0|2|0,0:0|0:0|0:0|0:0,0:0:0:0:
4,268,53607,2,0,L|47:270,3,44.0000013427735,2|0|2|0,0:0|0:0|0:0|0:0,0:0:0:0:
120,144,53940,6,1,P|175:140|225:259,1,191.999994140625,6|10,1:2|0:0,0:0:0:0:
304,336,54440,1,2,0:0:0:0:
304,336,54524,1,0,0:0:0:0:
304,336,54607,1,2,1:2:0:0:
388,268,54774,1,2,1:2:0:0:
456,352,54940,1,8,0:0:0:0:
364,177,55107,6,0,P|360:126|356:72,1,95.9999970703126,2|0,1:2|0:0,0:0:0:0:
216,36,55440,1,2,1:2:0:0:
216,36,55607,2,0,P|220:87|224:141,1,95.9999970703126,10|0,0:0|0:0,0:0:0:0:
48,188,55940,2,0,P|138:194|166:280,1,191.999994140625,2|10,1:2|0:0,0:0:0:0:
244,344,56440,1,0,0:0:0:0:
83,265,56607,5,2,1:2:0:0:
223,131,56774,1,0,0:0:0:0:
344,272,56940,2,0,P|401:280|458:288,1,95.9999970703126,12|2,0:0|0:0,0:0:0:0:
360,116,57274,5,2,1:2:0:0:
232,264,57440,1,0,1:0:0:0:
108,136,57607,2,0,P|100:79|92:22,1,95.9999970703126,12|0,0:0|1:0,0:0:0:0:
223,131,57940,5,2,0:0:0:0:
366,196,58107,1,2,1:2:0:0:
289,58,58274,1,10,0:0:0:0:
239,251,58440,5,0,1:0:0:0:
381,100,58607,1,2,0:0:0:0:
207,133,58774,1,8,0:0:0:0:
411,213,58940,5,14,0:0:0:0:
237,347,59107,1,2,0:0:0:0:
237,347,59190,1,0,0:0:0:0:
237,347,59274,2,0,L|240:241,1,95.9999970703126,0|0,1:0|0:0,0:0:0:0:
108,136,59607,6,0,P|38:184|68:306,1,191.999994140625,10|2,0:0|1:2,0:0:0:0:
152,328,60107,1,2,1:2:0:0:
239,251,60274,2,0,L|349:240,1,95.9999970703126,10|2,0:0|1:2,0:0:0:0:
184,184,60607,5,0,0:0:0:0:
292,332,60774,1,0,1:2:0:0:
418,272,60940,2,0,P|421:216|385:170,1,95.9999970703126,10|0,0:0|0:0,0:0:0:0:
225,97,61274,5,2,1:2:0:0:
336,132,61440,1,2,1:2:0:0:
145,192,61607,1,8,0:0:0:0:
334,241,61773,1,10,0:0:0:0:
334,241,61857,1,0,0:0:0:0:
334,241,61940,5,6,1:2:0:0:
225,97,62107,1,0,0:0:0:0:
136,268,62274,1,10,0:0:0:0:
273,168,62440,1,0,0:0:0:0:
112,288,62607,6,0,P|64:271|22:230,1,95.9999970703126,2|2,1:2|1:2,0:0:0:0:
332,340,62940,2,0,P|379:323|421:282,1,95.9999970703126,10|2,0:0|1:2,0:0:0:0:
273,168,63274,5,2,0:0:0:0:
384,80,63440,1,10,0:0:0:0:
384,80,63524,1,8,0:0:0:0:
384,80,63607,1,2,1:2:0:0:
448,208,63774,1,10,0:0:0:0:
448,208,63858,1,8,0:0:0:0:
448,208,63940,1,8,1:2:0:0:
236,80,64107,5,10,0:0:0:0:
200,78,64190,1,10,0:0:0:0:
164,76,64274,1,10,0:0:0:0:
128,74,64357,1,10,0:0:0:0:
92,72,64440,2,0,L|87:121,1,47.9999985351563,10|10,0:0|0:0,0:0:0:0:
0,192,64607,6,0,P|27:278|117:284,1,191.999994140625,4|10,1:2|0:0,0:0:0:0:
212,344,65107,1,2,0:0:0:0:
212,344,65190,1,0,0:0:0:0:
212,344,65274,1,2,1:2:0:0:
184,212,65440,1,2,1:2:0:0:
324,328,65607,1,8,0:0:0:0:
312,192,65774,6,0,P|302:103|288:-1,1,191.999994140625,2|2,1:2|1:2,0:0:0:0:
184,4,66274,1,10,0:0:0:0:
184,4,66440,1,0,0:0:0:0:
379,76,66607,2,0,P|433:75|482:68,1,95.9999970703126,2|0,1:2|1:0,0:0:0:0:
224,192,66940,2,0,P|170:193|121:200,1,95.9999970703126,10|0,0:0|0:0,0:0:0:0:
380,270,67274,6,0,P|470:263|497:177,1,191.999994140625,2|12,1:2|0:0,0:0:0:0:
379,76,67774,1,2,0:0:0:0:
224,192,67940,2,0,P|223:138|216:89,1,95.9999970703126,2|0,1:2|1:0,0:0:0:0:
373,174,68274,2,0,P|374:228|381:277,1,95.9999970703126,12|0,0:0|1:0,0:0:0:0:
244,336,68607,5,2,0:0:0:0:
244,336,68774,1,2,1:2:0:0:
64,264,68940,5,10,0:0:0:0:
64,264,69107,1,0,1:0:0:0:
228,64,69274,5,2,0:0:0:0:
168,268,69440,1,8,0:0:0:0:
104,128,69607,1,14,0:0:0:0:
312,176,69774,1,2,0:0:0:0:
312,176,69857,1,0,0:0:0:0:
312,176,69940,6,0,P|316:247|323:371,1,191.999994140625,0|10,1:0|0:0,0:0:0:0:
232,344,70440,1,0,0:0:0:0:
404,276,70607,1,2,1:2:0:0:
404,276,70774,2,0,P|399:209|396:167,1,95.9999970703126,2|10,1:2|0:0,0:0:0:0:
257,67,71107,6,0,P|182:119|202:206,1,191.999994140625,2|2,1:2|1:2,0:0:0:0:
117,283,71607,1,10,0:0:0:0:
117,283,71774,1,0,0:0:0:0:
272,148,71940,1,2,1:2:0:0:
272,148,72107,2,0,P|339:143|381:140,1,95.9999970703126,2|8,1:2|0:0,0:0:0:0:
448,72,72440,1,10,0:0:0:0:
336,256,72607,5,14,0:0:0:0:
336,256,72774,1,0,1:0:0:0:
296,32,72940,1,12,0:0:0:0:
296,32,73107,1,0,1:0:0:0:
484,212,73274,5,12,0:0:0:0:
484,212,73440,1,0,1:0:0:0:
192,168,73607,1,12,0:0:0:0:
192,168,73774,1,0,0:0:0:0:
269,294,73940,6,0,P|332:290|378:331,1,120.000004577637,2|2,0:0|0:0,0:0:0:0:
180,372,74440,2,0,L|167:239,2,120.000004577637,2|2|2,0:0|0:0|0:0,0:0:0:0:
40,260,75274,5,6,1:2:0:0:
40,260,75440,1,2,0:0:0:0:
24,103,75607,1,10,0:0:0:0:
24,103,75774,1,2,0:0:0:0:
159,164,75940,6,0,L|170:280,1,88.000002685547,2|2,1:2|1:2,0:0:0:0:
24,103,76274,1,10,0:0:0:0:
144,32,76440,2,0,P|221:26|266:131,2,176.000005371094,2|2|2,1:2|1:2|0:0,0:0:0:0:
344,24,77274,1,0,1:0:0:0:
344,24,77440,1,2,1:2:0:0:
428,124,77607,2,0,L|416:240,1,88.000002685547,10|2,0:0|0:0,0:0:0:0:
300,288,77940,5,2,1:2:0:0:
300,288,78274,5,10,0:0:0:0:
464,320,78440,1,0,0:0:0:0:
316,188,78607,1,2,1:2:0:0:
316,188,78774,1,2,1:2:0:0:
382,304,78940,1,8,0:0:0:0:
276,376,79107,2,0,P|185:366|59:354,2,176.000005371094,2|2|2,1:2|1:2|0:0,0:0:0:0:
382,304,79940,5,2,1:2:0:0:
167,268,80107,1,2,1:2:0:0:
382,304,80274,1,10,0:0:0:0:
167,268,80440,1,2,0:0:0:0:
316,229,80607,5,6,1:2:0:0:
331,152,80774,1,2,0:0:0:0:
294,82,80940,1,10,0:0:0:0:
220,52,81107,1,2,0:0:0:0:
96,116,81274,6,0,P|179:110|226:180,1,176.000005371094,2|10,1:2|0:0,0:0:0:0:
17,278,81774,2,0,B|-10:238|-10:238|9:98,2,176.000005371094,2|2|2,1:2|1:2|0:0,0:0:0:0:
144,200,82607,1,0,1:0:0:0:
144,200,82774,1,2,1:2:0:0:
236,304,82940,2,0,P|274:302|319:260,1,88.000002685547,10|2,0:0|0:0,0:0:0:0:
144,200,83274,5,2,1:2:0:0:
144,200,83607,5,10,0:0:0:0:
284,136,83774,1,0,0:0:0:0:
396,240,83940,1,2,1:2:0:0:
396,240,84107,1,2,1:2:0:0:
288,244,84274,1,8,0:0:0:0:
384,128,84440,2,0,P|437:133|492:236,1,176.000005371094,2|2,1:2|1:2,0:0:0:0:
440,340,84940,1,8,0:0:0:0:
440,340,85107,1,2,1:2:0:0:
244,250,85274,6,0,L|300:241,3,44.0000013427735,10|0|10|0,0:0|0:0|1:2|0:0,0:0:0:0:
144,344,85607,2,0,L|88:353,3,44.0000013427735,10|0|10|0,0:0|0:0|0:0|0:0,0:0:0:0:
0,216,85940,5,0,1:0:0:0:
344,200,93940,5,10,1:2:0:0:
344,200,94440,1,2,1:2:0:0:
76,116,94607,5,10,0:0:0:0:
76,116,95107,1,2,1:2:0:0:
248,20,95274,5,10,0:0:0:0:
216,172,95440,1,2,1:2:0:0:
376,48,95607,1,10,0:0:0:0:
344,200,95773,1,2,1:2:0:0:
184,80,95940,5,10,0:0:0:0:
184,80,96274,5,2,0:0:0:0:
140,156,96440,1,2,0:0:0:0:
171,230,96607,2,0,P|168:268|163:309,1,80,2|0,1:2|0:0,0:0:0:0:
261,365,96940,6,0,P|310:369|370:275,1,160,0|2,0:0|1:2,0:0:0:0:
344,200,97440,1,2,0:0:0:0:
344,200,97607,1,2,0:0:0:0:
396,128,97774,1,2,0:0:0:0:
352,48,97940,6,0,P|305:44|271:37,1,80,2|0,1:2|0:0,0:0:0:0:
432,204,98274,2,0,P|479:200|513:193,1,80,2|0,0:0|1:0,0:0:0:0:
276,132,98607,2,0,P|249:187|283:280,1,160,2|2,0:0|0:0,0:0:0:0:
372,316,99107,1,2,0:0:0:0:
192,284,99274,5,2,1:2:0:0:
192,284,99440,1,0,0:0:0:0:
344,200,99607,1,2,0:0:0:0:
344,200,99774,1,0,0:0:0:0:
152,192,99940,5,2,1:2:0:0:
278,276,100107,1,2,0:0:0:0:
292,124,100274,1,2,0:0:0:0:
135,185,100440,2,0,P|95:180|34:172,1,80,2|0,0:0|1:0,0:0:0:0:
21,44,100774,5,2,0:0:0:0:
87,87,100940,1,2,0:0:0:0:
166,98,101107,1,2,0:0:0:0:
242,74,101274,2,0,P|246:46|255:-11,1,80,2|0,0:0|0:0,0:0:0:0:
380,104,101607,1,2,0:0:0:0:
344,200,101774,1,2,0:0:0:0:
408,304,101940,6,0,P|455:315|511:325,1,95.9999970703126,6|0,1:2|0:0,0:0:0:0:
271,148,102274,2,0,P|222:156|188:197,1,95.9999970703126,6|2,1:2|0:0,0:0:0:0:
248,328,102607,1,6,1:2:0:0:
248,328,103274,6,0,L|261:230,1,95.9999970703126,6|2,1:2|0:0,0:0:0:0:
72,164,103607,2,0,L|59:262,1,95.9999970703126,6|2,1:2|0:0,0:0:0:0:
0,348,103940,1,6,1:2:0:0:
0,348,104274,5,2,0:0:0:0:
20,360,104357,1,0,0:0:0:0:
43,367,104440,1,2,0:0:0:0:
67,368,104523,1,0,0:0:0:0:
91,365,104607,6,0,P|141:360|211:377,1,95.9999970703126,6|0,1:2|0:0,0:0:0:0:
352,254,104940,2,0,P|304:236|232:234,1,95.9999970703126,6|0,1:2|0:0,0:0:0:0:
392,372,105274,1,6,1:2:0:0:
392,372,105940,5,6,1:2:0:0:
348,160,106107,1,2,0:0:0:0:
348,160,106190,1,2,0:0:0:0:
348,160,106274,1,2,0:0:0:0:
480,220,106440,5,2,0:0:0:0:
256,320,106607,1,6,1:2:0:0:
148,244,106774,1,2,0:0:0:0:
148,244,106857,1,2,0:0:0:0:
148,244,106940,1,2,0:0:0:0:
236,216,107107,1,2,0:0:0:0:
160,336,107274,6,0,P|106:348|70:355,1,88.000002685547,6|0,1:2|0:0,0:0:0:0:
236,216,107607,2,0,P|290:204|326:197,1,88.000002685547,10|0,0:0|0:0,0:0:0:0:
412,272,107940,1,2,1:2:0:0:
312,292,108107,1,2,1:2:0:0:
392,184,108274,1,10,0:0:0:0:
301,383,108440,6,0,P|255:360|247:241,1,176.000005371094,2|2,1:2|1:2,0:0:0:0:
167,162,108940,1,10,0:0:0:0:
167,162,109107,1,2,0:0:0:0:
228,88,109274,2,0,P|289:80|336:74,1,88.000002685547,2|2,1:2|1:2,0:0:0:0:
88,204,109607,2,0,P|27:196|-20:190,1,88.000002685547,10|0,0:0|0:0,0:0:0:0:
80,64,109940,5,2,1:2:0:0:
167,162,110107,1,0,0:0:0:0:
265,75,110274,1,10,0:0:0:0:
167,162,110440,1,2,0:0:0:0:
380,212,110607,5,2,1:2:0:0:
288,248,110774,2,0,P|280:204|277:160,1,88.000002685547,2|10,1:2|0:0,0:0:0:0:
480,224,111107,2,0,P|487:266|491:325,1,88.000002685547,2|0,1:2|0:0,0:0:0:0:
384,128,111440,5,2,1:2:0:0:
384,128,111607,1,10,0:0:0:0:
412,44,111774,1,2,0:0:0:0:
265,75,111940,2,0,P|228:70|158:61,1,88.000002685547,2|2,1:2|1:2,0:0:0:0:
356,212,112274,1,10,0:0:0:0:
384,128,112440,1,2,0:0:0:0:
384,128,112524,1,0,0:0:0:0:
384,128,112607,5,6,1:2:0:0:
291,156,112774,1,2,0:0:0:0:
254,245,112940,1,10,0:0:0:0:
285,336,113107,1,2,0:0:0:0:
372,376,113274,2,0,P|388:322|388:288,1,88.000002685547,2|2,1:2|1:2,0:0:0:0:
291,156,113607,1,10,0:0:0:0:
152,272,113774,6,0,P|82:269|48:158,1,176.000005371094,2|0,1:2|1:2,0:0:0:0:
88,88,114274,1,10,1:2:0:0:
127,185,114440,1,2,0:0:0:0:
203,29,114607,2,0,P|245:28|305:32,1,88.000002685547,2|2,1:2|1:2,0:0:0:0:
127,185,114940,2,0,P|84:184|25:180,1,88.000002685547,10|2,0:0|0:0,0:0:0:0:
276,120,115274,5,2,1:2:0:0:
152,284,115440,1,2,0:0:0:0:
152,284,115607,1,10,0:0:0:0:
127,185,115774,5,2,0:0:0:0:
233,225,115940,1,2,1:2:0:0:
276,120,116107,1,2,1:2:0:0:
152,284,116274,5,10,0:0:0:0:
372,352,116440,1,2,1:2:0:0:
372,352,116774,5,2,1:2:0:0:
308,240,116940,1,10,0:0:0:0:
436,220,117107,1,2,0:0:0:0:
264,320,117274,5,2,1:2:0:0:
360,168,117440,1,2,1:2:0:0:
472,316,117607,1,10,0:0:0:0:
472,316,117774,1,2,0:0:0:0:
308,240,117940,5,2,1:2:0:0:
216,188,118107,2,0,P|177:187|159:193,2,44.0000013427735,2|2|10,0:0|0:0|0:0,0:0:0:0:
400,292,118440,1,2,0:0:0:0:
400,292,118524,1,2,0:0:0:0:
400,292,118607,5,2,1:2:0:0:
436,220,118774,1,2,1:2:0:0:
472,148,118940,1,10,0:0:0:0:
472,148,119107,1,2,1:2:0:0:
407,56,119274,6,0,P|347:60|225:64,2,176.000005371094,2|10|2,0:0|0:0|1:2,0:0:0:0:
488,24,120107,1,2,1:2:0:0:
404,148,120274,1,10,0:0:0:0:
404,148,120440,1,0,0:0:0:0:
328,228,120607,5,2,1:2:0:0:
328,228,120690,1,2,0:0:0:0:
328,228,120774,1,2,0:0:0:0:
256,152,120940,1,10,0:0:0:0:
256,152,121023,1,2,0:0:0:0:
256,152,121107,1,2,0:0:0:0:
144,228,121274,5,2,1:2:0:0:
352,136,121440,1,2,1:2:0:0:
172,96,121607,1,10,0:0:0:0:
312,276,121774,1,2,1:2:0:0:
188,347,121940,6,0,P|127:352|89:359,1,88.000002685547,6|14,1:2|0:0,0:0:0:0:
312,276,122274,2,0,P|373:281|411:288,1,88.000002685547,2|6,1:2|1:2,0:0:0:0:
256,152,122607,6,0,P|234:155|205:159,1,44.0000013427735,2|0,1:2|0:0,0:0:0:0:
144,228,122774,2,0,P|122:225|93:221,1,44.0000013427735,14|0,0:0|0:0,0:0:0:0:
28,124,122940,1,2,0:0:0:0:
28,124,123275,5,8,0:0:0:0:
16,105,123358,1,8,0:0:0:0:
13,83,123441,1,8,0:0:0:0:
18,62,123524,1,10,0:0:0:0:
29,43,123607,2,0,P|81:40|147:60,1,88.000002685547,10|2,0:0|1:2,0:0:0:0:
256,152,123940,5,2,1:2:0:0:
256,152,124107,1,10,0:0:0:0:
232,240,124274,1,2,1:2:0:0:
335,384,124440,2,0,P|376:315|335:196,1,176.000005371094,6|2,0:0|1:2,0:0:0:0:
480,212,124940,5,10,0:0:0:0:
480,212,125107,1,2,1:2:0:0:
359,224,125274,1,10,0:0:0:0:
359,224,125441,1,0,1:0:0:0:
238,236,125607,1,8,0:0:0:0:
238,236,125774,1,0,1:0:0:0:
381,128,125941,5,10,0:0:0:0:
401,120,126024,1,8,0:0:0:0:
423,117,126107,1,10,0:0:0:0:
445,119,126190,1,8,0:0:0:0:
466,125,126274,2,0,P|477:167|477:223,1,88.000002685547,10|2,0:0|1:2,0:0:0:0:
276,48,126607,5,2,1:2:0:0:
276,48,126774,1,10,0:0:0:0:
292,200,126940,1,2,1:2:0:0:
80,151,127107,2,0,P|127:137|132:5,1,176.000005371094,6|2,0:0|1:2,0:0:0:0:
84,70,127607,5,10,0:0:0:0:
84,70,127774,1,2,1:2:0:0:
188,148,127940,1,10,0:0:0:0:
188,148,128107,1,2,1:2:0:0:
140,264,128274,1,10,0:0:0:0:
140,264,128440,1,2,1:2:0:0:
248,356,128607,5,8,0:0:0:0:
269,362,128690,1,8,0:0:0:0:
291,366,128773,1,10,0:0:0:0:
312,364,128856,1,8,0:0:0:0:
334,359,128940,2,0,P|339:311|347:255,1,88.000002685547,10|2,0:0|1:2,0:0:0:0:
219,87,129274,5,2,1:2:0:0:
318,94,129440,1,6,0:0:0:0:
311,194,129607,1,2,1:2:0:0:
212,187,129774,2,0,P|162:236|164:343,1,176.000005371094,14|2,0:0|1:2,0:0:0:0:
288,304,130274,5,10,0:0:0:0:
288,304,130440,1,2,1:2:0:0:
424,376,130607,1,10,0:0:0:0:
424,376,130774,1,0,1:0:0:0:
472,236,130940,1,10,0:0:0:0:
472,236,131107,1,2,1:2:0:0:
338,145,131274,5,6,1:2:0:0:
204,54,131607,1,2,1:2:0:0:
113,188,131940,1,2,1:2:0:0:
247,279,132274,1,6,1:2:0:0:
433,168,132607,5,2,0:0:0:0:
437,156,132690,1,0,0:0:0:0:
440,144,132773,1,2,0:0:0:0:
443,131,132857,1,0,0:0:0:0:
444,119,132940,1,2,0:0:0:0:
444,106,133023,1,0,0:0:0:0:
444,94,133107,1,2,0:0:0:0:
442,81,133190,1,0,0:0:0:0:
439,66,133274,6,0,L|436:4,3,44.0000013427735,2|0|2|0,0:0|0:0|0:0|0:0,0:0:0:0:
338,145,133607,2,0,L|340:188,3,44.0000013427735,2|0|2|0,0:0|0:0|0:0|0:0,0:0:0:0:
268,32,133940,6,0,P|213:28|163:147,1,191.999994140625,6|10,1:2|0:0,0:0:0:0:
80,252,134440,1,2,0:0:0:0:
80,252,134524,1,0,0:0:0:0:
80,252,134607,1,2,1:2:0:0:
216,304,134774,1,2,1:2:0:0:
104,364,134940,1,8,0:0:0:0:
309,186,135107,6,0,P|356:190|404:200,1,95.9999970703126,2|0,1:2|0:0,0:0:0:0:
362,45,135440,1,2,1:2:0:0:
362,45,135607,2,0,P|315:41|268:32,1,95.9999970703126,10|0,0:0|0:0,0:0:0:0:
488,176,135940,2,0,B|509:228|509:228|467:361,1,191.999994140625,2|10,1:2|0:0,0:0:0:0:
341,268,136440,1,0,0:0:0:0:
192,340,136607,5,2,1:2:0:0:
324,152,136774,1,0,0:0:0:0:
138,207,136940,2,0,P|87:202|22:194,1,95.9999970703126,12|2,0:0|0:0,0:0:0:0:
324,344,137274,5,2,1:2:0:0:
216,128,137440,1,0,1:0:0:0:
88,288,137607,2,0,P|83:339|75:404,1,95.9999970703126,12|0,0:0|1:0,0:0:0:0:
264,232,137940,5,2,0:0:0:0:
119,75,138107,1,2,1:2:0:0:
305,99,138274,1,10,0:0:0:0:
98,198,138440,1,0,1:0:0:0:
220,32,138607,5,2,0:0:0:0:
184,216,138774,1,8,0:0:0:0:
384,164,138940,1,14,0:0:0:0:
416,352,139107,5,2,0:0:0:0:
416,352,139190,1,0,0:0:0:0:
416,352,139274,2,0,L|304:344,1,95.9999970703126,2|0,1:2|0:0,0:0:0:0:
104,200,139607,2,0,P|166:139|269:212,1,191.999994140625,10|2,0:0|1:2,0:0:0:0:
328,92,140107,1,2,1:2:0:0:
184,216,140274,2,0,L|192:328,1,95.9999970703126,10|2,0:0|1:2,0:0:0:0:
112,384,140607,5,0,0:0:0:0:
284,260,140774,1,2,1:2:0:0:
104,200,140940,2,0,P|95:150|102:89,1,95.9999970703126,10|0,0:0|0:0,0:0:0:0:
316,120,141274,5,2,1:2:0:0:
216,80,141440,1,2,1:2:0:0:
296,8,141607,1,8,0:0:0:0:
396,48,141774,1,10,0:0:0:0:
396,48,141857,1,0,0:0:0:0:
396,48,141940,5,6,1:2:0:0:
356,204,142107,1,0,0:0:0:0:
472,132,142274,1,10,0:0:0:0:
292,104,142440,1,0,0:0:0:0:
468,244,142607,5,2,1:2:0:0:
468,244,142774,1,2,1:2:0:0:
259,208,142940,1,10,0:0:0:0:
259,208,143107,1,2,1:2:0:0:
332,364,143274,5,2,0:0:0:0:
344,264,143440,1,10,0:0:0:0:
344,264,143524,1,8,0:0:0:0:
344,264,143607,1,2,1:2:0:0:
244,304,143774,1,10,0:0:0:0:
244,304,143857,1,8,0:0:0:0:
244,304,143940,1,8,1:2:0:0:
116,224,144107,5,10,0:0:0:0:
113,247,144190,1,10,0:0:0:0:
111,271,144274,1,10,0:0:0:0:
109,295,144357,1,10,0:0:0:0:
107,319,144440,2,0,L|111:373,1,47.9999985351563,10|10,0:0|0:0,0:0:0:0:
328,320,144607,6,0,P|301:234|211:228,1,191.999994140625,4|10,1:2|0:0,0:0:0:0:
124,144,145107,1,2,0:0:0:0:
124,144,145190,1,0,0:0:0:0:
124,144,145274,1,2,1:2:0:0:
228,72,145440,1,2,1:2:0:0:
116,32,145607,1,8,0:0:0:0:
300,145,145774,6,0,P|354:141|498:125,1,191.999994140625,2|2,1:2|1:2,0:0:0:0:
512,36,146274,1,10,0:0:0:0:
512,36,146440,1,0,0:0:0:0:
471,206,146607,2,0,P|479:262|486:308,1,95.9999970703126,2|0,1:2|1:0,0:0:0:0:
300,145,146940,2,0,P|292:89|285:43,1,95.9999970703126,10|0,0:0|0:0,0:0:0:0:
244,288,147274,6,0,B|200:264|200:264|44:284,1,191.999994140625,2|12,1:2|0:0,0:0:0:0:
8,200,147774,1,2,0:0:0:0:
24,92,147940,1,2,1:2:0:0:
24,92,148107,1,0,1:0:0:0:
148,180,148274,2,0,P|139:123|130:77,1,95.9999970703126,12|0,0:0|1:0,0:0:0:0:
248,204,148607,5,2,0:0:0:0:
60,160,148774,1,2,1:2:0:0:
228,116,148940,5,10,0:0:0:0:
84,252,149107,1,0,1:0:0:0:
220,352,149274,5,2,0:0:0:0:
220,352,149440,1,8,0:0:0:0:
361,224,149607,1,14,0:0:0:0:
432,292,149774,1,2,0:0:0:0:
432,292,149857,1,0,0:0:0:0:
432,292,149940,6,0,P|352:333|284:274,1,191.999994140625,0|10,1:0|0:0,0:0:0:0:
168,324,150440,1,0,0:0:0:0:
40,184,150607,1,2,1:2:0:0:
40,184,150774,2,0,L|141:188,1,95.9999970703126,2|10,1:2|0:0,0:0:0:0:
285,86,151107,6,0,P|299:132|281:278,1,191.999994140625,2|2,1:2|1:2,0:0:0:0:
392,329,151607,1,10,0:0:0:0:
392,329,151774,1,0,0:0:0:0:
492,220,151940,1,2,1:2:0:0:
492,220,152107,2,0,L|482:113,1,95.9999970703126,2|8,1:2|0:0,0:0:0:0:
408,48,152440,1,10,0:0:0:0:
340,176,152607,5,14,0:0:0:0:
340,176,152774,1,0,1:0:0:0:
504,32,152940,1,12,0:0:0:0:
504,32,153107,1,0,1:0:0:0:
285,86,153274,5,12,0:0:0:0:
285,86,153440,1,0,1:0:0:0:
512,164,153607,1,12,0:0:0:0:
512,164,153774,1,0,0:0:0:0:
228,216,153940,5,10,0:0:0:0:
416,104,154107,1,0,1:0:0:0:
204,88,154274,5,14,0:0:0:0:
368,236,154440,1,2,1:2:0:0:
188,280,154607,5,14,0:0:0:0:
170,279,154690,1,8,0:0:0:0:
152,278,154774,1,8,0:3:0:0:
134,277,154857,1,8,0:3:0:0:
116,276,154940,2,0,L|60:273,3,47.9999985351563,8|4|4|4,0:3|0:3|0:3|0:3,0:0:0:0:
21,168,155274,6,0,P|13:111|36:43,1,88.000002685547,6|2,1:2|0:0,0:0:0:0:
134,17,155607,1,10,0:0:0:0:
134,17,155774,1,2,0:0:0:0:
134,17,155940,2,0,P|184:21|239:24,1,88.000002685547,2|0,1:2|1:0,0:0:0:0:
320,80,156274,5,10,0:0:0:0:
371,151,156440,1,2,1:2:0:0:
366,239,156607,2,0,P|370:282|375:332,1,88.000002685547,2|0,0:0|1:0,0:0:0:0:
280,372,156940,5,10,0:0:0:0:
280,372,157107,1,2,0:0:0:0:
452,284,157274,1,2,1:2:0:0:
260,244,157440,2,0,L|94:260,1,132.00000402832,2|0,1:2|0:0,0:0:0:0:
105,259,157774,1,2,0:0:0:0:
28,120,157940,5,2,1:2:0:0:
28,120,158274,5,10,0:0:0:0:
113,141,158440,1,2,0:0:0:0:
197,115,158607,2,0,P|250:108|304:114,1,88.000002685547,2|2,1:2|1:2,0:0:0:0:
352,232,158940,5,10,0:0:0:0:
352,232,159107,1,2,1:2:0:0:
352,232,159274,2,0,P|298:229|245:240,1,88.000002685547,2|0,0:0|1:0,0:0:0:0:
136,336,159607,5,10,0:0:0:0:
209,383,159774,1,2,0:0:0:0:
256,310,159940,1,2,1:2:0:0:
183,262,160107,2,0,P|177:219|192:120,1,132.00000402832,2|0,1:2|0:0,0:0:0:0:
199,111,160440,1,2,0:0:0:0:
312,32,160607,5,0,1:0:0:0:
312,32,160940,5,10,0:0:0:0:
344,114,161107,1,2,0:0:0:0:
311,195,161274,2,0,L|323:305,1,88.000002685547,2|2,1:2|1:2,0:0:0:0:
327,44,161607,5,10,0:0:0:0:
359,126,161774,1,2,1:2:0:0:
326,207,161941,2,0,L|338:317,1,88.000002685547,2|2,0:0|1:2,0:0:0:0:
436,360,162274,5,10,0:0:0:0:
436,360,162440,1,2,0:0:0:0:
500,264,162607,1,2,1:2:0:0:
500,264,162774,2,0,P|507:216|498:154,1,88.000002685547,2|10,1:2|0:0,0:0:0:0:
461,56,163107,1,2,0:0:0:0:
461,56,163274,6,1,B|419:39|419:39|274:71,1,176.000005371094,2|8,1:2|0:0,0:0:0:0:
188,131,163774,1,2,0:0:0:0:
228,280,163940,1,2,1:2:0:0:
228,280,164107,1,0,1:0:0:0:
324,232,164274,1,8,0:0:0:0:
324,232,164440,1,0,1:0:0:0:
180,184,164607,5,2,0:0:0:0:
352,160,164774,1,0,1:0:0:0:
200,108,164940,1,10,0:0:0:0:
324,232,165107,1,2,1:2:0:0:
292,68,165274,5,10,0:0:0:0:
292,68,165357,1,10,0:0:0:0:
292,68,165440,1,2,1:2:0:0:
103,190,165607,5,10,0:0:0:0:
105,211,165690,1,8,0:0:0:0:
107,233,165773,1,8,0:3:0:0:
109,255,165857,1,4,0:3:0:0:
111,277,165940,1,4,1:2:0:0:
258,375,166274,5,10,0:0:0:0:
258,375,166440,1,2,0:0:0:0:
258,375,166607,2,0,P|253:328|247:277,1,88.000002685547,2|0,1:2|1:0,0:0:0:0:
324,196,166940,5,10,0:0:0:0:
410,179,167107,1,2,1:2:0:0:
481,229,167274,2,0,P|486:272|490:316,1,88.000002685547,2|0,0:0|1:0,0:0:0:0:
352,112,167607,5,10,0:0:0:0:
352,112,167774,1,2,0:0:0:0:
487,93,167940,1,2,1:2:0:0:
392,12,168107,2,0,P|336:22|258:23,1,132.00000402832,2|0,1:2|0:0,0:0:0:0:
238,20,168440,1,2,0:0:0:0:
132,128,168607,5,2,1:2:0:0:
132,128,168940,5,10,0:0:0:0:
115,214,169107,1,2,0:0:0:0:
169,283,169274,2,0,P|227:292|279:283,1,88.000002685547,2|2,1:2|1:2,0:0:0:0:
88,360,169607,5,10,0:0:0:0:
169,283,169774,1,2,1:2:0:0:
308,360,169940,2,0,P|366:351|418:360,1,88.000002685547,2|0,0:0|1:0,0:0:0:0:
459,270,170274,5,10,0:0:0:0:
394,353,170440,1,2,0:0:0:0:
311,288,170607,1,2,1:2:0:0:
375,205,170774,2,0,P|380:152|350:65,1,132.00000402832,2|0,1:2|0:0,0:0:0:0:
342,61,171107,1,2,0:0:0:0:
500,148,171274,5,0,1:0:0:0:
500,148,171607,5,10,0:0:0:0:
403,135,171774,1,2,0:0:0:0:
298,181,171940,2,0,P|254:177|202:170,1,88.000002685547,2|2,1:2|1:2,0:0:0:0:
144,80,172274,5,10,0:0:0:0:
210,171,172440,1,2,1:2:0:0:
124,248,172607,2,0,P|113:292|113:344,1,88.000002685547,2|2,0:0|1:2,0:0:0:0:
235,375,172940,5,10,0:0:0:0:
215,298,173107,1,2,0:0:0:0:
292,278,173274,1,2,1:2:0:0:
312,355,173440,1,2,1:2:0:0:
408,384,173607,1,8,0:0:0:0:
408,384,173774,1,2,0:0:0:0:
469,251,173940,6,0,P|471:207|476:164,1,88.000002685547,6|0,1:2|0:0,0:0:0:0:
345,56,174274,2,0,P|350:100|352:144,1,88.000002685547,8|0,0:0|0:0,0:0:0:0:
204,128,174607,1,2,1:2:0:0:
204,128,174774,1,0,1:0:0:0:
260,256,174940,1,8,0:0:0:0:
260,256,175107,1,0,1:0:0:0:
184,344,175274,6,0,P|130:333|97:286,1,88.000002685547,2|0,0:0|1:0,0:0:0:0:
336,220,175607,2,0,P|390:231|423:278,1,88.000002685547,8|0,0:0|0:0,0:0:0:0:
176,228,175940,2,0,P|158:175|182:123,1,88.000002685547,2|2,1:2|1:2,0:0:0:0:
344,300,176274,2,0,P|361:352|337:404,1,88.000002685547,10|0,0:0|0:0,0:0:0:0:
176,228,176607,6,0,L|123:223,3,44.0000013427735,6|0|0|0,1:2|0:0|0:0|0:0,0:0:0:0:
332,144,176940,2,0,L|385:139,3,44.0000013427735,8|0|0|0,0:0|0:0|0:0|0:0,0:0:0:0:
210,72,177274,5,0,1:0:0:0:
199,71,177357,1,0,0:0:0:0:
188,70,177440,1,0,1:0:0:0:
177,70,177524,1,0,0:0:0:0:
166,69,177607,2,0,L|113:64,3,44.0000013427735,8|0|2|0,0:0|0:0|1:2|0:0,0:0:0:0:
32,148,177940,6,0,L|27:201,3,44.0000013427735,2|0|2|0,0:0|0:0|1:2|0:0,0:0:0:0:
171,271,178274,2,0,L|176:218,3,44.0000013427735,8|0|0|0,0:0|0:0|0:0|0:0,0:0:0:0:
260,354,178607,5,0,1:0:0:0:
290,365,178690,1,0,0:0:0:0:
323,366,178773,1,0,1:0:0:0:
355,358,178857,1,0,0:0:0:0:
383,341,178940,2,0,L|378:288,3,44.0000013427735,8|0|0|0,0:0|0:0|0:0|0:0,0:0:0:0:
492,216,179274,6,0,L|448:220,1,44.0000013427735,6|0,1:2|0:0,0:0:0:0:
288,168,179440,2,0,L|331:163,1,44.0000013427735,2|0,1:2|0:0,0:0:0:0:
508,112,179607,2,0,L|464:116,1,44.0000013427735,10|0,0:0|0:0,0:0:0:0:
288,64,179773,2,0,L|331:59,1,44.0000013427735,2|0,1:2|0:0,0:0:0:0:
502,25,179940,5,10,0:0:0:0:
503,46,180023,1,0,0:0:0:0:
505,68,180106,1,2,1:2:0:0:
507,90,180190,1,0,0:0:0:0:
508,112,180274,1,8,0:0:0:0:
509,134,180357,1,8,0:0:0:0:
511,155,180440,2,0,L|515:210,1,44.0000013427735,8|4,0:3|0:3,0:0:0:0:
378,297,180607,5,6,1:2:0:0:
256,192,180690,12,6,183274,1:2:0:0:
368,20,183607,6,0,P|363:75|353:138,1,95.9999970703126,10|0,0:0|0:0,0:0:0:0:
236,168,183940,1,2,1:2:0:0:
236,168,184107,2,0,P|180:169|132:135,1,95.9999970703126,2|8,1:2|0:0,0:0:0:0:
356,232,184440,6,0,P|411:228|461:347,1,191.999994140625,2|2,1:2|1:2,0:0:0:0:
336,384,184940,1,10,0:0:0:0:
336,384,185107,1,0,0:0:0:0:
225,263,185274,2,0,P|230:208|240:145,1,95.9999970703126,2|0,1:2|1:0,0:0:0:0:
56,244,185607,2,0,P|51:299|41:362,1,95.9999970703126,10|0,0:0|0:0,0:0:0:0:
288,88,185940,5,2,1:2:0:0:
120,152,186107,1,0,0:0:0:0:
304,240,186274,2,0,P|359:245|422:255,1,95.9999970703126,12|2,0:0|0:0,0:0:0:0:
416,144,186607,5,2,1:2:0:0:
232,316,186774,1,0,1:0:0:0:
120,152,186940,2,0,P|125:97|135:34,1,95.9999970703126,12|0,0:0|1:0,0:0:0:0:
52,252,187274,5,2,0:0:0:0:
36,340,187440,1,2,1:2:0:0:
136,264,187607,1,10,0:0:0:0:
120,352,187774,1,0,1:0:0:0:
246,370,187940,5,2,0:0:0:0:
127,172,188107,1,8,0:0:0:0:
357,190,188274,1,14,0:0:0:0:
479,312,188440,5,2,0:0:0:0:
479,312,188524,1,0,0:0:0:0:
479,312,188607,2,0,P|429:308|375:306,1,95.9999970703126,0|0,1:0|0:0,0:0:0:0:
261,184,188940,2,0,P|311:188|365:190,1,95.9999970703126,10|0,0:0|0:0,0:0:0:0:
304,56,189274,1,2,1:2:0:0:
176,120,189440,2,0,P|158:157|166:222,1,95.9999970703126,2|10,1:2|0:0,0:0:0:0:
224,296,189774,2,0,P|199:246|71:262,1,191.999994140625,2|2,1:2|1:2,0:0:0:0:
12,200,190274,1,10,0:0:0:0:
12,200,190440,1,0,0:0:0:0:
132,324,190607,5,2,1:2:0:0:
260,224,190774,1,2,1:2:0:0:
348,360,190940,1,8,0:0:0:0:
248,316,191107,1,10,0:0:0:0:
248,316,191190,1,0,0:0:0:0:
248,316,191274,5,6,1:2:0:0:
392,244,191440,1,0,0:0:0:0:
192,172,191607,1,10,0:0:0:0:
392,244,191774,1,0,0:0:0:0:
300,110,191940,2,0,P|324:58|447:71,1,191.999994140625,2|10,1:2|0:0,0:0:0:0:
396,156,192440,1,2,1:2:0:0:
252,28,192607,5,2,0:0:0:0:
192,172,192774,1,10,0:0:0:0:
192,172,192857,1,8,0:0:0:0:
192,172,192940,1,2,1:2:0:0:
63,112,193107,1,10,0:0:0:0:
63,112,193190,1,8,0:0:0:0:
63,112,193273,1,8,1:2:0:0:
300,110,193440,5,10,0:0:0:0:
316,141,193523,1,10,0:0:0:0:
319,177,193606,1,10,0:0:0:0:
309,211,193690,1,10,0:0:0:0:
287,239,193774,2,0,L|227:244,1,47.9999985351563,10|10,0:0|0:0,0:0:0:0:
80,324,193940,6,0,P|166:297|224:367,1,191.999994140625,4|10,1:2|0:0,0:0:0:0:
336,312,194440,1,2,0:0:0:0:
336,312,194524,1,0,0:0:0:0:
336,312,194607,1,2,1:2:0:0:
243,167,194774,1,2,1:2:0:0:
416,208,194940,1,8,0:0:0:0:
364,64,195107,6,0,P|275:56|158:42,1,191.999994140625,2|2,1:2|1:2,0:0:0:0:
16,111,195607,1,10,0:0:0:0:
16,111,195774,1,0,0:0:0:0:
72,184,195940,2,0,P|69:233|51:284,1,95.9999970703126,2|0,1:2|1:0,0:0:0:0:
144,372,196274,2,0,P|147:323|165:272,1,95.9999970703126,10|0,0:0|0:0,0:0:0:0:
320,184,196607,6,0,P|326:243|294:374,1,191.999994140625,2|12,1:2|0:0,0:0:0:0:
224,328,197107,1,2,0:0:0:0:
408,280,197274,1,2,1:2:0:0:
408,280,197440,1,0,1:0:0:0:
242,209,197607,1,12,0:0:0:0:
242,209,197774,1,0,1:0:0:0:
372,120,197940,5,2,0:0:0:0:
296,280,198107,1,2,1:2:0:0:
284,128,198274,1,10,0:0:0:0:
388,276,198440,1,0,1:0:0:0:
242,209,198607,5,2,0:0:0:0:
242,209,198774,1,8,0:0:0:0:
436,180,198940,1,14,0:0:0:0:
324,48,199107,1,2,0:0:0:0:
324,48,199190,1,0,0:0:0:0:
324,48,199274,6,0,P|233:44|196:126,1,191.999994140625,0|10,1:0|0:0,0:0:0:0:
92,80,199774,1,0,0:0:0:0:
40,188,199940,1,2,1:2:0:0:
40,188,200107,2,0,P|30:243|21:297,1,95.9999970703126,2|10,1:2|0:0,0:0:0:0:
252,315,200440,2,0,P|281:215|282:114,1,191.999994140625,2|2,1:2|1:2,0:0:0:0:
223,34,200940,1,10,0:0:0:0:
223,34,201107,1,0,0:0:0:0:
384,88,201274,5,2,1:2:0:0:
192,132,201440,2,0,P|137:122|83:113,1,95.9999970703126,2|8,1:2|0:0,0:0:0:0:
223,34,201774,1,10,0:0:0:0:
392,212,201940,5,14,0:0:0:0:
392,212,202107,1,0,1:0:0:0:
192,132,202274,1,12,0:0:0:0:
192,132,202440,1,0,1:0:0:0:
384,88,202607,5,12,0:0:0:0:
384,88,202774,1,0,1:0:0:0:
212,232,202940,1,12,0:0:0:0:
212,232,203107,1,0,1:0:0:0:
444,224,203274,5,14,0:0:0:0:
313,323,203440,1,0,1:0:0:0:
326,211,203607,1,14,0:0:0:0:
425,340,203774,1,2,1:2:0:0:
284,114,203940,5,14,1:2:0:0:
260,112,204024,1,0,0:0:0:0:
236,114,204107,1,10,1:2:0:0:
213,121,204190,1,0,0:0:0:0:
192,132,204274,2,0,L|185:190,3,47.9999985351563,14|0|10|0,1:2|0:0|1:2|0:0,0:0:0:0:
288,28,204607,6,0,P|342:38|359:166,1,191.999994140625,6|10,1:2|0:0,0:0:0:0:
237,250,205107,1,2,0:0:0:0:
237,250,205190,1,0,0:0:0:0:
237,250,205274,1,2,1:2:0:0:
373,273,205440,1,2,1:2:0:0:
284,114,205607,1,8,0:0:0:0:
121,284,205774,2,0,P|138:205|158:92,1,191.999994140625,2|2,1:2|1:2,0:0:0:0:
288,28,206274,6,0,P|337:40|411:41,1,95.9999970703126,10|0,0:0|0:0,0:0:0:0:
157,95,206607,2,0,P|106:86|37:59,1,95.9999970703126,2|0,1:2|1:0,0:0:0:0:
284,180,206940,2,0,P|271:246|274:344,1,143.999995605469,10|0,0:0|0:0,0:0:0:0:
274,354,207274,6,0,P|325:372|404:269,1,191.999994140625,2|12,1:2|0:0,0:0:0:0:
456,152,207774,1,2,0:0:0:0:
329,291,207940,1,2,1:2:0:0:
329,291,208107,1,0,1:0:0:0:
504,380,208274,2,0,P|509:326|514:273,1,95.9999970703126,12|0,0:0|1:0,0:0:0:0:
456,152,208607,5,2,0:0:0:0:
284,180,208774,1,2,1:2:0:0:
456,152,208940,1,10,0:0:0:0:
284,180,209107,1,0,1:0:0:0:
345,58,209274,5,2,0:0:0:0:
369,214,209440,1,8,0:0:0:0:
213,238,209607,1,14,0:0:0:0:
189,82,209774,1,2,0:0:0:0:
189,82,209857,1,0,0:0:0:0:
189,82,209940,6,0,B|138:66|138:66|5:106,1,191.999994140625,2|10,1:2|0:0,0:0:0:0:
5,105,210440,1,0,0:0:0:0:
88,204,210607,1,2,1:2:0:0:
88,204,210774,2,0,P|97:256|102:309,1,95.9999970703126,2|10,1:2|0:0,0:0:0:0:
220,329,211107,6,0,P|300:313|413:295,1,191.999994140625,2|2,1:2|1:2,0:0:0:0:
488,172,211607,1,10,0:0:0:0:
502,276,211774,1,0,0:0:0:0:
384,196,211940,1,2,1:2:0:0:
384,196,212107,2,0,P|337:191|279:225,1,95.9999970703126,2|8,1:2|0:0,0:0:0:0:
248,132,212440,1,10,0:0:0:0:
16,236,212607,6,0,P|74:249|197:187,1,191.999994140625,6|10,1:2|0:0,0:0:0:0:
292,256,213107,1,0,0:0:0:0:
384,196,213274,1,2,1:2:0:0:
384,196,213440,1,2,1:2:0:0:
436,336,213607,1,10,0:0:0:0:
436,336,213774,1,2,1:2:0:0:
476,232,213940,5,2,0:0:0:0:
316,304,214107,1,10,0:0:0:0:
316,304,214190,1,8,0:0:0:0:
316,304,214274,1,2,1:2:0:0:
283,179,214440,1,10,0:0:0:0:
283,179,214523,1,8,0:0:0:0:
283,179,214607,1,8,1:2:0:0:
443,107,214774,5,10,0:0:0:0:
451,79,214857,1,10,0:0:0:0:
446,51,214940,1,10,0:0:0:0:
428,30,215024,1,10,0:0:0:0:
401,20,215107,2,0,L|344:14,1,47.9999985351563,10|10,0:0|0:0,0:0:0:0:
261,101,215274,6,0,P|186:110|115:80,1,143.999995605469,4|8,1:2|0:0,0:0:0:0:
123,86,215940,2,0,P|116:157|106:242,1,143.999995605469,2|8,0:0|0:0,0:0:0:0:
177,361,216607,2,0,P|207:306|183:223,1,143.999995605469,2|8,1:2|0:0,0:0:0:0:
25,213,217274,2,0,P|-5:268|19:351,1,143.999995605469,2|8,0:0|0:0,0:0:0:0:
228,312,217940,2,0,P|281:318|402:325,2,143.999995605469,2|8|2,1:2|0:0|0:0,0:0:0:0:
117,256,218940,1,10,0:0:0:0:
300,110,219274,6,0,P|299:151|286:194,1,71.9999978027344,2|0,1:2|0:0,0:0:0:0:
133,113,219607,2,0,P|134:72|147:29,1,71.9999978027344,10|0,0:0|0:0,0:0:0:0:
284,28,219940,6,0,P|325:29|361:52,1,71.9999978027344,2|0,1:2|0:0,0:0:0:0:
152,196,220274,2,0,P|111:195|75:172,1,71.9999978027344,10|0,0:0|0:0,0:0:0:0:
371,324,220607,6,0,P|419:314|435:199,1,160,6|8,1:2|0:0,0:0:0:0:
512,124,221107,1,0,0:0:0:0:
376,244,221274,1,0,1:0:0:0:
376,244,221440,1,0,1:0:0:0:
269,106,221607,2,0,P|278:54|290:-1,1,80,8|0,0:0|1:0,0:0:0:0:
84,180,221940,6,0,P|68:266|48:358,1,160,2|8,0:0|0:0,0:0:0:0:
148,384,222440,1,8,0:0:0:0:
232,300,222607,1,8,0:0:0:0:
232,300,222774,1,8,0:0:0:0:
198,192,222940,1,8,0:0:0:0:
198,192,223107,1,8,0:3:0:0:
373,240,223274,6,0,P|421:231|470:229,1,95.9999970703126,6|0,1:2|1:0,0:0:0:0:
269,106,223607,2,0,P|221:115|172:117,1,95.9999970703126,8|0,0:0|1:0,0:0:0:0:
368,20,223940,5,10,0:0:0:0:
208,36,224107,1,2,1:2:0:0:
368,144,224274,5,8,0:0:0:0:
228,35,224440,1,2,1:2:0:0:
457,133,224607,6,0,P|466:181|468:230,1,95.9999970703126,12|0,0:0|1:0,0:0:0:0:
312,360,224940,2,0,P|309:312|300:264,1,95.9999970703126,8|0,0:0|1:0,0:0:0:0:
74,205,225274,5,10,0:0:0:0:
221,313,225440,1,2,1:2:0:0:
203,186,225607,5,8,0:0:0:0:
95,333,225773,1,2,1:2:0:0:
364,300,225940,6,0,P|370:242|326:192,1,95.9999970703126,12|0,0:0|1:0,0:0:0:0:
124,152,226274,2,0,P|117:209|161:259,1,95.9999970703126,8|0,0:0|1:0,0:0:0:0:
352,210,226607,5,10,0:0:0:0:
398,4,226774,1,2,1:2:0:0:
486,122,226940,5,8,0:0:0:0:
281,75,227107,1,2,1:2:0:0:
445,218,227274,6,0,B|395:224|395:224|349:209,1,95.9999970703126,12|2,0:0|1:2,0:0:0:0:
187,75,227607,2,0,B|237:64|237:64|284:75,1,95.9999970703126,8|0,0:0|1:0,0:0:0:0:
204,200,227940,5,10,0:0:0:0:
300,264,228107,1,2,1:2:0:0:
308,148,228274,1,8,0:0:0:0:
176,336,228440,1,10,0:0:0:0:
176,336,228524,1,8,0:0:0:0:
176,336,228607,6,0,P|126:334|71:330,1,95.9999970703126,0|14,1:0|0:0,0:0:0:0:
0,184,228940,2,0,P|50:186|105:190,1,95.9999970703126,0|8,1:0|0:0,0:0:0:0:
204,200,229274,5,2,1:2:0:0:
112,116,229441,1,10,0:0:0:0:
223,57,229607,1,6,1:2:0:0:
223,57,229774,1,10,0:0:0:0:
299,149,229940,5,2,1:2:0:0:
204,200,230107,1,10,0:0:0:0:
300,260,230274,1,4,1:2:0:0:
300,260,230440,1,8,0:0:0:0:
412,208,230607,5,2,1:2:0:0:
397,337,230774,1,10,0:0:0:0:
300,260,230940,1,6,1:2:0:0:
300,260,231107,1,10,0:0:0:0:
501,192,231274,5,0,1:0:0:0:
299,149,231440,1,8,0:0:0:0:
452,104,231607,5,0,1:0:0:0:
300,260,231773,1,8,0:0:0:0:
223,57,231940,5,0,1:0:0:0:
223,57,232107,1,8,0:0:0:0:
412,208,232274,5,2,1:2:0:0:
412,208,232440,1,8,0:0:0:0:
176,336,232607,5,6,0:0:0:0:
461,229,233940,5,6,0:0:0:0:
461,229,234106,1,2,0:0:0:0:
317,203,234273,1,10,0:0:0:0:
317,203,234439,1,2,0:0:0:0:
372,338,234607,6,0,P|453:349|493:354,1,88.000002685547,2|2,1:2|1:2,0:0:0:0:
317,203,234939,1,10,0:0:0:0:
199,316,235107,2,0,P|117:322|70:211,2,176.000005371094,2|2|2,1:2|1:2|0:0,0:0:0:0:
275,384,235939,1,0,1:0:0:0:
275,384,236106,1,2,1:2:0:0:
157,237,236273,2,0,P|168:155|173:115,1,88.000002685547,10|2,0:0|0:0,0:0:0:0:
338,63,236606,5,2,1:2:0:0:
338,63,236940,5,10,0:0:0:0:
168,149,237107,1,0,0:0:0:0:
64,28,237274,1,2,1:2:0:0:
182,41,237440,1,2,1:2:0:0:
53,137,237607,1,8,0:0:0:0:
248,100,237774,2,0,P|319:106|439:118,2,176.000005371094,2|2|2,1:2|1:2|0:0,0:0:0:0:
236,204,238607,5,2,1:2:0:0:
410,229,238774,1,2,1:2:0:0:
236,204,238940,1,10,0:0:0:0:
410,229,239107,1,10,0:0:0:0:
300,311,239274,5,6,1:2:0:0:
216,336,239440,1,2,0:0:0:0:
127,331,239607,1,10,0:0:0:0:
58,275,239774,1,2,0:0:0:0:
20,195,239940,6,0,P|25:130|39:82,1,88.000002685547,2|2,1:2|1:2,0:0:0:0:
144,32,240274,1,10,0:0:0:0:
277,123,240440,2,0,P|358:129|405:18,2,176.000005371094,2|2|2,1:2|1:2|0:0,0:0:0:0:
199,169,241274,1,0,1:0:0:0:
199,169,241440,1,2,1:2:0:0:
324,56,241607,1,10,0:0:0:0:
324,56,241774,1,2,0:0:0:0:
396,200,241940,5,6,1:2:0:0:
277,123,242107,1,0,0:0:0:0:
320,336,242274,5,6,1:2:0:0:
397,217,242441,1,0,0:0:0:0:
184,260,242607,5,6,1:2:0:0:
303,337,242774,1,0,0:0:0:0:
260,124,242940,5,6,1:2:0:0:
183,243,243107,1,0,0:0:0:0:
353,213,243274,5,2,1:2:0:0:
375,215,243357,1,0,1:0:0:0:
397,217,243440,1,0,1:0:0:0:
419,221,243524,1,0,1:0:0:0:
441,223,243607,2,0,L|446:280,3,44.0000013427735,2|0|0|0,1:2|1:0|1:0|1:2,0:0:0:0:
369,105,243940,5,10,1:2:0:0:
328,82,244023,1,8,1:2:0:0:
286,73,244106,1,8,1:2:0:0:
242,80,244190,1,8,1:2:0:0:
204,101,244273,1,10,1:2:0:0:
175,134,244356,1,8,1:2:0:0:
151,171,244440,2,0,P|97:182|26:147,1,132.00000402832,8|0,1:2|0:0,0:0:0:0:
17,126,244774,5,10,1:2:0:0:
192,41,244940,1,10,1:2:0:0:
192,41,245274,5,10,1:2:0:0:
287,220,245440,1,10,1:2:0:0:
287,220,245774,5,2,1:2:0:0:
112,307,245940,6,0,L|96:357,3,47.9999985351563,2|0|2|0,1:2|0:0|0:0|0:0,0:0:0:0:
146,160,246274,2,0,L|161:109,1,47.9999985351563,2|0,1:2|0:0,0:0:0:0:
52,212,246440,2,0,L|2:197,3,47.9999985351563,2|0|2|0,1:2|0:0|0:0|0:0,0:0:0:0:
202,252,246774,2,0,L|252:266,3,47.9999985351563,2|0|2|0,1:2|0:0|1:2|0:0,0:0:0:0:
128,232,247107,5,6,1:2:0:0:
256,192,247274,12,0,248274,0:0:0:0:
