osu file format v14

[General]
AudioFilename: audio.mp3
AudioLeadIn: 0
PreviewTime: 51477
Countdown: 0
SampleSet: Soft
StackLeniency: 0.3
Mode: 0
LetterboxInBreaks: 0
EpilepsyWarning: 1
WidescreenStoryboard: 1

[Editor]
DistanceSpacing: 1.3
BeatDivisor: 4
GridSize: 16
TimelineZoom: 2.4

[Metadata]
Title:Pinky Jones (TV Size)
TitleUnicode:ピンキージョ-ンズ (TV Size)
Artist:MOMOIRO CLOVER
ArtistUnicode:ももいろクローバー
Creator:itay
Version:muya-'s Hard
Source:ヨスガノソラ
Tags:ilay muya- dayno yosuga no sora pop jpop j-pop japanese visual novel sora kasugano sky of connection haruka na ハルカナソラ eroge ed ending anime momoiro clover z
BeatmapID:3368205
BeatmapSetID:1580203

[Difficulty]
HPDrainRate:3.5
CircleSize:3.6
OverallDifficulty:6.5
ApproachRate:8
SliderMultiplier:1.4
SliderTickRate:1

[Events]
//Background and Video events
0,0,"sora (3).jpg",0,0
//Break Periods
//Storyboard Layer 0 (Background)
//Storyboard Layer 1 (Fail)
//Storyboard Layer 2 (Pass)
//Storyboard Layer 3 (Foreground)
//Storyboard Layer 4 (Overlay)
//Storyboard Sound Samples

[TimingPoints]
146,333.333333333333,4,2,1,70,1,0
2812,-100,4,2,1,50,0,0
3979,-100,4,2,1,70,0,0
4811,333.333333333333,4,2,1,80,1,0
4811,-95.2380952380952,4,2,1,80,0,0
15144,-95.2380952380952,4,2,5,80,0,0
15310,-95.2380952380952,4,2,6,80,0,0
15477,-111.111111111111,4,2,1,60,0,0
25852,-111.111111111111,4,2,1,60,0,0
26144,-100,4,2,1,75,0,0
36810,-111.111111111111,4,2,1,60,0,0
41560,-111.111111111111,4,2,5,60,0,0
41644,-111.111111111111,4,2,6,60,0,0
41810,-111.111111111111,4,2,1,60,0,0
42144,-100,4,2,1,75,0,0
50144,-100,4,2,1,80,0,0
51477,-100,4,2,1,50,0,0
52810,-90.9090909090909,4,2,1,90,0,1
53060,-90.9090909090909,4,2,1,5,0,1
53144,-90.9090909090909,4,2,1,90,0,1
63144,-90.9090909090909,4,2,1,90,0,0
63477,-90.9090909090909,4,2,1,90,0,1
63727,-90.9090909090909,4,2,1,5,0,1
63810,-90.9090909090909,4,2,1,90,0,1
71310,-90.9090909090909,4,2,1,90,0,0
71477,-90.9090909090909,4,2,1,90,0,1
72810,-90.9090909090909,4,2,1,50,0,0
74144,-95.2380952380952,4,2,1,80,0,0
82310,-95.2380952380952,4,2,1,85,0,0
84477,-95.2380952380952,4,2,6,85,0,0
84644,-142.857142857143,4,2,1,85,0,0
85810,-142.857142857143,4,2,1,15,0,0

[Colours]
Combo1 : 143,214,133
Combo2 : 166,163,179
Combo3 : 214,173,171
Combo4 : 100,132,146

[HitObjects]
74,130,146,5,6,1:2:0:0:
74,130,312,1,2,0:0:0:0:
161,154,479,2,0,P|175:186|166:238,1,70,6|2,1:2|0:0,0:0:0:0:
111,287,812,1,6,1:2:0:0:
111,287,979,1,2,0:0:0:0:
199,306,1145,2,0,L|284:317,1,70,6|2,1:2|0:0,0:0:0:0:
391,355,1479,6,0,P|406:342|419:325,3,35,2|0|0|0,1:2|1:2|1:2|1:2,0:0:0:0:
445,295,1812,2,0,P|441:275|433:255,3,35,2|0|0|0,1:2|1:2|1:2|1:2,0:0:0:0:
387,236,2145,2,0,P|378:223|368:196,3,35,10|8|8|8,0:0|0:0|0:0|0:0,0:0:0:0:
331,171,2479,2,0,P|337:156|356:134,3,35,10|8|8|8,0:0|0:0|0:0|0:0,0:0:0:0:
352,92,2812,5,2,0:0:0:0:
159,35,3979,5,2,0:0:0:0:
159,35,4062,1,0,1:2:0:0:
159,35,4145,2,0,P|170:77|176:119,1,70,10|0,0:0|1:2,0:0:0:0:
252,150,4479,2,0,P|240:192|235:234,1,70,8|2,0:0|0:0,0:0:0:0:
289,324,4811,6,0,P|324:319|353:282,2,73.4999977569581,6|2|10,1:2|0:0|0:0,0:0:0:0:
205,290,5310,1,2,0:0:0:0:
205,290,5477,2,0,B|121:262|136:336|39:299,1,146.999995513916,2|10,1:2|0:0,0:0:0:0:
4,231,5977,2,0,P|2:183|39:147,1,73.4999977569581,2|0,1:2|0:0,0:0:0:0:
16,67,6310,2,0,P|56:41|106:55,1,73.4999977569581,2|8,1:2|0:0,0:0:0:0:
169,79,6644,2,0,B|237:90|237:90|250:103|250:103|329:119,1,146.999995513916,2|2,0:0|1:2,0:0:0:0:
402,131,7144,1,10,0:0:0:0:
402,131,7310,1,2,0:0:0:0:
316,202,7477,6,0,P|287:241|290:288,1,73.4999977569581,2|0,1:2|0:0,0:0:0:0:
321,353,7810,2,0,P|360:358|415:368,1,73.4999977569581,10|2,0:0|0:0,0:0:0:0:
493,359,8144,1,2,1:2:0:0:
493,359,8310,2,0,P|499:315|510:275,1,73.4999977569581,2|8,1:2|0:0,0:0:0:0:
456,186,8644,2,0,B|378:157|384:227|305:198,1,146.999995513916,2|2,1:2|1:2,0:0:0:0:
224,172,9144,2,0,P|235:131|245:89,1,73.4999977569581,8|2,0:0|0:0,0:0:0:0:
147,44,9477,1,2,1:2:0:0:
147,44,9644,1,2,1:2:0:0:
40,61,9810,2,0,P|51:101|61:144,1,73.4999977569581,10|10,0:0|0:0,0:0:0:0:
54,183,10060,1,2,0:0:0:0:
54,183,10144,6,0,P|25:223|-3:230,2,73.4999977569581,6|2|10,1:2|0:0|0:0,0:0:0:0:
149,158,10644,1,2,0:0:0:0:
149,158,10810,2,0,P|132:219|124:325,1,146.999995513916,2|10,1:2|0:0,0:0:0:0:
191,369,11310,2,0,P|234:365|258:343,1,73.4999977569581,2|0,1:2|0:0,0:0:0:0:
352,343,11644,2,0,P|370:303|362:271,1,73.4999977569581,2|8,1:2|0:0,0:0:0:0:
300,203,11977,2,0,P|281:144|352:76,1,146.999995513916,2|2,0:0|1:2,0:0:0:0:
411,29,12477,1,10,0:0:0:0:
411,29,12644,1,2,0:0:0:0:
504,94,12810,6,0,P|494:138|490:191,1,73.4999977569581,2|0,1:2|0:0,0:0:0:0:
466,259,13144,2,0,P|475:303|480:356,1,73.4999977569581,10|2,0:0|0:0,0:0:0:0:
398,382,13477,1,2,1:2:0:0:
398,382,13644,2,0,P|351:381|327:357,1,73.4999977569581,2|8,1:2|0:0,0:0:0:0:
269,269,13977,2,0,B|237:229|237:229|125:253,1,146.999995513916,2|2,1:2|1:2,0:0:0:0:
54,277,14477,1,8,0:0:0:0:
54,277,14644,2,0,B|31:207|95:205|70:121,1,146.999995513916,2|8,0:0|0:0,0:0:0:0:
54,97,15060,1,8,0:0:0:0:
54,97,15144,2,0,P|36:92|13:89,2,36.749998878479,0|0|0,3:2|3:2|3:2,0:0:0:0:
158,39,15477,6,0,P|219:47|237:109,1,125.999996154785,6|8,1:2|0:0,0:0:0:0:
347,232,16144,1,2,1:2:0:0:
347,232,16310,2,0,P|352:196|367:154,1,62.9999980773926,2|8,1:2|0:0,0:0:0:0:
416,111,16644,1,2,1:2:0:0:
416,111,16810,2,0,P|482:123|491:196,2,125.999996154785,2|10|2,0:0|0:0|1:2,0:0:0:0:
359,170,17644,1,0,1:0:0:0:
359,170,17810,2,0,P|350:200|346:232,1,62.9999980773926,10|2,0:0|0:0,0:0:0:0:
312,309,18144,6,0,B|243:301|253:347|180:336,1,125.999996154785,2|10,1:2|0:0,0:0:0:0:
47,260,18810,2,0,P|35:219|15:189,2,62.9999980773926,2|2|10,1:2|1:2|0:0,0:0:0:0:
122,292,19310,2,0,P|129:246|158:150,1,125.999996154785,2|2,1:2|1:2,0:0:0:0:
196,103,19810,1,10,0:0:0:0:
196,103,19977,1,2,0:0:0:0:
146,37,20144,2,0,P|114:19|77:23,1,62.9999980773926,2|0,1:2|1:0,0:0:0:0:
18,62,20477,1,10,0:0:0:0:
196,103,20810,6,0,B|250:108|250:108|260:120|260:120|327:128,1,125.999996154785,6|10,1:2|0:0,0:0:0:0:
393,95,21310,1,2,0:0:0:0:
393,95,21477,2,0,P|415:62|413:26,2,62.9999980773926,2|2|10,1:2|1:2|0:0,0:0:0:0:
315,126,21977,2,0,P|278:178|306:248,1,125.999996154785,2|2,1:2|1:2,0:0:0:0:
362,286,22477,1,10,0:0:0:0:
362,286,22644,1,2,0:0:0:0:
440,264,22810,2,0,P|446:237|464:190,1,62.9999980773926,2|0,1:2|1:0,0:0:0:0:
499,132,23144,1,10,0:0:0:0:
345,188,23477,6,0,B|275:174|290:228|210:214,1,125.999996154785,2|10,1:2|0:0,0:0:0:0:
141,209,23977,1,2,0:0:0:0:
141,209,24144,2,0,P|192:239|168:313,1,125.999996154785,2|10,1:2|0:0,0:0:0:0:
108,360,24644,1,2,1:2:0:0:
108,360,24810,6,0,P|97:315|83:284,1,62.9999980773926,2|0,0:0|1:2,0:0:0:0:
18,256,25144,2,0,P|29:211|43:180,1,62.9999980773926,10|0,0:0|1:2,0:0:0:0:
86,127,25477,2,0,P|75:82|61:51,1,62.9999980773926,2|0,1:2|1:2,0:0:0:0:
148,2,25810,1,10,0:0:0:0:
148,2,25894,1,8,0:0:0:0:
148,2,25977,1,8,0:0:0:0:
239,73,26144,5,6,1:2:0:0:
239,73,26310,1,2,0:0:0:0:
313,20,26477,2,0,P|360:11|403:84,1,140,10|2,0:0|1:2,0:0:0:0:
438,169,26977,1,2,1:2:0:0:
438,169,27144,1,10,0:0:0:0:
351,196,27310,2,0,P|293:207|202:236,1,140,2|2,1:2|1:2,0:0:0:0:
124,226,27810,2,0,P|102:262|105:298,1,70,10|2,0:0|0:0,0:0:0:0:
174,344,28144,2,0,P|209:348|251:359,1,70,2|0,1:2|1:0,0:0:0:0:
330,382,28477,1,10,0:0:0:0:
472,269,28810,6,0,P|479:229|502:184,2,70,2|2|10,1:2|0:0|0:0,0:0:0:0:
389,230,29310,2,0,P|382:190|359:145,2,70,2|2|2,0:0|1:2|1:2,0:0:0:0:
449,133,29810,1,10,0:0:0:0:
449,133,29977,2,0,P|411:91|319:92,1,140,2|2,1:2|1:2,0:0:0:0:
257,138,30477,2,0,P|216:168|185:169,1,70,8|2,0:0|0:0,0:0:0:0:
132,233,30810,2,0,P|85:212|69:186,1,70,2|0,1:2|1:2,0:0:0:0:
43,111,31144,1,10,0:0:0:0:
197,12,31477,5,6,1:2:0:0:
197,12,31643,1,2,0:0:0:0:
269,69,31810,2,0,P|262:101|256:146,1,70,10|2,0:0|0:0,0:0:0:0:
252,229,32144,2,0,B|327:238|299:298|379:308,1,140,2|10,1:2|0:0,0:0:0:0:
454,292,32644,2,0,P|498:239|462:173,1,140,2|2,1:2|1:2,0:0:0:0:
461,89,33143,2,0,P|433:68|390:67,1,70,10|2,0:0|0:0,0:0:0:0:
317,106,33477,2,0,P|290:129|253:132,1,70,2|0,1:2|1:2,0:0:0:0:
175,90,33810,1,10,0:0:0:0:
30,201,34144,6,0,P|7:236|11:283,2,70,2|2|10,1:2|0:0|0:0,0:0:0:0:
109,245,34644,2,0,P|132:280|128:327,2,70,2|2|2,0:0|1:2|1:2,0:0:0:0:
169,176,35144,1,10,0:0:0:0:
248,248,35310,2,0,B|319:226|314:284|383:267,1,140,2|2,1:1|1:2,0:0:0:0:
457,215,35810,1,10,0:0:0:0:
457,215,35977,1,2,0:0:0:0:
383,160,36144,2,0,P|368:123|379:81,1,70,2|2,1:2|1:2,0:0:0:0:
433,26,36477,1,10,0:0:0:0:
292,110,36810,6,0,P|259:128|224:128,1,62.9999980773926,6|2,1:2|0:0,0:0:0:0:
168,179,37144,2,0,P|135:159|118:129,1,62.9999980773926,10|2,0:0|0:0,0:0:0:0:
44,111,37477,2,0,P|44:73|62:43,1,62.9999980773926,2|2,1:2|1:2,0:0:0:0:
125,5,37810,1,10,0:0:0:0:
125,5,37977,1,2,1:2:0:0:
203,61,38144,6,0,P|188:120|177:190,2,125.999996154785,2|10|2,0:0|0:0|1:2,0:0:0:0:
281,29,38977,1,0,1:0:0:0:
281,29,39144,1,10,0:0:0:0:
439,70,39477,6,0,P|466:112|461:139,1,62.9999980773926,2|2,1:2|0:0,0:0:0:0:
445,160,39727,1,2,0:0:0:0:
445,160,39810,2,0,P|424:198|425:231,1,62.9999980773926,10|2,0:0|0:0,0:0:0:0:
464,293,40144,1,2,1:2:0:0:
464,293,40310,1,2,1:2:0:0:
386,320,40477,2,0,L|315:339,1,62.9999980773926,10|2,0:0|1:2,0:0:0:0:
218,297,40810,5,10,0:0:0:0:
218,297,40977,1,2,1:2:0:0:
267,222,41144,2,0,P|282:180|273:140,1,62.9999980773926,10|2,0:0|1:2,0:0:0:0:
218,105,41477,2,0,P|210:89|204:67,3,31.4999990386963,10|0|2|0,0:0|3:2|3:2|3:2,0:0:0:0:
221,29,41810,1,14,0:0:0:0:
49,69,42144,5,12,0:0:0:0:
49,69,42227,1,8,0:0:0:0:
49,69,42310,1,10,0:0:0:0:
118,127,42477,2,0,P|130:167|121:206,1,70,10|2,0:0|1:2,0:0:0:0:
66,263,42810,1,2,1:2:0:0:
66,263,42977,1,10,0:0:0:0:
191,376,43310,6,0,B|252:371|252:371|262:379|262:379|336:373,1,140,14|2,0:2|1:2,0:0:0:0:
398,315,43810,2,0,P|391:276|369:250,1,70,10|0,0:0|1:0,0:0:0:0:
282,237,44144,2,0,P|253:208|247:172,1,70,10|0,0:0|1:0,0:0:0:0:
224,92,44477,1,10,0:0:0:0:
374,6,44810,5,14,0:0:0:0:
374,6,44894,1,8,0:0:0:0:
374,6,44977,1,10,0:0:0:0:
444,63,45144,2,0,P|454:106|461:143,1,70,10|0,0:0|1:0,0:0:0:0:
417,218,45477,1,2,1:2:0:0:
417,218,45644,2,0,P|407:261|400:298,1,70,10|2,0:0|1:2,0:0:0:0:
482,369,45977,6,0,P|474:315|394:288,1,140,14|2,0:2|1:2,0:0:0:0:
347,359,46477,1,10,0:0:0:0:
179,319,46810,1,10,0:0:0:0:
179,319,46977,1,2,1:2:0:0:
232,248,47144,2,0,P|250:220|239:154,1,70,10|0,0:0|1:0,0:0:0:0:
176,96,47477,5,12,0:0:0:0:
176,96,47560,1,8,0:0:0:0:
176,96,47644,1,10,0:0:0:0:
89,139,47810,2,0,P|100:183|106:226,1,70,10|2,0:0|1:2,0:0:0:0:
58,288,48144,1,2,1:2:0:0:
58,288,48310,1,10,0:0:0:0:
208,359,48644,6,0,B|281:333|273:398|358:371,1,140,14|2,0:2|1:2,0:0:0:0:
407,311,49144,1,10,0:0:0:0:
407,311,49310,1,2,1:2:0:0:
333,256,49477,2,0,P|307:227|301:189,1,70,10|0,0:0|1:0,0:0:0:0:
251,120,49810,1,10,0:0:0:0:
418,48,50144,6,0,P|430:63|440:83,3,35,6|2|2|2,1:2|0:0|0:0|0:0,0:0:0:0:
466,112,50477,2,0,P|459:131|446:149,3,35,2|2|2|2,1:2|0:0|0:0|0:0,0:0:0:0:
442,187,50810,2,0,P|422:190|399:188,2,35,2|2|2,1:2|0:0|0:0,0:0:0:0:
326,203,51144,2,0,B|279:190|259:236|259:236|253:278|207:286,1,140,6|2,1:2|0:0,0:0:0:0:
275,347,52810,6,0,B|215:344|226:385|159:385,1,115.50000352478,4|0,1:2|0:0,0:0:0:0:
119,373,53144,2,0,P|125:338|143:292,1,77.0000023498536,10|0,0:0|0:0,0:0:0:0:
64,240,53477,1,2,1:2:0:0:
64,240,53644,2,0,P|58:205|40:159,1,77.0000023498536,2|8,1:2|0:0,0:0:0:0:
161,202,53977,6,0,P|171:140|219:37,1,154.000004699707,2|2,1:2|1:2,0:0:0:0:
299,20,54477,2,0,P|344:32|366:74,1,77.0000023498536,10|0,0:0|0:0,0:0:0:0:
370,159,54810,1,2,1:2:0:0:
370,159,54977,1,0,1:2:0:0:
295,226,55144,2,0,P|271:271|276:316,1,77.0000023498536,10|0,0:0|0:0,0:0:0:0:
369,361,55477,6,0,P|358:308|269:296,1,154.000004699707,2|12,1:2|0:0,0:0:0:0:
185,346,55977,1,2,0:0:0:0:
185,346,56144,2,0,P|151:374|115:374,1,77.0000023498536,2|0,1:2|1:2,0:0:0:0:
32,325,56477,2,0,P|23:267|9:232,1,77.0000023498536,12|0,0:0|1:2,0:0:0:0:
24,127,56810,5,2,0:0:0:0:
24,127,56977,1,2,1:2:0:0:
112,174,57144,2,0,P|145:196|207:184,2,77.0000023498536,10|2|2,0:0|1:2|1:2,0:0:0:0:
106,73,57644,1,8,0:0:0:0:
202,48,57810,2,0,P|215:88|220:130,1,77.0000023498536,14|2,0:0|0:0,0:0:0:0:
338,90,58144,6,0,P|313:164|304:242,2,154.000004699707,6|10|2,1:2|0:0|1:2,0:0:0:0:
402,13,58977,1,2,1:2:0:0:
402,13,59144,1,8,0:0:0:0:
470,94,59310,6,0,B|384:70|389:150|302:119,1,154.000004699707,2|0,1:2|1:2,0:0:0:0:
237,75,59810,1,8,0:0:0:0:
81,201,60144,1,2,1:2:0:0:
81,201,60310,2,0,P|98:240|108:284,1,77.0000023498536,2|8,1:2|0:0,0:0:0:0:
168,357,60644,1,10,0:0:0:0:
260,295,60810,6,0,P|267:219|306:125,2,154.000004699707,6|8|2,1:2|0:0|1:2,0:0:0:0:
343,361,61644,1,2,1:2:0:0:
343,361,61810,2,0,P|378:380|440:356,1,77.0000023498536,10|2,0:0|1:2,0:0:0:0:
489,309,62144,6,0,P|476:275|457:226,1,77.0000023498536,2|10,1:2|0:0,0:0:0:0:
460,190,62394,1,8,0:0:0:0:
460,190,62477,1,2,1:2:0:0:
501,92,62644,1,10,0:0:0:0:
501,92,62727,1,8,0:0:0:0:
501,92,62810,2,0,P|509:73|513:47,2,38.5000011749268,2|2|10,1:2|1:2|0:0,0:0:0:0:
429,10,63144,1,10,0:0:0:0:
429,10,63227,1,10,0:0:0:0:
429,10,63310,1,10,0:0:0:0:
329,96,63477,6,0,B|263:82|274:135|194:114,1,115.50000352478,4|0,1:2|0:0,0:0:0:0:
175,92,63810,2,0,P|135:72|98:84,1,77.0000023498536,10|0,0:0|0:0,0:0:0:0:
33,141,64144,1,2,1:2:0:0:
33,141,64310,2,0,P|51:186|52:223,1,77.0000023498536,2|8,1:2|0:0,0:0:0:0:
170,191,64644,6,0,P|132:283|130:360,1,154.000004699707,2|0,1:2|1:2,0:0:0:0:
220,384,65144,2,0,P|255:366|274:318,1,77.0000023498536,10|0,0:0|0:0,0:0:0:0:
259,238,65477,1,2,1:2:0:0:
259,238,65644,1,0,1:2:0:0:
170,191,65810,2,0,P|147:151|165:104,1,77.0000023498536,10|0,0:0|0:0,0:0:0:0:
252,31,66144,6,0,B|314:41|314:41|332:63|332:63|407:77,1,154.000004699707,2|12,1:2|0:0,0:0:0:0:
496,69,66643,1,2,0:0:0:0:
496,69,66810,2,0,P|487:28|446:-1,1,77.0000023498536,2|0,1:2|1:2,0:0:0:0:
393,74,67143,2,0,P|401:110|407:153,1,77.0000023498536,12|0,0:0|1:2,0:0:0:0:
380,267,67476,5,2,0:0:0:0:
380,267,67643,1,2,1:2:0:0:
293,215,67810,2,0,P|259:179|221:181,2,77.0000023498536,10|2|2,0:0|1:2|1:2,0:0:0:0:
284,320,68310,1,8,0:0:0:0:
188,338,68476,2,0,P|183:302|167:259,1,77.0000023498536,14|2,0:0|0:0,0:0:0:0:
51,209,68810,6,0,P|25:276|23:368,2,154.000004699707,6|8|2,1:2|0:0|1:2,0:0:0:0:
120,137,69643,1,2,1:2:0:0:
120,137,69810,1,8,0:0:0:0:
107,38,69976,6,0,P|40:39|23:127,1,154.000004699707,2|0,1:2|1:2,0:0:0:0:
51,209,70476,1,8,0:0:0:0:
205,80,70810,1,2,1:2:0:0:
205,80,70976,2,0,P|235:57|286:58,1,77.0000023498536,2|8,1:2|0:0,0:0:0:0:
352,116,71310,1,10,0:0:0:0:
475,104,71477,6,0,L|490:21,1,77.0000023498536,12|0,0:0|1:2,0:0:0:0:
352,116,71810,2,0,L|365:191,1,77.0000023498536,12|0,0:0|1:2,0:0:0:0:
459,280,72144,2,0,L|474:197,1,77.0000023498536,12|0,0:0|1:2,0:0:0:0:
358,286,72477,2,0,L|371:361,1,77.0000023498536,12|0,0:0|1:2,0:0:0:0:
459,280,72810,5,2,0:0:0:0:
81,362,74144,6,0,P|46:357|17:320,2,73.4999977569581,6|2|10,1:2|0:0|0:0,0:0:0:0:
169,321,74643,1,2,0:0:0:0:
169,321,74810,2,0,B|175:243|116:253|113:158,1,146.999995513916,2|10,1:2|0:0,0:0:0:0:
83,97,75310,2,0,P|113:68|159:66,1,73.4999977569581,2|0,1:2|0:0,0:0:0:0:
219,4,75644,2,0,P|259:15|283:54,1,73.4999977569581,2|8,1:2|0:0,0:0:0:0:
355,96,75977,2,0,P|338:171|329:253,1,146.999995513916,2|2,0:0|1:2,0:0:0:0:
357,337,76477,1,10,0:0:0:0:
357,337,76643,1,2,0:0:0:0:
452,345,76810,6,0,P|481:306|478:259,1,73.4999977569581,2|0,1:2|0:0,0:0:0:0:
508,189,77144,2,0,P|488:144|446:123,1,73.4999977569581,10|2,0:0|0:0,0:0:0:0:
387,91,77477,1,2,1:2:0:0:
387,91,77644,2,0,P|352:104|314:111,1,73.4999977569581,2|8,1:2|0:0,0:0:0:0:
220,109,77977,2,0,P|288:154|269:226,1,146.999995513916,2|2,1:2|1:2,0:0:0:0:
251,302,78477,2,0,L|160:326,1,73.4999977569581,8|2,0:0|0:0,0:0:0:0:
89,343,78810,1,2,1:2:0:0:
89,343,78977,1,2,1:2:0:0:
9,291,79143,2,0,P|0:260|19:218,1,73.4999977569581,10|2,0:0|0:0,0:0:0:0:
53,193,79393,1,0,0:0:0:0:
53,193,79477,6,0,P|90:207|127:214,2,73.4999977569581,6|2|10,1:2|0:0|0:0,0:0:0:0:
17,109,79977,1,2,0:0:0:0:
17,109,80143,2,0,P|55:59|141:71,1,146.999995513916,2|10,1:2|0:0,0:0:0:0:
227,48,80644,2,0,P|255:77|258:125,1,73.4999977569581,2|0,1:2|0:0,0:0:0:0:
346,152,80977,2,0,P|334:190|294:217,1,73.4999977569581,2|8,1:2|0:0,0:0:0:0:
249,285,81310,2,0,B|331:269|317:342|401:327,1,146.999995513916,2|2,0:0|1:2,0:0:0:0:
462,273,81810,1,10,0:0:0:0:
462,273,81977,1,2,0:0:0:0:
270,136,82310,5,2,1:1:0:0:
270,136,82477,2,0,P|283:169|292:209,1,73.4999977569581,2|0,1:1|0:0,0:0:0:0:
408,107,82810,1,2,1:1:0:0:
408,107,82977,2,0,P|395:140|386:180,1,73.4999977569581,2|0,1:1|0:0,0:0:0:0:
374,297,83310,1,2,1:1:0:0:
374,297,83477,6,0,P|381:317|387:343,3,36.749998878479,2|2|2|2,1:1|0:0|0:0|0:0,0:0:0:0:
355,380,83810,1,2,1:1:0:0:
272,336,83977,2,0,P|254:327|229:325,3,36.749998878479,2|2|2|2,1:1|0:0|0:0|0:0,0:0:0:0:
194,346,84310,2,0,P|176:355|151:357,2,36.749998878479,2|2|2,1:1|0:0|3:2,0:0:0:0:
76,301,84644,6,0,B|20:224|40:134|125:95|184:129|192:213|126:247,1,342.999989532471,6|0,1:2|0:0,0:0:0:0:
