osu file format v14

[General]
AudioFilename: audio.mp3
AudioLeadIn: 0
PreviewTime: 51477
Countdown: 0
SampleSet: Soft
StackLeniency: 0.7
Mode: 0
LetterboxInBreaks: 0
EpilepsyWarning: 1
WidescreenStoryboard: 1

[Editor]
DistanceSpacing: 0.4
BeatDivisor: 4
GridSize: 16
TimelineZoom: 2.4

[Metadata]
Title:Pinky Jones (TV Size)
TitleUnicode:ピンキージョ-ンズ (TV Size)
Artist:MOMOIRO CLOVER
ArtistUnicode:ももいろクローバー
Creator:itay
Version:Imouto
Source:ヨスガノソラ
Tags:ilay muya- dayno yosuga no sora pop jpop j-pop japanese visual novel sora kasugano sky of connection haruka na ハルカナソラ eroge ed ending anime momoiro clover z
BeatmapID:3226632
BeatmapSetID:1580203

[Difficulty]
HPDrainRate:5
CircleSize:4
OverallDifficulty:9
ApproachRate:9.4
SliderMultiplier:2.5
SliderTickRate:1

[Events]
//Background and Video events
0,0,"sora (3).jpg",0,0
//Break Periods
//Storyboard Layer 0 (Background)
//Storyboard Layer 1 (Fail)
//Storyboard Layer 2 (Pass)
//Storyboard Layer 3 (Foreground)
//Storyboard Layer 4 (Overlay)
//Storyboard Sound Samples

[TimingPoints]
146,333.333333333333,4,2,1,70,1,0
146,-50,4,2,1,70,0,0
312,-100,4,2,1,70,0,0
479,-66.6666666666667,4,2,1,70,0,0
645,-133.333333333333,4,2,1,70,0,0
812,-100,4,2,1,70,0,0
979,-200,4,2,1,70,0,0
1145,-200,4,2,1,70,0,0
1312,-400,4,2,1,70,0,0
1479,-100,4,2,1,70,0,0
2812,-100,4,2,1,50,0,0
3979,-200,4,2,1,70,0,0
4811,333.333333333333,4,2,1,80,1,0
5810,-200,4,2,1,80,0,0
5977,-100,4,2,1,80,0,0
7810,-133.333333333333,4,2,1,80,0,0
8144,-200,4,2,1,80,0,0
8644,-100,4,2,1,80,0,0
11144,-200,4,2,1,80,0,0
11310,-100,4,2,1,80,0,0
13144,-133.333333333333,4,2,1,80,0,0
13477,-200,4,2,1,80,0,0
13977,-100,4,2,1,80,0,0
14310,-222.222222222222,4,2,1,80,0,0
14644,-400,4,2,1,80,0,0
15144,-400,4,2,5,80,0,0
15310,-400,4,2,6,80,0,0
15477,-133.333333333333,4,2,1,60,0,0
15977,-133.333333333333,4,2,1,60,0,0
16810,-200,4,2,1,60,0,0
17144,-100,4,2,1,60,0,0
17477,-400,4,2,1,60,0,0
17810,-200,4,2,1,60,0,0
18144,-100,4,2,1,60,0,0
18477,-200,4,2,1,60,0,0
19977,-100,4,2,1,60,0,0
20144,-400,4,2,1,60,0,0
20810,-100,4,2,1,60,0,0
22310,-200,4,2,1,60,0,0
24810,-111.111111111111,4,2,1,60,0,0
25810,-133.333333333333,4,2,1,60,0,0
25852,-133.333333333333,4,2,1,60,0,0
26144,-83.3333333333333,4,2,1,75,0,0
26477,-400,4,2,1,75,0,0
27310,-200,4,2,1,75,0,0
27644,-133.333333333333,4,2,1,75,0,0
28144,-83.3333333333333,4,2,1,75,0,0
28977,-133.333333333333,4,2,1,75,0,0
32644,-100,4,2,1,75,0,0
33477,-400,4,2,1,75,0,0
35310,-50,4,2,1,75,0,0
35477,-133.333333333333,4,2,1,75,0,0
36810,-133.333333333333,4,2,1,60,0,0
38144,-100,4,2,1,60,0,0
38477,-400,4,2,1,60,0,0
38810,-200,4,2,1,60,0,0
39144,-133.333333333333,4,2,1,60,0,0
39477,-100,4,2,1,60,0,0
40810,-100,4,2,1,60,0,0
41310,-100,4,2,1,60,0,0
41560,-100,4,2,5,60,0,0
41644,-100,4,2,6,60,0,0
41810,-133.333333333333,4,2,1,60,0,0
42144,-133.333333333333,4,2,1,75,0,0
43810,-400,4,2,1,75,0,0
44477,-133.333333333333,4,2,1,75,0,0
49144,-100,4,2,1,75,0,0
49477,-133.333333333333,4,2,1,75,0,0
50144,-133.333333333333,4,2,1,80,0,0
51477,-133.333333333333,4,2,1,50,0,0
52810,-100,4,2,1,90,0,1
53477,-133.333333333333,4,2,1,90,0,1
53810,-100,4,2,1,90,0,1
54810,-133.333333333333,4,2,1,90,0,1
55144,-100,4,2,1,90,0,1
56810,-83.3333333333333,4,2,1,90,0,1
57144,-400,4,2,1,90,0,1
57477,-133.333333333333,4,2,1,90,0,1
58144,-83.3333333333333,4,2,1,90,0,1
58477,-400,4,2,1,90,0,1
59144,-133.333333333333,4,2,1,90,0,1
60477,-100,4,2,1,90,0,1
60810,-83.3333333333333,4,2,1,90,0,1
61144,-400,4,2,1,90,0,1
61477,-133.333333333333,4,2,1,90,0,1
62144,-100,4,2,1,90,0,0
63477,-100,4,2,1,90,0,1
64144,-133.333333333333,4,2,1,90,0,1
64477,-100,4,2,1,90,0,1
65477,-133.333333333333,4,2,1,90,0,1
65810,-100,4,2,1,90,0,1
67477,-83.3333333333333,4,2,1,90,0,1
67810,-400,4,2,1,90,0,1
68144,-133.333333333333,4,2,1,90,0,1
68810,-83.3333333333333,4,2,1,90,0,1
69144,-400,4,2,1,90,0,1
69810,-133.333333333333,4,2,1,90,0,1
69977,-83.3333333333333,4,2,1,90,0,1
70477,-400,4,2,1,90,0,1
71144,-133.333333333333,4,2,1,90,0,1
71477,-100,4,2,1,90,0,1
72644,-400,4,2,1,90,0,0
72727,-400,4,2,1,5,0,0
72810,-400,4,2,1,50,0,0
74144,-100,4,2,1,80,0,0
75144,-200,4,2,1,80,0,0
75310,-100,4,2,1,80,0,0
77144,-133.333333333333,4,2,1,80,0,0
77477,-200,4,2,1,80,0,0
77977,-100,4,2,1,80,0,0
80477,-200,4,2,1,80,0,0
80644,-100,4,2,1,80,0,0
81810,-200,4,2,1,80,0,0
82310,-100,4,2,1,85,0,0
84477,-100,4,2,6,85,0,0
84644,-100,4,2,1,85,0,0
85810,-100,4,2,1,15,0,0

[Colours]
Combo1 : 143,214,133
Combo2 : 166,163,179
Combo3 : 214,173,171
Combo4 : 100,132,146

[HitObjects]
488,188,146,6,0,P|479:149|377:115,1,125,6|0,1:2|0:0,0:0:0:0:
404,87,312,2,0,P|368:94|339:126,1,62.5,2|0,0:0|0:0,0:0:0:0:
193,260,479,6,0,P|209:223|283:207,1,93.7500035762788,6|0,1:2|0:0,0:0:0:0:
276,193,645,2,0,P|295:213|277:263,1,46.8750017881394,2|0,0:0|0:0,0:0:0:0:
162,379,812,6,0,L|266:351,1,62.5,6|0,1:2|0:0,0:0:0:0:
234,352,979,2,0,L|190:366,1,31.25,2|0,0:0|0:0,0:0:0:0:
72,353,1145,6,0,L|83:314,1,31.25,6|0,1:2|0:0,0:0:0:0:
87,316,1312,2,0,L|81:330,1,15.625,2|0,0:0|0:0,0:0:0:0:
8,298,1479,5,2,1:2:0:0:
16,261,1562,1,0,1:2:0:0:
43,236,1645,1,0,1:2:0:0:
82,232,1729,1,0,1:2:0:0:
123,167,1812,5,2,1:2:0:0:
141,175,1895,1,0,1:2:0:0:
152,191,1979,1,0,1:2:0:0:
155,210,2062,1,0,1:2:0:0:
210,270,2145,5,10,0:0:0:0:
220,288,2229,1,8,0:0:0:0:
202,300,2312,1,8,0:0:0:0:
191,282,2395,1,8,0:0:0:0:
278,236,2479,5,10,0:0:0:0:
286,233,2561,1,8,0:0:0:0:
294,230,2645,1,8,0:0:0:0:
303,227,2729,1,8,0:0:0:0:
310,224,2812,5,2,0:0:0:0:
215,371,2979,1,2,0:0:0:0:
400,300,3145,5,2,0:0:0:0:
118,269,3312,1,2,0:0:0:0:
215,384,3479,5,2,0:0:0:0:
199,301,3645,1,2,0:0:0:0:
185,220,3812,1,2,0:0:0:0:
379,337,3979,2,0,L|368:311,3,15.625,2|0|0|0,0:0|0:0|1:2|1:2,0:0:0:0:
391,350,4145,5,10,0:0:0:0:
459,218,4312,1,0,1:2:0:0:
291,281,4479,6,0,L|339:291,1,31.25,8|0,0:0|0:0,0:0:0:0:
512,160,4645,2,0,L|504:195,1,31.25,2|0,0:0|0:0,0:0:0:0:
458,355,4811,6,0,B|441:327|416:318|416:318|387:171|387:171|416:152|429:106,1,250,6|10,1:2|0:0,0:0:0:0:
502,282,5310,1,2,0:0:0:0:
254,354,5477,2,0,B|253:302|316:299|316:299|333:319|353:325,1,125,2|0,1:2|1:2,0:0:0:0:
458,355,5810,2,0,L|408:336,1,31.25,10|0,0:0|0:0,0:0:0:0:
176,247,5977,1,2,1:2:0:0:
184,240,6310,6,0,P|203:279|180:242,1,125,2|8,1:2|0:0,0:0:0:0:
4,150,6644,2,0,B|72:145|103:80|103:80|72:145|113:194,1,250,2|2,0:0|1:2,0:0:0:0:
350,352,7144,2,0,P|346:319|331:285,1,62.5,10|0,0:0|0:0,0:0:0:0:
248,125,7310,2,0,B|211:132|198:161,1,62.5,2|0,0:0|0:0,0:0:0:0:
227,384,7477,6,0,P|247:247|279:158,1,187.5,2|0,1:2|0:0,0:0:0:0:
226,368,7810,2,0,P|218:324|151:275,1,93.7500035762788,10|2,0:0|0:0,0:0:0:0:
229,354,8144,2,0,P|238:339|256:323,1,31.25,2|0,1:2|0:0,0:0:0:0:
487,294,8310,2,0,P|513:311|483:298,1,93.75,2|0,1:2|0:0,0:0:0:0:
345,254,8644,6,0,B|487:216|487:216|500:216|500:216|504:196|533:172,1,187.5,2|0,1:2|0:0,0:0:0:0:
512,232,8977,2,0,P|452:220|459:150,1,125,2|8,1:2|0:0,0:0:0:0:
512,99,9310,1,2,0:0:0:0:
249,222,9477,6,0,L|310:206,1,62.5,2|0,1:2|0:0,0:0:0:0:
298,221,9644,2,0,L|238:238,1,62.5,2|0,1:2|0:0,0:0:0:0:
153,368,9810,6,0,L|213:384,1,62.5,10|2,0:0|0:0,0:0:0:0:
204,367,9977,2,0,L|144:351,1,62.5,10|2,0:0|0:0,0:0:0:0:
0,343,10144,6,0,B|25:313|25:313|25:308|25:308|28:310|28:310|167:268|167:268|169:266|169:266|186:290|236:299,1,250,6|10,1:2|0:0,0:0:0:0:
66,384,10644,1,2,0:0:0:0:
227,223,10810,2,0,P|199:166|142:173,1,125,2|0,1:2|1:2,0:0:0:0:
44,268,11144,2,0,L|81:280,1,31.25,10|0,0:0|0:0,0:0:0:0:
77,59,11310,1,2,1:2:0:0:
87,72,11644,6,0,B|120:63|120:63|112:33|112:33|81:41|81:41|87:71,1,125,2|8,1:2|0:0,0:0:0:0:
2,166,11977,2,0,B|99:145|99:145|125:153|125:153|145:133|145:133|267:99,1,250,2|2,0:0|1:2,0:0:0:0:
366,344,12477,2,0,P|343:294|290:281,1,62.5,10|0,0:0|0:0,0:0:0:0:
508,183,12644,2,0,P|476:203|455:238,1,62.5,2|0,0:0|0:0,0:0:0:0:
286,351,12810,6,0,P|191:316|81:292,1,187.5,2|0,1:2|0:0,0:0:0:0:
16,359,13144,2,0,P|59:357|94:263,1,140.625005364418,10|0,0:0|0:0,0:0:0:0:
168,203,13477,2,0,L|152:248,1,31.25,2|0,1:2|0:0,0:0:0:0:
65,77,13644,2,0,L|162:56,1,93.75,2|0,1:2|0:0,0:0:0:0:
33,60,13977,6,0,B|128:77|128:77|138:82|138:82|261:106,1,187.5,2|0,1:2|0:0,0:0:0:0:
438,186,14310,2,0,P|397:194|374:235,1,84.3749974250794,2|0,1:2|0:0,0:0:0:0:
291,297,14644,2,0,L|304:246,1,46.875,2|0,0:0|0:0,0:0:0:0:
241,164,14977,5,8,0:0:0:0:
230,175,15060,1,8,0:0:0:0:
233,193,15144,1,0,3:2:0:0:
251,203,15227,1,0,3:2:0:0:
275,188,15310,1,0,3:2:0:0:
276,150,15394,1,0,3:2:0:0:
276,100,15477,6,0,L|380:118,2,93.7500035762788,6|0|8,1:2|0:0|0:0,0:0:0:0:
267,97,16144,1,2,1:2:0:0:
390,121,16310,2,0,L|209:87,1,140.625005364418,2|0,1:2|0:0,0:0:0:0:
235,91,16644,1,2,1:2:0:0:
81,201,16810,6,0,B|71:224|71:224|87:240|87:240|96:219|96:219|79:197,1,93.75,2|0,0:0|0:0,0:0:0:0:
0,273,17144,2,0,B|94:255|94:255|101:257|101:257|207:236,1,187.5,10|0,0:0|0:0,0:0:0:0:
194,229,17477,2,0,L|189:282,1,46.875,2|0,1:2|0:0,0:0:0:0:
158,380,17810,2,0,L|127:385,1,31.25,10|0,0:0|0:0,0:0:0:0:
39,342,17977,2,0,L|69:336,1,31.25,2|0,0:0|0:0,0:0:0:0:
256,152,18144,6,0,B|272:229|272:229|261:253|261:253|279:339,1,187.5,2|0,1:2|0:0,0:0:0:0:
230,344,18477,2,0,L|330:322,1,93.75,10|8,0:0|0:0,0:0:0:0:
396,260,18810,1,2,1:2:0:0:
368,384,18977,1,2,1:2:0:0:
368,188,19144,1,10,0:0:0:0:
368,84,19310,2,0,B|356:60|384:48|368:16,1,62.5,2|0,1:2|0:0,0:0:0:0:
368,188,19644,6,0,P|355:205|344:232,1,31.25,2|0,1:2|0:0,0:0:0:0:
368,384,19810,2,0,P|381:367|392:340,1,31.25,10|0,0:0|0:0,0:0:0:0:
296,156,19977,2,0,P|281:135|201:137,1,62.5,2|0,0:0|0:0,0:0:0:0:
446,223,20144,2,0,L|491:212,1,46.875,2|0,1:2|0:0,0:0:0:0:
510,197,20477,2,0,L|465:208,1,46.875,10|0,0:0|0:0,0:0:0:0:
450,316,20810,6,0,B|433:219|433:219|415:199|415:199|426:170|426:170|407:54,1,250,6|10,1:2|0:0,0:0:0:0:
470,28,21310,1,2,0:0:0:0:
220,102,21477,2,0,L|343:123,1,125,2|2,1:2|1:2,0:0:0:0:
480,22,21810,1,10,0:0:0:0:
353,117,21977,2,0,L|230:96,1,125,2|0,1:2|0:0,0:0:0:0:
51,32,22310,6,0,P|60:51|64:82,1,31.25,2|0,1:2|0:0,0:0:0:0:
132,77,22477,2,0,P|124:96|105:121,1,31.25,10|0,0:0|0:0,0:0:0:0:
174,150,22644,2,0,P|165:169|161:200,1,31.25,2|0,0:0|0:0,0:0:0:0:
94,201,22810,2,0,P|101:220|120:245,1,31.25,2|0,1:2|0:0,0:0:0:0:
204,270,22977,1,0,1:0:0:0:
68,374,23144,1,10,0:0:0:0:
68,374,23310,1,2,0:0:0:0:
279,256,23477,6,0,L|268:217,1,31.25,2|0,1:2|0:0,0:0:0:0:
339,165,23644,1,2,0:0:0:0:
343,146,23727,1,2,0:0:0:0:
347,127,23810,1,10,0:0:0:0:
363,51,23977,1,2,0:0:0:0:
402,299,24144,2,0,L|383:212,1,62.5,2|0,1:2|1:0,0:0:0:0:
466,353,24477,1,10,0:0:0:0:
466,353,24644,1,2,1:2:0:0:
209,384,24810,6,0,B|323:365|323:365|328:368|328:368|447:348,2,224.999993133545,2|10|2,0:0|0:0|1:2,0:0:0:0:
0,269,25644,1,0,1:2:0:0:
104,342,25810,2,0,L|91:384,7,23.4375008940697,10|8|8|8|8|8|8|8,0:0|0:0|0:0|0:0|0:0|0:0|0:0|0:0,0:0:0:0:
64,373,26144,6,0,B|110:402|177:371|133:336|207:296|271:335,1,224.999993133545,6|0,1:2|0:0,0:0:0:0:
284,351,26477,2,0,L|293:298,1,46.875,10|0,0:0|0:0,0:0:0:0:
311,294,26810,1,2,1:2:0:0:
311,294,26977,1,2,1:2:0:0:
393,116,27144,1,10,0:0:0:0:
444,370,27310,2,0,P|407:346|385:293,1,93.75,2|0,1:2|0:0,0:0:0:0:
391,286,27644,1,2,1:2:0:0:
506,219,27810,2,0,P|492:254|502:214,1,140.625005364418,10|0,0:0|0:0,0:0:0:0:
512,191,28144,6,0,B|420:205|420:205|413:210|413:210|234:237,1,224.999993133545,2|0,1:2|0:0,0:0:0:0:
284,219,28477,2,0,B|403:201|403:201|410:196|410:196|505:182,1,224.999993133545,10|0,0:0|0:0,0:0:0:0:
509,163,28810,5,2,1:2:0:0:
369,285,28977,2,0,L|385:377,1,93.7500035762788,2|10,0:0|0:0,0:0:0:0:
489,366,29310,1,2,0:0:0:0:
276,302,29477,2,0,L|368:285,1,93.7500035762788,2|2,1:2|1:2,0:0:0:0:
441,225,29810,1,10,0:0:0:0:
194,384,29977,2,0,L|162:170,1,187.500007152558,2|2,1:2|1:2,0:0:0:0:
23,314,30477,6,0,P|81:293|103:254,1,93.7500035762788,8|2,0:0|0:0,0:0:0:0:
197,190,30810,1,2,1:2:0:0:
83,139,30977,1,0,1:2:0:0:
140,12,31144,1,10,0:0:0:0:
143,28,31227,1,8,0:0:0:0:
146,44,31310,1,8,0:0:0:0:
149,60,31394,1,8,0:0:0:0:
152,76,31477,6,0,P|164:50|200:21,1,46.8750017881394,6|0,1:2|0:0,0:0:0:0:
230,112,31644,1,2,0:0:0:0:
30,50,31810,1,10,0:0:0:0:
73,244,31977,2,0,L|83:198,1,46.8750017881394,2|0,0:0|0:0,0:0:0:0:
168,168,32144,2,0,L|132:323,1,140.625005364418,2|0,1:2|0:0,0:0:0:0:
57,262,32477,2,0,L|67:216,1,46.8750017881394,10|0,0:0|0:0,0:0:0:0:
191,146,32644,2,0,L|136:371,1,187.5,2|0,1:2|0:0,0:0:0:0:
155,348,32977,1,2,1:2:0:0:
70,114,33144,2,0,L|192:146,1,125,10|2,0:0|0:0,0:0:0:0:
300,247,33477,6,0,L|344:260,1,46.875,2|0,1:2|0:0,0:0:0:0:
247,83,33810,2,0,L|202:69,1,46.875,10|0,0:0|0:0,0:0:0:0:
152,16,34144,5,2,1:2:0:0:
322,172,34310,1,2,0:0:0:0:
428,120,34477,1,10,0:0:0:0:
272,280,34644,5,2,0:0:0:0:
200,244,34810,1,2,1:2:0:0:
264,200,34977,1,2,1:2:0:0:
284,379,35144,5,10,0:0:0:0:
252,96,35310,2,0,B|231:70|231:70|242:43|242:43|261:64|261:64|251:99,1,125,2|0,1:1|0:0,0:0:0:0:
442,330,35644,5,2,1:2:0:0:
388,246,35810,1,10,0:0:0:0:
287,245,35977,5,2,0:0:0:0:
388,246,36144,1,2,1:2:0:0:
441,161,36310,5,2,1:2:0:0:
388,246,36477,1,10,0:0:0:0:
442,330,36644,5,2,0:0:0:0:
360,20,36810,6,0,L|377:139,1,93.7500035762788,6|2,1:2|0:0,0:0:0:0:
381,107,37060,1,0,0:0:0:0:
392,98,37144,1,10,0:0:0:0:
220,100,37310,5,2,0:0:0:0:
280,156,37394,1,8,0:0:0:0:
200,176,37477,1,2,1:2:0:0:
236,24,37644,5,2,1:2:0:0:
224,16,37810,1,10,0:0:0:0:
212,8,37977,1,2,1:2:0:0:
17,169,38144,6,0,B|71:184|118:148|81:109|155:72|210:118,1,187.5,2|0,0:0|0:0,0:0:0:0:
347,214,38477,2,0,L|333:158,1,46.875,10|0,0:0|0:0,0:0:0:0:
311,281,38810,2,0,L|337:161,1,93.75,2|0,1:2|0:0,0:0:0:0:
289,78,39144,2,0,L|323:217,1,140.625005364418,10|0,0:0|0:0,0:0:0:0:
471,316,39477,6,0,P|401:307|369:352,1,125,2|2,1:2|0:0,0:0:0:0:
384,356,39727,1,2,0:0:0:0:
392,366,39810,1,10,0:0:0:0:
340,132,39977,5,2,0:0:0:0:
322,214,40060,1,8,0:0:0:0:
304,296,40144,1,2,1:2:0:0:
351,123,40310,5,2,1:2:0:0:
343,107,40477,1,10,0:0:0:0:
335,91,40644,1,2,1:2:0:0:
205,55,40810,6,0,L|227:172,1,62.5,10|0,0:0|0:0,0:0:0:0:
156,170,40977,2,0,L|178:287,1,62.5,2|0,1:2|0:0,0:0:0:0:
84,0,41144,2,0,L|106:117,1,62.5,10|0,0:0|0:0,0:0:0:0:
56,291,41310,2,0,L|34:167,1,125,2|10,1:2|0:0,0:0:0:0:
28,162,41560,1,0,3:2:0:0:
20,157,41644,1,2,3:2:0:0:
290,184,41810,2,0,B|335:174,1,46.8750017881394,14|0,0:0|0:0,0:0:0:0:
261,174,42144,5,12,0:0:0:0:
308,179,42227,1,8,0:0:0:0:
354,185,42310,1,10,0:0:0:0:
401,190,42394,1,8,0:0:0:0:
447,197,42477,1,10,0:0:0:0:
190,209,42644,1,2,1:2:0:0:
402,179,42810,2,0,L|309:165,1,93.7500035762788,2|10,1:2|0:0,0:0:0:0:
124,249,43144,1,2,1:2:0:0:
343,132,43310,6,0,B|331:219|331:219|326:227|326:227|315:316,1,187.500007152558,14|2,0:2|1:2,0:0:0:0:
105,119,43810,2,0,L|112:72,1,46.875,10|0,0:0|0:0,0:0:0:0:
302,9,44144,2,0,L|295:56,1,46.875,10|0,0:0|0:0,0:0:0:0:
244,114,44477,1,10,0:0:0:0:
256,128,44810,5,14,0:0:0:0:
217,159,44893,1,8,0:0:0:0:
166,153,44977,1,10,0:0:0:0:
137,112,45060,1,8,0:0:0:0:
149,63,45144,1,10,0:0:0:0:
260,270,45310,1,0,1:0:0:0:
74,348,45477,5,2,1:2:0:0:
83,325,45644,1,10,0:0:0:0:
92,302,45810,1,2,1:2:0:0:
42,215,45977,2,0,B|5:219|5:219|13:229|13:229|189:206,1,187.500007152558,14|2,0:2|1:2,0:0:0:0:
240,128,46477,2,0,L|103:144,1,93.7500035762788,10|0,0:0|1:2,0:0:0:0:
224,208,46810,1,10,0:0:0:0:
256,48,46977,1,2,1:2:0:0:
189,367,47144,2,0,L|201:319,1,46.8750017881394,10|0,0:0|0:0,0:0:0:0:
230,303,47477,5,12,0:0:0:0:
178,305,47560,1,8,0:0:0:0:
135,334,47644,1,10,0:0:0:0:
128,283,47727,1,8,0:0:0:0:
92,245,47811,1,10,0:0:0:0:
282,384,47977,1,2,1:2:0:0:
388,188,48144,5,2,1:2:0:0:
319,160,48310,1,10,0:0:0:0:
288,228,48477,1,2,1:2:0:0:
495,255,48644,2,0,L|467:31,1,187.500007152558,14|2,0:2|1:2,0:0:0:0:
288,64,49144,2,0,P|289:95|326:121,1,62.5,10|0,0:0|0:0,0:0:0:0:
376,88,49310,2,0,P|375:57|338:31,1,62.5,2|0,1:2|0:0,0:0:0:0:
243,15,49477,2,0,P|265:93|274:180,1,140.625005364418,10|0,0:0|0:0,0:0:0:0:
417,136,49810,2,0,P|395:58|386:-29,1,140.625005364418,10|0,0:0|0:0,0:0:0:0:
27,68,50144,6,0,L|148:51,1,93.7500035762788,6|2,1:2|0:0,0:0:0:0:
116,44,50394,1,2,0:0:0:0:
111,29,50477,1,2,1:2:0:0:
288,97,50644,1,2,0:0:0:0:
241,94,50727,1,2,0:0:0:0:
200,117,50810,1,2,1:2:0:0:
188,162,50894,1,2,0:0:0:0:
203,205,50977,1,2,0:0:0:0:
304,180,51144,5,6,1:2:0:0:
141,262,51310,2,0,P|165:275|182:295,1,46.8750017881394,2|2,0:0|0:0,0:0:0:0:
317,346,51477,5,2,0:0:0:0:
326,325,51560,1,2,0:0:0:0:
317,303,51644,1,2,0:0:0:0:
295,294,51727,1,2,0:0:0:0:
274,300,51810,5,2,0:0:0:0:
260,313,51894,1,2,0:0:0:0:
256,327,51977,1,2,0:0:0:0:
259,337,52060,1,2,0:0:0:0:
266,349,52144,5,2,0:0:0:0:
230,376,52227,1,2,0:0:0:0:
179,371,52310,1,2,0:0:0:0:
151,332,52394,1,2,0:0:0:0:
141,262,52477,5,2,0:0:0:0:
88,212,52560,1,2,0:0:0:0:
17,229,52644,1,2,0:0:0:0:
0,300,52727,1,2,0:0:0:0:
46,357,52810,6,0,B|108:347|108:347|118:341|118:341|178:331,1,125,4|0,1:2|0:0,0:0:0:0:
125,128,53144,2,0,B|75:136|75:136|65:142|65:142|4:152,1,125,10|0,0:0|0:0,0:0:0:0:
342,148,53477,2,0,P|357:131|379:125,1,46.8750017881394,2|0,1:2|0:0,0:0:0:0:
323,139,53644,2,0,P|338:122|360:116,1,46.8750017881394,2|0,1:2|0:0,0:0:0:0:
483,198,53810,2,0,P|462:218|454:263,1,62.5,8|0,0:0|0:0,0:0:0:0:
426,336,53977,2,0,P|405:212|384:89,1,250,2|2,1:2|1:2,0:0:0:0:
338,22,54477,1,10,0:0:0:0:
243,237,54644,5,0,0:0:0:0:
220,215,54727,1,0,0:0:0:0:
215,192,54810,2,0,P|227:163|260:136,1,46.8750017881394,2|0,1:2|0:0,0:0:0:0:
303,190,54977,2,0,P|291:219|258:246,1,46.8750017881394,0|0,1:2|0:0,0:0:0:0:
139,317,55144,2,0,B|149:291|178:282|178:282|31:325,1,187.5,10|0,0:0|0:0,0:0:0:0:
0,178,55477,6,0,B|58:188|58:188|63:193|63:193|185:211|185:211|193:209|193:209|300:227,1,250,2|12,1:2|0:0,0:0:0:0:
322,186,55977,2,0,L|400:168,1,62.5,2|0,0:0|0:0,0:0:0:0:
481,76,56144,1,2,1:2:0:0:
402,250,56310,1,0,1:2:0:0:
512,204,56477,1,12,0:0:0:0:
388,249,56644,1,0,1:2:0:0:
471,382,56810,6,0,B|420:401|364:378|402:328|334:274|257:319,1,224.999993133545,2|0,0:0|0:0,0:0:0:0:
257,297,57144,2,0,L|266:342,1,46.875,10|0,0:0|0:0,0:0:0:0:
340,215,57477,2,0,L|327:163,1,46.8750017881394,2|0,1:2|0:0,0:0:0:0:
244,139,57644,1,8,0:0:0:0:
356,378,57810,1,14,0:0:0:0:
506,308,57977,2,0,L|520:253,1,46.8750017881394,2|0,0:0|0:0,0:0:0:0:
418,172,58144,6,0,P|394:229|520:211,1,224.999993133545,6|0,1:2|0:0,0:0:0:0:
395,83,58477,2,0,L|345:94,1,46.875,10|0,0:0|0:0,0:0:0:0:
334,104,58810,1,2,1:2:0:0:
223,181,58977,1,2,1:2:0:0:
97,84,59144,2,0,L|88:37,1,46.8750017881394,8|0,0:0|0:0,0:0:0:0:
300,190,59310,2,0,L|290:247,1,46.8750017881394,2|0,1:2|0:0,0:0:0:0:
267,333,59477,5,0,0:0:0:0:
188,360,59644,1,0,1:2:0:0:
278,326,59810,1,8,0:0:0:0:
177,361,59977,1,0,0:0:0:0:
467,384,60144,5,2,1:2:0:0:
361,275,60310,1,2,1:2:0:0:
399,355,60477,2,0,L|389:293,1,62.5,8|0,0:0|0:0,0:0:0:0:
483,100,60644,2,0,L|470:181,1,62.5,10|0,0:0|0:0,0:0:0:0:
507,292,60810,6,0,B|446:298|417:248|417:248|370:174|276:225,1,224.999993133545,6|0,1:2|0:0,0:0:0:0:
294,216,61144,2,0,L|303:164,1,46.875,8|0,0:0|0:0,0:0:0:0:
194,384,61477,2,0,L|46:355,1,140.625005364418,2|0,1:2|0:0,0:0:0:0:
238,286,61810,1,10,0:0:0:0:
43,367,61977,1,2,1:2:0:0:
246,282,62144,1,2,1:2:0:0:
83,168,62310,5,10,0:0:0:0:
95,216,62393,1,8,0:0:0:0:
107,264,62477,1,2,1:2:0:0:
284,79,62644,5,10,0:0:0:0:
315,74,62727,1,8,0:0:0:0:
362,97,62810,5,2,1:2:0:0:
321,48,62894,1,2,1:2:0:0:
259,39,62977,1,10,0:0:0:0:
213,70,63060,1,10,0:0:0:0:
151,130,63144,5,10,0:0:0:0:
121,140,63227,1,10,0:0:0:0:
102,138,63310,1,10,0:0:0:0:
90,132,63394,1,10,0:0:0:0:
86,125,63477,6,0,P|178:147|151:240,1,187.5,4|0,1:2|0:0,0:0:0:0:
57,360,63810,2,0,P|101:295|156:315,1,125,10|0,0:0|0:0,0:0:0:0:
394,300,64144,2,0,L|353:275,1,46.8750017881394,2|0,1:2|0:0,0:0:0:0:
294,273,64310,2,0,L|362:252,1,46.8750017881394,2|0,1:2|0:0,0:0:0:0:
500,208,64477,2,0,P|471:231|462:270,1,62.5,8|0,0:0|0:0,0:0:0:0:
443,375,64644,2,0,L|403:124,1,250,2|0,1:2|1:2,0:0:0:0:
451,67,65144,1,10,0:0:0:0:
260,166,65311,5,0,0:0:0:0:
294,159,65394,1,0,0:0:0:0:
317,131,65477,2,0,L|302:64,1,46.8750017881394,2|0,1:2|0:0,0:0:0:0:
348,14,65644,2,0,L|333:81,1,46.8750017881394,0|0,1:2|0:0,0:0:0:0:
163,169,65810,2,0,L|182:109,1,62.5,10|0,0:0|0:0,0:0:0:0:
130,2,65977,2,0,L|149:61,1,62.5
0,269,66144,6,0,B|51:260|51:260|59:262|59:262|181:244|181:244|186:239|186:239|244:229,1,250,2|12,1:2|0:0,0:0:0:0:
329,200,66644,2,0,L|317:274,1,62.5,2|0,0:0|0:0,0:0:0:0:
418,384,66810,1,2,1:2:0:0:
226,327,66977,1,0,1:2:0:0:
325,356,67144,1,12,0:0:0:0:
212,322,67311,1,0,1:2:0:0:
482,332,67477,6,0,B|456:312|431:308|431:308|450:234|450:234|456:229|456:229|476:144,1,224.999993133545,2|0,0:0|0:0,0:0:0:0:
459,106,67810,2,0,L|468:154,1,46.875,10|0,0:0|0:0,0:0:0:0:
296,246,68144,2,0,L|376:230,1,46.8750017881394,2|0,1:2|0:0,0:0:0:0:
393,182,68310,1,8,0:0:0:0:
257,384,68477,1,14,0:0:0:0:
88,193,68644,2,0,P|110:222|117:252,1,46.8750017881394,2|0,0:0|0:0,0:0:0:0:
123,319,68810,6,0,L|172:85,1,224.999993133545,6|0,1:2|0:0,0:0:0:0:
247,242,69144,2,0,P|232:222|224:197,1,46.875,8|0,0:0|0:0,0:0:0:0:
237,187,69477,1,2,1:2:0:0:
10,131,69644,1,2,1:2:0:0:
81,0,69810,2,0,P|74:31|61:50,1,46.8750017881394,8|0,0:0|0:0,0:0:0:0:
2,140,69977,2,0,B|57:191|169:164|98:61|228:49|285:112,1,299.999990844727,2|0,1:2|1:2,0:0:0:0:
15,289,70477,2,0,L|4:241,1,46.875,8|0,0:0|0:0,0:0:0:0:
22,224,70810,5,2,1:2:0:0:
199,261,70977,1,2,1:2:0:0:
97,336,71144,2,0,L|88:388,1,46.8750017881394,8|0,0:0|0:0,0:0:0:0:
117,200,71310,1,10,0:0:0:0:
402,384,71477,5,12,0:0:0:0:
485,308,71644,1,0,1:2:0:0:
458,197,71810,1,12,0:0:0:0:
350,170,71977,1,0,1:2:0:0:
278,258,72144,1,12,0:0:0:0:
164,242,72310,1,0,1:2:0:0:
136,131,72477,1,12,0:0:0:0:
228,63,72644,2,0,L|255:70,1,15.625,0|0,1:2|0:0,0:0:0:0:
38,35,72810,5,2,0:0:0:0:
38,35,73144,5,2,0:0:0:0:
14,134,73310,1,2,0:0:0:0:
7,121,73644,1,2,0:0:0:0:
0,107,73977,1,2,0:0:0:0:
167,193,74144,6,0,B|135:21|135:21|150:6|150:6|165:75,1,250,6|10,1:2|0:0,0:0:0:0:
242,55,74644,1,2,0:0:0:0:
96,263,74810,2,0,P|97:229|11:219,1,125,2|0,1:2|1:2,0:0:0:0:
0,327,75144,2,0,L|44:311,1,31.25,10|0,0:0|0:0,0:0:0:0:
289,245,75310,1,2,1:2:0:0:
280,251,75644,6,0,P|309:282|288:244,1,125,2|8,1:2|0:0,0:0:0:0:
226,90,75977,2,0,B|206:185|206:185|189:202|189:202|196:223|196:223|174:334,1,250,2|2,0:0|1:2,0:0:0:0:
103,96,76477,2,0,P|136:138|143:174,1,62.5,10|0,0:0|0:0,0:0:0:0:
235,372,76644,2,0,P|261:346|315:346,1,62.5,2|0,0:0|0:0,0:0:0:0:
482,292,76810,6,0,L|279:263,1,187.5,2|0,1:2|0:0,0:0:0:0:
292,254,77144,2,0,L|473:281,1,140.625005364418,10|0,0:0|0:0,0:0:0:0:
443,265,77477,2,0,L|437:306,1,31.25,2|0,1:2|0:0,0:0:0:0:
494,145,77644,2,0,B|483:166|484:191|484:191|460:180|439:182,1,93.75,2|0,1:2|0:0,0:0:0:0:
331,88,77977,2,0,P|395:113|428:15,1,187.5,2|0,1:2|0:0,0:0:0:0:
427,4,78310,2,0,P|452:64|406:118,1,125,2|8,1:2|0:0,0:0:0:0:
281,153,78644,1,2,0:0:0:0:
116,21,78810,6,0,L|132:98,1,62.5,2|0,1:2|0:0,0:0:0:0:
140,97,78977,2,0,L|128:36,1,62.5,2|0,1:2|0:0,0:0:0:0:
253,174,79144,6,0,L|237:251,1,62.5,10|0,0:0|0:0,0:0:0:0:
227,249,79311,2,0,L|239:187,1,62.5,2|0,0:0|0:0,0:0:0:0:
21,317,79477,6,0,B|78:307|78:307|81:301|81:301|82:306|82:306|186:286|186:286|191:291|191:291|191:285|191:285|279:269,1,250,6|10,1:2|0:0,0:0:0:0:
353,197,79977,1,2,0:0:0:0:
434,337,80144,2,0,P|400:363|427:330,1,125,2|0,1:2|1:2,0:0:0:0:
496,226,80477,2,0,L|489:267,1,31.25,10|0,0:0|0:0,0:0:0:0:
222,160,80644,1,2,1:2:0:0:
239,167,80977,6,0,B|232:97|232:97|241:106|241:106|247:161,1,125,2|8,1:2|0:0,0:0:0:0:
365,58,81310,2,0,B|275:37|275:37|250:12|250:12|211:26|211:26|120:4,1,250,2|2,0:0|1:2,0:0:0:0:
36,87,81810,2,0,L|26:53,1,31.25,10|0,0:0|0:0,0:0:0:0:
28,34,81977,2,0,L|36:63,1,31.25,2|0,0:0|0:0,0:0:0:0:
2,361,82310,6,0,L|75:344,1,62.5,2|0,1:1|0:0,0:0:0:0:
80,324,82477,2,0,L|97:397,1,62.5,2|0,1:1|0:0,0:0:0:0:
144,248,82810,6,0,L|217:231,1,62.5,2|0,1:1|0:0,0:0:0:0:
222,211,82977,2,0,L|239:284,1,62.5,2|0,1:1|0:0,0:0:0:0:
286,135,83310,6,0,L|359:118,1,62.5,2|0,1:1|0:0,0:0:0:0:
459,64,83477,5,2,1:1:0:0:
465,74,83560,1,2,0:0:0:0:
447,81,83644,1,2,0:0:0:0:
416,76,83727,1,2,0:0:0:0:
367,18,83810,5,2,1:1:0:0:
293,0,83894,1,2,0:0:0:0:
228,38,83977,1,2,1:1:0:0:
213,111,84060,1,2,0:0:0:0:
247,176,84144,5,2,0:0:0:0:
250,199,84227,1,2,0:0:0:0:
223,220,84310,1,2,1:1:0:0:
230,264,84394,1,2,0:0:0:0:
194,289,84477,5,2,3:2:0:0:
220,346,84560,1,2,0:0:0:0:
160,384,84644,5,6,1:2:0:0:
256,192,84727,12,0,85810,0:0:0:0:
