osu file format v14

[General]
AudioFilename: audio.mp3
AudioLeadIn: 0
PreviewTime: 51477
Countdown: 0
SampleSet: Soft
StackLeniency: 0.3
Mode: 0
LetterboxInBreaks: 0
EpilepsyWarning: 1
WidescreenStoryboard: 1

[Editor]
Bookmarks: 146,26144,52810,72810
DistanceSpacing: 1
BeatDivisor: 2
GridSize: 16
TimelineZoom: 1.5

[Metadata]
Title:Pinky Jones (TV Size)
TitleUnicode:ピンキージョ-ンズ (TV Size)
Artist:MOMOIRO CLOVER
ArtistUnicode:ももいろクローバー
Creator:itay
Version:Dayno x muya- x itay's Collab Normal
Source:ヨスガノソラ
Tags:ilay muya- dayno yosuga no sora pop jpop j-pop japanese visual novel sora kasugano sky of connection haruka na ハルカナソラ eroge ed ending anime momoiro clover z
BeatmapID:3373807
BeatmapSetID:1580203

[Difficulty]
HPDrainRate:3
CircleSize:3
OverallDifficulty:4
ApproachRate:5.4
SliderMultiplier:1
SliderTickRate:1

[Events]
//Background and Video events
0,0,"sora (3).jpg",0,0
//Break Periods
//Storyboard Layer 0 (Background)
//Storyboard Layer 1 (Fail)
//Storyboard Layer 2 (Pass)
//Storyboard Layer 3 (Foreground)
//Storyboard Layer 4 (Overlay)
//Storyboard Sound Samples

[TimingPoints]
146,333.333333333333,4,2,1,70,1,0
146,-100,4,2,1,70,0,0
2812,-100,4,2,1,50,0,0
3979,-100,4,2,1,70,0,0
4811,333.333333333333,4,2,1,80,1,0
15144,-100,4,2,5,80,0,0
15310,-100,4,2,6,80,0,0
15477,-100,4,2,1,60,0,0
25852,-100,4,2,1,60,0,0
26144,-100,4,2,1,75,0,0
36810,-100,4,2,1,60,0,0
41560,-100,4,2,5,60,0,0
41644,-100,4,2,6,60,0,0
41810,-100,4,2,1,60,0,0
42144,-100,4,2,1,75,0,0
50144,-100,4,2,1,80,0,0
51477,-100,4,2,1,50,0,0
52810,-90.9090909090909,4,2,1,90,0,1
72810,-90.9090909090909,4,2,1,50,0,0
74144,-100,4,2,1,80,0,0
82310,-90.9090909090909,4,2,1,85,0,0
84477,-90.9090909090909,4,2,6,85,0,0
84644,-90.9090909090909,4,2,1,85,0,0
85810,-90.9090909090909,4,2,1,15,0,0

[Colours]
Combo1 : 143,214,133
Combo2 : 166,163,179
Combo3 : 214,173,171
Combo4 : 100,132,146

[HitObjects]
419,92,146,6,0,P|485:58|528:69,2,100,6|6|6,1:2|1:2|1:2,0:0:0:0:
376,182,1145,1,6,1:2:0:0:
289,131,1479,6,0,L|277:82,2,50,2|0|2,1:2|1:2|1:2,0:0:0:0:
250,163,1979,1,0,1:2:0:0:
250,163,2145,2,0,P|230:159|195:129,1,50,10|8,0:0|0:0,0:0:0:0:
156,134,2479,2,0,P|145:117|141:72,1,50,10|8,0:0|0:0,0:0:0:0:
120,43,2812,5,2,0:0:0:0:
169,270,4811,6,0,L|232:253,1,50,6|2,1:2|0:0,0:0:0:0:
265,271,5144,2,0,L|313:257,1,50,10|2,0:0|0:0,0:0:0:0:
362,267,5477,2,0,P|319:207|324:169,1,100,2|10,1:2|0:0,0:0:0:0:
344,143,5977,2,0,P|336:94|301:60,2,100,2|2|2,1:2|1:2|0:0,0:0:0:0:
247,145,6977,1,2,1:2:0:0:
247,145,7144,2,0,L|178:131,1,50,10|2,0:0|0:0,0:0:0:0:
151,153,7477,6,0,L|101:143,1,50,2|0,1:2|0:0,0:0:0:0:
52,135,7810,2,0,L|77:247,1,100,10|2,0:0|1:2,0:0:0:0:
90,280,8310,1,2,1:2:0:0:
177,328,8644,2,0,P|131:347|99:384,2,100,2|2|2,1:2|1:2|0:0,0:0:0:0:
212,292,9477,2,0,P|236:291|261:297,1,50,2|2,1:2|1:2,0:0:0:0:
292,336,9810,2,0,P|316:341|341:341,1,50,10|10,0:0|0:0,0:0:0:0:
389,326,10144,6,0,L|414:220,2,100,6|10|2,1:2|0:0|1:2,0:0:0:0:
297,299,11144,1,10,0:0:0:0:
297,299,11310,2,0,L|288:226,1,50,2|0,1:2|0:0,0:0:0:0:
258,210,11644,2,0,L|251:160,1,50,2|8,1:2|0:0,0:0:0:0:
222,119,11977,1,2,0:0:0:0:
249,29,12310,1,2,1:2:0:0:
249,29,12477,2,0,L|303:40,1,50,10|2,0:0|0:0,0:0:0:0:
332,4,12810,6,0,L|380:13,1,50,2|0,1:2|0:0,0:0:0:0:
429,26,13144,2,0,P|449:90|430:127,1,100,10|2,0:0|1:2,0:0:0:0:
399,149,13644,1,2,1:2:0:0:
344,232,13977,2,0,L|283:215,1,50,2|0,1:2|0:0,0:0:0:0:
249,238,14310,2,0,L|200:224,1,50,2|8,1:2|0:0,0:0:0:0:
157,250,14644,2,0,L|108:236,1,50,2|0,0:0|1:2,0:0:0:0:
47,156,15144,2,0,L|95:133,1,50,0|0,3:2|3:2,0:0:0:0:
127,99,15477,6,0,P|165:93|228:125,1,100,6|8,1:2|0:0,0:0:0:0:
263,230,16144,1,2,1:2:0:0:
263,230,16310,1,2,1:2:0:0:
255,335,16644,1,2,1:2:0:0:
255,335,16810,2,0,P|309:348|362:368,2,100,2|10|2,0:0|0:0|1:2,0:0:0:0:
162,372,17810,2,0,P|136:366|109:362,1,50,10|2,0:0|0:0,0:0:0:0:
63,371,18144,6,0,P|25:337|30:268,1,100,2|10,1:2|0:0,0:0:0:0:
54,199,18810,1,2,1:2:0:0:
149,228,19144,1,10,0:0:0:0:
149,228,19310,1,2,1:2:0:0:
197,142,19644,1,2,1:2:0:0:
197,142,19810,2,0,L|210:87,2,50,10|2|2,0:0|0:0|1:2,0:0:0:0:
292,195,20477,2,0,L|341:187,1,50,10|2,0:0|0:0,0:0:0:0:
391,191,20810,6,0,P|348:127|356:89,1,100,6|10,1:2|0:0,0:0:0:0:
391,17,21477,2,0,P|440:11|488:62,1,100,2|10,1:2|0:0,0:0:0:0:
499,85,21977,1,2,1:2:0:0:
463,181,22310,1,2,1:2:0:0:
463,181,22477,2,0,L|402:196,1,50,10|2,0:0|0:0,0:0:0:0:
390,237,22810,2,0,P|338:218|273:214,1,100,2|10,1:2|0:0,0:0:0:0:
194,221,23477,6,0,P|170:189|176:121,1,100,2|10,1:2|0:0,0:0:0:0:
156,88,23977,1,2,0:0:0:0:
156,88,24144,2,0,P|103:113|58:105,1,100,2|10,1:2|0:0,0:0:0:0:
2,186,24810,2,0,L|28:293,2,100,2|10|2,0:0|0:0|1:2,0:0:0:0:
1,85,25810,1,10,0:0:0:0:
90,36,26144,6,0,P|116:27|154:37,1,50,6|2,1:2|0:0,0:0:0:0:
181,55,26477,1,10,0:0:0:0:
251,126,26810,2,0,P|246:145|239:184,2,50,2|2|10,1:2|1:2|0:0,0:0:0:0:
292,98,27310,2,0,B|348:96|338:133|396:139,1,100,2|2,1:2|1:2,0:0:0:0:
429,121,27810,1,10,0:0:0:0:
505,185,28144,2,0,P|517:219|515:246,1,50,2|0,1:2|1:0,0:0:0:0:
494,277,28477,1,10,0:0:0:0:
408,328,28810,6,0,P|417:355|422:377,2,50,2|2|10,1:2|0:0|0:0,0:0:0:0:
345,249,29477,2,0,P|300:217|247:232,1,100,2|10,1:2|0:0,0:0:0:0:
242,271,29977,2,0,P|205:304|145:299,1,100,2|2,1:2|1:2,0:0:0:0:
106,309,30477,2,0,L|142:193,1,100,10|2,0:0|1:2,0:0:0:0:
87,125,31144,1,10,0:0:0:0:
184,109,31477,6,0,P|198:81|198:46,1,50,6|2,1:2|0:0,0:0:0:0:
177,18,31810,1,10,0:0:0:0:
76,15,32144,2,0,P|22:50|28:92,1,100,2|10,1:2|0:0,0:0:0:0:
45,124,32644,1,2,1:2:0:0:
117,200,32977,1,2,1:2:0:0:
117,200,33144,2,0,P|130:227|131:267,1,50,10|2,0:0|0:0,0:0:0:0:
115,293,33477,1,2,1:2:0:0:
188,360,33810,1,10,0:0:0:0:
279,318,34144,6,0,L|269:265,2,50,2|2|10,1:2|0:0|0:0,0:0:0:0:
312,362,34644,1,2,0:0:0:0:
312,362,34810,1,2,1:2:0:0:
415,377,35144,1,10,0:0:0:0:
415,377,35310,2,0,P|425:318|443:259,1,100,2|2,1:1|1:2,0:0:0:0:
458,234,35810,1,10,0:0:0:0:
510,148,36144,2,0,P|510:118|497:88,1,50,2|2,1:2|1:2,0:0:0:0:
468,63,36477,1,10,0:0:0:0:
371,87,36810,6,0,P|355:128|365:196,2,100,6|10|2,1:2|0:0|1:2,0:0:0:0:
360,42,37644,1,2,1:2:0:0:
360,42,37810,1,10,0:0:0:0:
272,91,38144,1,2,0:0:0:0:
172,85,38477,2,0,P|136:44|89:46,2,100,10|2|10,0:0|1:2|0:0,0:0:0:0:
149,182,39477,6,0,L|79:197,2,50,2|2|10,1:2|0:0|0:0,0:0:0:0:
199,203,39977,1,2,0:0:0:0:
199,203,40144,1,2,1:2:0:0:
263,279,40477,1,10,0:0:0:0:
359,252,40810,2,0,P|383:257|407:265,2,50,10|2|10,0:0|1:2|0:0,0:0:0:0:
329,218,41310,1,2,1:2:0:0:
329,218,41477,2,0,P|332:190|347:163,1,50,10|2,0:0|3:2,0:0:0:0:
387,152,41810,1,14,0:0:0:0:
317,79,42144,6,0,P|294:68|266:67,1,50,12|10,0:0|0:0,0:0:0:0:
237,104,42477,1,10,0:0:0:0:
188,193,42810,1,2,1:2:0:0:
188,193,42977,2,0,P|165:204|137:205,1,50,10|2,0:0|1:2,0:0:0:0:
91,210,43310,2,0,P|80:152|63:104,1,100,14|2,0:2|1:2,0:0:0:0:
28,80,43810,1,10,0:0:0:0:
103,18,44144,2,0,P|136:21|176:48,1,50,10|0,0:0|1:0,0:0:0:0:
189,60,44477,1,10,0:0:0:0:
247,144,44810,6,0,P|240:172|233:209,1,50,14|10,0:0|0:0,0:0:0:0:
230,242,45144,1,10,0:0:0:0:
265,340,45477,1,2,1:2:0:0:
265,340,45644,2,0,P|294:357|329:362,1,50,10|2,0:0|1:2,0:0:0:0:
357,344,45977,2,0,B|410:340|408:379|467:371,1,100,14|2,0:2|1:2,0:0:0:0:
493,345,46477,1,10,0:0:0:0:
501,245,46810,2,0,L|488:190,1,50,10|2,0:0|1:2,0:0:0:0:
475,147,47144,1,10,0:0:0:0:
393,89,47477,6,0,P|370:95|341:119,1,50,12|10,0:0|0:0,0:0:0:0:
322,152,47810,1,10,0:0:0:0:
258,230,48143,1,2,1:2:0:0:
258,230,48310,2,0,P|233:246|206:252,1,50,10|2,0:0|1:2,0:0:0:0:
167,230,48643,2,0,P|125:195|57:203,1,100,14|2,0:2|1:2,0:0:0:0:
35,213,49143,1,10,0:0:0:0:
2,307,49477,2,0,P|10:330|18:366,1,50,10|0,0:0|1:0,0:0:0:0:
59,380,49810,1,10,0:0:0:0:
143,327,50144,6,0,P|156:268|177:204,1,100,6|2,1:2|1:2,0:0:0:0:
201,193,50644,1,2,0:0:0:0:
201,193,50810,1,2,1:2:0:0:
164,99,51144,1,6,1:2:0:0:
164,99,52810,6,0,P|198:61|271:64,1,110.000003356934,4|10,1:2|0:0,0:0:0:0:
363,92,53477,1,2,1:2:0:0:
363,92,53644,2,0,P|367:123|350:160,1,55.0000016784668,2|8,1:2|0:0,0:0:0:0:
314,170,53977,2,0,P|262:217|265:268,1,110.000003356934,2|2,1:2|1:2,0:0:0:0:
275,306,54477,2,0,L|326:325,1,55.0000016784668,10|0,0:0|0:0,0:0:0:0:
353,372,54810,2,0,P|375:355|403:344,1,55.0000016784668,2|0,1:2|1:2,0:0:0:0:
453,329,55144,1,10,0:0:0:0:
493,226,55477,6,0,P|486:169|445:137,1,110.000003356934,2|12,1:2|0:0,0:0:0:0:
396,130,55977,1,2,0:0:0:0:
396,130,56144,2,0,P|340:146|267:168,1,110.000003356934,2|12,1:2|0:0,0:0:0:0:
191,112,56810,2,0,P|169:100|130:100,1,55.0000016784668,2|2,0:0|1:2,0:0:0:0:
87,79,57144,2,0,P|64:104|57:138,1,55.0000016784668,10|2,0:0|1:2,0:0:0:0:
12,155,57477,2,0,P|34:204|44:237,1,55.0000016784668,2|8,1:2|0:0,0:0:0:0:
56,255,57810,1,14,0:0:0:0:
146,318,58144,6,0,P|197:300|263:287,1,110.000003356934,6|10,1:2|0:0,0:0:0:0:
327,209,58810,1,2,1:2:0:0:
327,209,58977,2,0,P|321:177|303:153,1,55.0000016784668,2|8,1:2|0:0,0:0:0:0:
269,121,59310,2,0,P|220:134|163:151,1,110.000003356934,2|0,1:2|1:2,0:0:0:0:
113,127,59810,1,8,0:0:0:0:
19,182,60144,1,2,1:2:0:0:
19,182,60310,2,0,P|1:215|4:251,1,55.0000016784668,2|8,1:2|0:0,0:0:0:0:
37,272,60644,1,10,0:0:0:0:
85,246,60810,6,0,B|132:245|129:282|189:271,1,110.000003356934,6|8,1:2|0:0,0:0:0:0:
253,360,61477,2,0,P|280:377|317:376,1,55.0000016784668,2|2,1:2|1:2,0:0:0:0:
346,367,61810,2,0,P|363:340|362:303,1,55.0000016784668,10|2,0:0|1:2,0:0:0:0:
339,275,62144,1,2,1:2:0:0:
339,275,62310,2,0,P|318:247|315:221,1,55.0000016784668,10|2,0:0|1:2,0:0:0:0:
346,182,62644,2,0,P|385:142|383:58,1,110.000003356934,10|10,0:0|0:0,0:0:0:0:
375,38,63144,1,10,0:0:0:0:
286,8,63477,6,0,B|232:6|228:50|184:63,1,110.000003356934,4|10,1:2|0:0,0:0:0:0:
97,16,64144,1,2,1:2:0:0:
97,16,64310,2,0,P|75:4|42:2,1,55.0000016784668,2|8,1:2|0:0,0:0:0:0:
3,37,64644,2,0,P|21:90|36:159,1,110.000003356934,2|0,1:2|1:2,0:0:0:0:
69,183,65144,2,0,P|59:219|52:251,1,55.0000016784668,10|0,0:0|0:0,0:0:0:0:
89,279,65477,2,0,P|98:313|103:342,1,55.0000016784668,2|0,1:2|1:2,0:0:0:0:
140,371,65810,1,10,0:0:0:0:
246,344,66144,6,0,P|290:312|354:323,1,110.000003356934,2|12,1:2|0:0,0:0:0:0:
395,347,66644,1,2,0:0:0:0:
395,347,66810,2,0,P|408:293|432:236,1,110.000003356934,2|12,1:2|0:0,0:0:0:0:
379,144,67477,2,0,P|369:116|369:87,1,55.0000016784668,2|2,0:0|1:2,0:0:0:0:
401,49,67810,2,0,L|462:68,2,55.0000016784668,10|2|2,0:0|1:2|1:2,0:0:0:0:
374,7,68310,1,8,0:0:0:0:
374,7,68477,1,14,0:0:0:0:
269,0,68810,6,0,P|212:21|190:73,1,110.000003356934,6|8,1:2|0:0,0:0:0:0:
165,172,69477,1,2,1:2:0:0:
165,172,69644,2,0,P|136:183|102:180,1,55.0000016784668,2|8,1:2|0:0,0:0:0:0:
58,171,69977,2,0,P|80:233|97:285,1,110.000003356934,2|0,1:2|1:2,0:0:0:0:
120,323,70477,1,8,0:0:0:0:
222,375,70810,1,2,1:2:0:0:
222,375,70977,2,0,P|248:373|275:359,1,55.0000016784668,2|8,1:2|0:0,0:0:0:0:
314,323,71310,1,10,0:0:0:0:
314,323,71477,5,12,0:0:0:0:
314,213,71810,1,12,0:0:0:0:
213,167,72144,1,12,0:0:0:0:
110,206,72477,1,12,0:0:0:0:
13,148,72810,1,2,0:0:0:0:
13,148,74144,6,0,L|75:136,1,50,6|2,1:2|0:0,0:0:0:0:
97,102,74477,2,0,L|146:92,1,50,10|2,0:0|0:0,0:0:0:0:
192,112,74810,2,0,P|210:157|200:205,1,100,2|10,1:2|0:0,0:0:0:0:
170,246,75310,2,0,P|160:294|178:339,2,100,2|2|2,1:2|1:2|0:0,0:0:0:0:
263,294,76310,1,2,1:2:0:0:
263,294,76477,2,0,L|330:308,1,50,10|2,0:0|0:0,0:0:0:0:
359,285,76810,6,0,L|407:295,1,50,2|0,1:2|0:0,0:0:0:0:
451,320,77144,2,0,L|426:200,1,100,10|2,0:0|1:2,0:0:0:0:
421,172,77644,1,2,1:2:0:0:
344,108,77977,2,0,P|404:71|445:76,2,100,2|2|2,1:2|1:2|0:0,0:0:0:0:
299,131,78810,2,0,P|265:125|238:109,1,50,2|2,1:2|1:2,0:0:0:0:
207,93,79144,2,0,P|173:99|146:115,1,50,10|2,0:0|0:0,0:0:0:0:
118,134,79477,6,0,L|11:113,2,100,6|10|2,1:2|0:0|1:2,0:0:0:0:
164,231,80477,1,10,0:0:0:0:
164,231,80643,2,0,L|232:217,1,50,2|0,1:2|0:0,0:0:0:0:
247,184,80977,2,0,L|300:192,1,50,2|8,1:2|0:0,0:0:0:0:
345,199,81310,1,2,0:0:0:0:
412,280,81643,1,2,1:2:0:0:
412,280,81810,2,0,P|409:312|397:333,1,50,10|2,0:0|0:0,0:0:0:0:
288,369,82310,6,0,P|252:356|225:333,1,55.0000016784668,2|2,1:1|1:1,0:0:0:0:
132,375,82810,2,0,P|115:341|112:306,1,55.0000016784668,2|2,1:1|1:1,0:0:0:0:
17,268,83310,2,0,P|29:232|52:205,1,55.0000016784668,2|2,1:1|1:1,0:0:0:0:
36,108,83810,2,0,P|69:91|104:88,1,55.0000016784668,2|2,1:1|1:1,0:0:0:0:
182,142,84310,1,2,1:1:0:0:
262,66,84644,5,6,1:2:0:0:
256,192,84810,12,0,85810,0:0:0:0:
