osu file format v14

[General]
AudioFilename: audio.mp3
AudioLeadIn: 0
PreviewTime: 56533
Countdown: 0
SampleSet: Normal
StackLeniency: 0.7
Mode: 1
LetterboxInBreaks: 0
WidescreenStoryboard: 0

[Editor]
Bookmarks: 2033
DistanceSpacing: 0.8
BeatDivisor: 4
GridSize: 32
TimelineZoom: 1.3

[Metadata]
Title:Mey
TitleUnicode:Mey
Artist:MODEL
ArtistUnicode:MODEL
Creator:zigizigiefe
Version:Muzukashii
Source:
Tags:kerem sedef fatma turgut turkish a due carmen can temiz okan isik serkan guruzumcu askin colak cut version
BeatmapID:1278735
BeatmapSetID:605230

[Difficulty]
HPDrainRate:7
CircleSize:2
OverallDifficulty:4
ApproachRate:5
SliderMultiplier:1.4
SliderTickRate:1

[Events]
//Background and Video events
0,0,"MEY.jpg",0,0
//Break Periods
//Storyboard Layer 0 (Background)
//Storyboard Layer 1 (Fail)
//Storyboard Layer 2 (Pass)
//Storyboard Layer 3 (Foreground)
//Storyboard Sound Samples

[TimingPoints]
533,500,4,1,0,30,1,0
8408,-100,4,1,0,40,0,0
16408,-100,4,1,0,50,0,0
24408,-100,4,1,0,70,0,0
56408,-100,4,1,0,80,0,0
56533,-100,4,1,0,80,0,1
88533,-100,4,1,0,80,0,0

[HitObjects]
192,160,533,5,0,0:0:0:0:
192,160,908,1,0,0:0:0:0:
192,160,1283,1,8,0:0:0:0:
192,160,2033,1,8,0:0:0:0:
192,160,2283,1,8,0:0:0:0:
192,160,2533,1,0,0:0:0:0:
192,160,2908,1,0,0:0:0:0:
192,160,3283,1,8,0:0:0:0:
192,160,4033,1,0,0:0:0:0:
192,160,4533,1,0,0:0:0:0:
192,160,4908,1,0,0:0:0:0:
192,160,5283,1,8,0:0:0:0:
192,160,6033,1,8,0:0:0:0:
192,160,6283,1,8,0:0:0:0:
192,160,6533,1,0,0:0:0:0:
192,160,6908,1,0,0:0:0:0:
192,160,7283,1,8,0:0:0:0:
192,160,8033,1,0,0:0:0:0:
192,160,8283,1,8,0:0:0:0:
288,192,8533,1,0,0:0:0:0:
256,128,9533,1,8,0:0:0:0:
256,128,10033,1,0,0:0:0:0:
288,192,10533,1,8,0:0:0:0:
32,160,11033,1,0,0:0:0:0:
288,128,11283,1,8,0:0:0:0:
256,128,11533,1,8,0:0:0:0:
160,160,12033,1,0,0:0:0:0:
256,128,12283,1,8,0:0:0:0:
192,160,12533,1,0,0:0:0:0:
192,160,12908,1,0,0:0:0:0:
192,160,13283,1,8,0:0:0:0:
192,160,14033,1,8,0:0:0:0:
192,160,14283,1,8,0:0:0:0:
192,160,14533,1,0,0:0:0:0:
192,160,14908,1,0,0:0:0:0:
192,160,15283,1,8,0:0:0:0:
192,160,15783,1,8,0:0:0:0:
192,160,15908,1,8,0:0:0:0:
192,160,16033,1,8,0:0:0:0:
192,160,16533,1,4,0:0:0:0:
256,160,17033,1,0,0:0:0:0:
256,160,17283,1,8,0:0:0:0:
256,160,17783,1,0,0:0:0:0:
256,160,18033,1,8,0:0:0:0:
160,224,18283,1,8,0:0:0:0:
256,160,18533,1,0,0:0:0:0:
256,160,19033,1,0,0:0:0:0:
224,160,19283,1,8,0:0:0:0:
256,160,19533,1,8,0:0:0:0:
256,160,19783,1,0,0:0:0:0:
128,128,20033,1,8,0:0:0:0:
192,160,20533,1,0,0:0:0:0:
192,160,20908,1,0,0:0:0:0:
192,160,21283,1,8,0:0:0:0:
192,160,22033,1,8,0:0:0:0:
192,160,22283,1,8,0:0:0:0:
192,160,22533,1,0,0:0:0:0:
192,160,22908,1,0,0:0:0:0:
192,160,23283,1,8,0:0:0:0:
192,160,23533,1,8,0:0:0:0:
192,160,23658,1,8,0:0:0:0:
192,160,23783,1,8,0:0:0:0:
192,192,24033,1,0,0:0:0:0:
320,160,24533,1,4,0:0:0:0:
320,160,25033,1,8,0:0:0:0:
320,160,25283,1,0,0:0:0:0:
192,128,25783,1,0,0:0:0:0:
192,128,26033,1,8,0:0:0:0:
192,128,26533,1,0,0:0:0:0:
192,128,27033,1,8,0:0:0:0:
192,128,27283,1,8,0:0:0:0:
192,128,27783,1,0,0:0:0:0:
128,256,28033,1,8,0:0:0:0:
192,192,28283,1,8,0:0:0:0:
192,192,28533,1,0,0:0:0:0:
192,192,29033,1,8,0:0:0:0:
192,192,29283,1,0,0:0:0:0:
192,192,29783,1,0,0:0:0:0:
192,192,30033,1,8,0:0:0:0:
192,192,30283,1,8,0:0:0:0:
192,192,30533,1,0,0:0:0:0:
192,192,31033,1,8,0:0:0:0:
320,160,31283,1,8,0:0:0:0:
192,192,31533,1,0,0:0:0:0:
320,160,32033,1,8,0:0:0:0:
320,160,32533,1,0,0:0:0:0:
320,160,33033,1,0,0:0:0:0:
320,160,33283,1,8,0:0:0:0:
320,160,33783,1,0,0:0:0:0:
320,160,34033,1,8,0:0:0:0:
192,224,34283,1,0,0:0:0:0:
288,160,34533,1,0,0:0:0:0:
320,160,35033,1,0,0:0:0:0:
288,160,35283,1,8,0:0:0:0:
320,160,35783,1,0,0:0:0:0:
320,160,36033,1,8,0:0:0:0:
320,160,36283,1,8,0:0:0:0:
320,160,36533,1,0,0:0:0:0:
320,160,37283,1,8,0:0:0:0:
320,160,38033,1,8,0:0:0:0:
320,160,38283,1,0,0:0:0:0:
320,160,38533,1,8,0:0:0:0:
320,160,39283,1,8,0:0:0:0:
320,160,40033,1,8,0:0:0:0:
96,160,40283,1,8,0:0:0:0:
320,160,40533,1,0,0:0:0:0:
320,160,41033,1,0,0:0:0:0:
320,160,41283,1,8,0:0:0:0:
160,224,41783,1,0,0:0:0:0:
192,128,42033,1,8,0:0:0:0:
192,128,42533,1,8,0:0:0:0:
192,128,43033,1,0,0:0:0:0:
192,128,43283,1,8,0:0:0:0:
192,192,43783,1,0,0:0:0:0:
160,256,44033,1,8,0:0:0:0:
192,192,44283,1,8,0:0:0:0:
192,192,44533,1,0,0:0:0:0:
192,192,45033,1,0,0:0:0:0:
192,192,45283,1,8,0:0:0:0:
192,192,45533,1,0,0:0:0:0:
192,192,46033,1,8,0:0:0:0:
192,192,46533,1,8,0:0:0:0:
192,192,46783,1,8,0:0:0:0:
192,192,47033,1,0,0:0:0:0:
192,192,47283,1,8,0:0:0:0:
192,192,47533,1,0,0:0:0:0:
320,160,48033,1,8,0:0:0:0:
320,160,48283,1,8,0:0:0:0:
320,160,48533,1,0,0:0:0:0:
320,160,49033,1,0,0:0:0:0:
320,160,49283,1,8,0:0:0:0:
320,160,49783,1,0,0:0:0:0:
320,160,50033,1,8,0:0:0:0:
288,160,50533,1,8,0:0:0:0:
320,160,50783,1,0,0:0:0:0:
288,160,51033,1,0,0:0:0:0:
128,192,51283,1,8,0:0:0:0:
320,160,51533,1,0,0:0:0:0:
320,160,52033,1,8,0:0:0:0:
320,160,52283,1,8,0:0:0:0:
320,160,52533,1,0,0:0:0:0:
320,160,53283,1,8,0:0:0:0:
128,128,53783,1,0,0:0:0:0:
320,160,54033,1,8,0:0:0:0:
320,160,54533,1,4,0:0:0:0:
224,192,56533,1,4,0:0:0:0:
224,192,56908,1,8,0:0:0:0:
224,192,57283,1,0,0:0:0:0:
224,192,57783,1,0,0:0:0:0:
224,192,58033,1,8,0:0:0:0:
224,192,58533,1,0,0:0:0:0:
224,192,58908,1,8,0:0:0:0:
224,192,59283,1,0,0:0:0:0:
224,192,59533,1,8,0:0:0:0:
192,64,59783,1,0,0:0:0:0:
224,192,60033,1,8,0:0:0:0:
224,192,60533,1,0,0:0:0:0:
224,192,60908,1,8,0:0:0:0:
224,192,61283,1,0,0:0:0:0:
224,192,61783,1,0,0:0:0:0:
224,192,62033,1,8,0:0:0:0:
224,192,62533,1,0,0:0:0:0:
224,192,62908,1,8,0:0:0:0:
192,224,63283,1,0,0:0:0:0:
224,224,63533,1,8,0:0:0:0:
160,128,63783,1,0,0:0:0:0:
224,224,64033,1,8,0:0:0:0:
224,224,64533,1,4,0:0:0:0:
224,192,64908,1,8,0:0:0:0:
224,192,65283,1,0,0:0:0:0:
224,192,65783,1,0,0:0:0:0:
224,192,66033,1,8,0:0:0:0:
224,192,66533,1,0,0:0:0:0:
224,192,66908,1,8,0:0:0:0:
224,192,67283,1,0,0:0:0:0:
128,32,67533,1,8,0:0:0:0:
224,160,68033,1,8,0:0:0:0:
224,192,68283,1,8,0:0:0:0:
224,192,68533,1,0,0:0:0:0:
192,192,69033,1,8,0:0:0:0:
192,192,69283,1,0,0:0:0:0:
192,192,69533,1,0,0:0:0:0:
192,96,69658,1,0,0:0:0:0:
192,96,69783,1,0,0:0:0:0:
224,192,70033,1,8,0:0:0:0:
224,192,70533,1,0,0:0:0:0:
224,192,70908,1,8,0:0:0:0:
256,192,71283,1,0,0:0:0:0:
224,192,71783,1,0,0:0:0:0:
224,192,72033,1,8,0:0:0:0:
224,192,72533,1,4,0:0:0:0:
224,192,72908,1,8,0:0:0:0:
224,192,73283,1,0,0:0:0:0:
224,192,73783,1,0,0:0:0:0:
224,192,74033,1,8,0:0:0:0:
224,192,74533,1,0,0:0:0:0:
224,192,74908,1,8,0:0:0:0:
224,192,75283,1,0,0:0:0:0:
224,192,75533,1,8,0:0:0:0:
160,224,75783,1,0,0:0:0:0:
224,192,76033,1,8,0:0:0:0:
224,192,76533,1,0,0:0:0:0:
224,192,76908,1,8,0:0:0:0:
224,192,77283,1,0,0:0:0:0:
224,192,77533,1,0,0:0:0:0:
288,192,78033,1,8,0:0:0:0:
224,192,78533,1,0,0:0:0:0:
224,192,78908,1,8,0:0:0:0:
192,224,79283,1,0,0:0:0:0:
224,224,79533,1,8,0:0:0:0:
160,128,79783,1,0,0:0:0:0:
224,224,80033,1,8,0:0:0:0:
224,224,80533,1,4,0:0:0:0:
224,192,80908,1,8,0:0:0:0:
224,192,81283,1,0,0:0:0:0:
224,192,81783,1,8,0:0:0:0:
224,192,82033,1,8,0:0:0:0:
224,192,82533,1,0,0:0:0:0:
224,192,82908,1,8,0:0:0:0:
224,192,83283,1,0,0:0:0:0:
224,192,83533,1,8,0:0:0:0:
224,192,84033,1,8,0:0:0:0:
224,192,84283,1,8,0:0:0:0:
224,192,84533,1,0,0:0:0:0:
192,192,84908,1,8,0:0:0:0:
192,192,85283,1,0,0:0:0:0:
192,192,85783,1,0,0:0:0:0:
224,192,86033,1,8,0:0:0:0:
32,192,86283,1,8,0:0:0:0:
224,192,86533,1,0,0:0:0:0:
224,192,86908,1,8,0:0:0:0:
256,192,87283,1,0,0:0:0:0:
224,192,87533,5,8,0:0:0:0:
224,192,88033,1,0,0:0:0:0:
224,192,88158,1,0,0:0:0:0:
224,192,88283,1,0,0:0:0:0:
224,192,88533,5,12,0:0:0:0:
224,192,88908,1,8,0:0:0:0:
224,192,89283,1,0,0:0:0:0:
224,192,89783,1,0,0:0:0:0:
224,192,90033,1,8,0:0:0:0:
224,192,90533,1,0,0:0:0:0:
224,192,90908,1,8,0:0:0:0:
224,192,91283,1,0,0:0:0:0:
224,192,91533,1,8,0:0:0:0:
224,192,92533,1,0,0:0:0:0:
224,192,92908,1,8,0:0:0:0:
224,192,93283,1,0,0:0:0:0:
224,224,93783,1,8,0:0:0:0:
224,224,94033,1,8,0:0:0:0:
224,192,94533,1,0,0:0:0:0:
224,192,94908,1,8,0:0:0:0:
192,224,95283,1,0,0:0:0:0:
224,224,95533,1,8,0:0:0:0:
224,224,96533,1,8,0:0:0:0:
224,224,96908,1,8,0:0:0:0:
224,96,97283,1,0,0:0:0:0:
64,192,97533,1,0,0:0:0:0:
224,192,98033,1,8,0:0:0:0:
224,192,98533,1,0,0:0:0:0:
224,192,98908,1,8,0:0:0:0:
224,192,99283,1,0,0:0:0:0:
224,192,99533,1,8,0:0:0:0:
224,192,100033,1,0,0:0:0:0:
224,192,100533,1,8,0:0:0:0:
192,192,100908,1,8,0:0:0:0:
192,192,101283,1,0,0:0:0:0:
224,192,101533,1,8,0:0:0:0:
224,192,102033,1,8,0:0:0:0:
224,192,102533,1,0,0:0:0:0:
224,192,102908,1,8,0:0:0:0:
256,192,103283,1,0,0:0:0:0:
224,192,103533,1,8,0:0:0:0:
224,192,104033,1,0,0:0:0:0:
224,192,104533,1,0,0:0:0:0:
224,192,104908,1,8,0:0:0:0:
224,192,105283,1,0,0:0:0:0:
224,192,105533,1,8,0:0:0:0:
224,192,106033,1,8,0:0:0:0:
224,192,106533,1,0,0:0:0:0:
224,192,106908,1,8,0:0:0:0:
224,192,107283,1,0,0:0:0:0:
224,192,107533,1,8,0:0:0:0:
224,192,108033,1,8,0:0:0:0:
224,192,108533,1,0,0:0:0:0:
224,192,108908,1,8,0:0:0:0:
224,192,109283,1,0,0:0:0:0:
224,192,109783,1,0,0:0:0:0:
224,192,110033,1,8,0:0:0:0:
224,192,110533,1,0,0:0:0:0:
