osu file format v14

[General]
AudioFilename: audio.mp3
AudioLeadIn: 0
PreviewTime: 56533
Countdown: 0
SampleSet: Normal
StackLeniency: 0.7
Mode: 1
LetterboxInBreaks: 0
WidescreenStoryboard: 0

[Editor]
DistanceSpacing: 1.2
BeatDivisor: 2
GridSize: 32
TimelineZoom: 0.9999999

[Metadata]
Title:Mey
TitleUnicode:Mey
Artist:MODEL
ArtistUnicode:MODEL
Creator:zigizigiefe
Version:Futsuu
Source:
Tags:kerem sedef fatma turgut turkish a due carmen can temiz okan isik serkan guruzumcu askin colak cut version
BeatmapID:1278734
BeatmapSetID:605230

[Difficulty]
HPDrainRate:8
CircleSize:2
OverallDifficulty:3
ApproachRate:5
SliderMultiplier:1.4
SliderTickRate:1

[Events]
//Background and Video events
0,0,"MEY.jpg",0,0
//Break Periods
//Storyboard Layer 0 (Background)
//Storyboard Layer 1 (Fail)
//Storyboard Layer 2 (Pass)
//Storyboard Layer 3 (Foreground)
//Storyboard Sound Samples

[TimingPoints]
533,500,4,1,0,30,1,0
8408,-100,4,1,0,40,0,0
16408,-100,4,1,0,50,0,0
24408,-100,4,1,0,70,0,0
56408,-100,4,1,0,80,0,0
56533,-100,4,1,0,80,0,1
88533,-100,4,1,0,80,0,0

[HitObjects]
192,160,533,5,0,0:0:0:0:
192,160,1283,1,0,0:0:0:0:
192,160,2033,1,8,0:0:0:0:
192,160,2533,1,0,0:0:0:0:
192,160,3283,1,0,0:0:0:0:
192,160,4033,1,8,0:0:0:0:
192,160,4533,1,0,0:0:0:0:
192,160,5283,1,0,0:0:0:0:
192,160,6033,1,8,0:0:0:0:
192,160,6533,1,0,0:0:0:0:
192,160,7283,1,0,0:0:0:0:
192,160,8033,1,8,0:0:0:0:
288,192,8533,1,0,0:0:0:0:
256,128,9533,1,8,0:0:0:0:
288,192,10533,1,0,0:0:0:0:
32,160,11033,1,0,0:0:0:0:
256,128,11533,1,8,0:0:0:0:
192,160,12533,1,0,0:0:0:0:
192,160,13283,1,0,0:0:0:0:
192,160,14033,1,8,0:0:0:0:
192,160,14533,1,0,0:0:0:0:
192,160,15283,1,0,0:0:0:0:
192,160,15783,1,0,0:0:0:0:
192,160,16033,1,8,0:0:0:0:
192,160,16533,1,4,0:0:0:0:
256,160,17283,1,8,0:0:0:0:
160,160,17783,1,0,0:0:0:0:
256,160,18033,1,8,0:0:0:0:
256,160,18533,1,0,0:0:0:0:
256,160,19033,1,0,0:0:0:0:
256,160,19533,1,8,0:0:0:0:
160,224,20033,1,8,0:0:0:0:
192,160,20533,1,0,0:0:0:0:
192,160,21283,1,8,0:0:0:0:
192,160,22033,1,8,0:0:0:0:
192,160,22533,1,0,0:0:0:0:
128,160,23283,1,8,0:0:0:0:
192,160,23783,1,8,0:0:0:0:
320,224,24033,1,0,0:0:0:0:
320,160,24533,1,4,0:0:0:0:
320,160,25283,1,8,0:0:0:0:
192,128,26033,1,8,0:0:0:0:
192,128,26533,1,0,0:0:0:0:
192,128,27033,1,8,0:0:0:0:
224,224,27283,1,0,0:0:0:0:
160,160,27783,1,0,0:0:0:0:
192,128,28033,1,8,0:0:0:0:
192,192,28533,1,0,0:0:0:0:
192,192,29283,1,8,0:0:0:0:
192,192,30033,1,8,0:0:0:0:
192,192,30533,1,0,0:0:0:0:
192,192,31533,1,0,0:0:0:0:
320,160,32033,1,8,0:0:0:0:
320,160,32533,1,0,0:0:0:0:
320,160,33283,1,8,0:0:0:0:
320,160,34033,1,8,0:0:0:0:
288,160,34533,1,0,0:0:0:0:
320,160,35533,1,8,0:0:0:0:
320,160,36033,1,8,0:0:0:0:
320,160,36533,1,0,0:0:0:0:
160,192,37283,1,8,0:0:0:0:
320,160,38033,1,8,0:0:0:0:
320,160,38533,1,0,0:0:0:0:
320,160,39283,1,8,0:0:0:0:
320,160,40033,1,8,0:0:0:0:
320,160,40533,1,0,0:0:0:0:
320,160,41283,1,8,0:0:0:0:
192,128,42033,1,8,0:0:0:0:
192,128,42533,1,0,0:0:0:0:
192,160,43033,1,8,0:0:0:0:
32,160,43283,1,8,0:0:0:0:
192,128,43533,1,0,0:0:0:0:
192,160,44033,1,8,0:0:0:0:
192,192,44533,1,0,0:0:0:0:
192,192,45533,1,8,0:0:0:0:
192,192,46033,1,8,0:0:0:0:
192,192,46283,1,0,0:0:0:0:
288,288,46533,1,8,0:0:0:0:
192,192,47533,1,0,0:0:0:0:
128,128,47783,1,0,0:0:0:0:
320,160,48033,1,8,0:0:0:0:
320,160,48533,1,0,0:0:0:0:
320,160,49283,1,8,0:0:0:0:
320,160,50033,1,8,0:0:0:0:
288,160,50533,1,0,0:0:0:0:
320,160,51533,1,8,0:0:0:0:
320,160,52033,1,8,0:0:0:0:
320,160,52533,1,0,0:0:0:0:
160,192,53283,1,8,0:0:0:0:
320,160,54033,1,8,0:0:0:0:
320,160,54533,1,4,0:0:0:0:
224,192,56533,1,4,0:0:0:0:
224,192,57283,1,0,0:0:0:0:
256,192,57783,1,0,0:0:0:0:
224,192,58033,1,8,0:0:0:0:
224,192,58533,1,0,0:0:0:0:
160,160,59533,1,8,0:0:0:0:
224,192,60033,1,8,0:0:0:0:
224,192,60533,1,0,0:0:0:0:
224,192,61283,1,0,0:0:0:0:
224,192,61783,1,0,0:0:0:0:
224,192,62033,1,8,0:0:0:0:
224,192,62533,1,0,0:0:0:0:
192,224,63533,1,8,0:0:0:0:
224,224,64033,1,8,0:0:0:0:
224,224,64533,1,4,0:0:0:0:
224,192,65283,1,0,0:0:0:0:
224,192,65783,1,0,0:0:0:0:
224,192,66033,1,8,0:0:0:0:
224,192,66533,1,0,0:0:0:0:
224,192,67533,1,8,0:0:0:0:
224,192,68033,1,8,0:0:0:0:
64,192,68283,1,8,0:0:0:0:
224,192,68533,1,0,0:0:0:0:
192,192,69033,1,0,0:0:0:0:
96,224,69533,1,0,0:0:0:0:
224,192,69783,1,8,0:0:0:0:
224,192,70533,1,8,0:0:0:0:
256,192,71283,1,0,0:0:0:0:
224,192,72033,1,8,0:0:0:0:
224,192,72533,1,4,0:0:0:0:
224,192,73283,1,0,0:0:0:0:
192,192,73783,1,0,0:0:0:0:
224,192,74033,1,8,0:0:0:0:
224,192,74533,1,0,0:0:0:0:
224,192,75533,1,8,0:0:0:0:
224,192,76033,1,8,0:0:0:0:
224,192,76533,1,0,0:0:0:0:
224,192,77283,1,0,0:0:0:0:
224,192,77783,1,0,0:0:0:0:
224,192,78033,1,8,0:0:0:0:
224,192,78533,1,0,0:0:0:0:
160,224,79533,1,8,0:0:0:0:
192,224,80033,1,8,0:0:0:0:
224,224,80533,1,4,0:0:0:0:
224,192,81283,1,0,0:0:0:0:
224,192,81783,1,0,0:0:0:0:
224,192,82033,1,8,0:0:0:0:
224,192,82533,1,0,0:0:0:0:
224,192,83533,1,8,0:0:0:0:
224,192,84033,1,8,0:0:0:0:
192,192,84283,1,8,0:0:0:0:
224,192,84533,1,0,0:0:0:0:
192,192,85283,1,0,0:0:0:0:
160,256,85783,1,0,0:0:0:0:
224,192,86033,1,8,0:0:0:0:
224,192,86533,1,0,0:0:0:0:
256,192,87283,1,0,0:0:0:0:
96,128,87533,1,8,0:0:0:0:
224,192,88033,5,8,0:0:0:0:
192,224,88283,1,0,0:0:0:0:
224,192,88533,5,12,0:0:0:0:
64,224,89283,1,0,0:0:0:0:
224,192,90033,1,8,0:0:0:0:
224,192,90533,1,0,0:0:0:0:
224,192,91533,1,8,0:0:0:0:
224,192,92533,1,8,0:0:0:0:
224,192,93283,1,0,0:0:0:0:
224,192,94033,1,8,0:0:0:0:
224,192,94533,1,0,0:0:0:0:
224,224,95533,1,8,0:0:0:0:
224,224,96033,1,0,0:0:0:0:
224,224,96533,1,8,0:0:0:0:
192,224,97283,1,0,0:0:0:0:
224,192,97533,1,0,0:0:0:0:
224,192,98033,1,8,0:0:0:0:
224,192,98533,1,0,0:0:0:0:
128,160,99283,1,8,0:0:0:0:
224,192,99533,1,8,0:0:0:0:
224,192,100033,1,0,0:0:0:0:
224,192,100533,1,8,0:0:0:0:
192,192,101533,1,8,0:0:0:0:
224,192,102533,1,0,0:0:0:0:
160,96,103283,1,0,0:0:0:0:
256,192,103533,1,8,0:0:0:0:
224,192,104033,1,0,0:0:0:0:
224,192,104533,1,8,0:0:0:0:
224,192,105533,1,8,0:0:0:0:
224,192,106533,1,0,0:0:0:0:
160,96,107283,1,0,0:0:0:0:
224,192,107533,1,8,0:0:0:0:
224,192,108033,1,0,0:0:0:0:
224,192,108533,1,8,0:0:0:0:
224,192,109283,1,0,0:0:0:0:
224,192,110033,1,8,0:0:0:0:
224,192,110533,1,0,0:0:0:0:
