osu file format v14

[General]
AudioFilename: audio.mp3
AudioLeadIn: 0
PreviewTime: 42454
Countdown: 0
SampleSet: Soft
StackLeniency: 0.7
Mode: 0
LetterboxInBreaks: 0
WidescreenStoryboard: 0

[Editor]
DistanceSpacing: 0.9
BeatDivisor: 12
GridSize: 4
TimelineZoom: 1.7

[Metadata]
Title:Antidepresan Gulumsemesi
TitleUnicode:Antidepresan Gülümsemesi
Artist:MODEL
ArtistUnicode:MODEL
Creator:Entry
Version:Insane
Source:
Tags:a due carmen turkish pop rock levlâ'nın levlanin hikayesi cut version fatma turgut can temiz okan ışık isik kerem sedef
BeatmapID:1874662
BeatmapSetID:897329

[Difficulty]
HPDrainRate:6
CircleSize:4.2
OverallDifficulty:7.5
ApproachRate:9
SliderMultiplier:3.39999990463257
SliderTickRate:1

[Events]
//Background and Video events
0,0,"20.jpg",0,0
//Break Periods
//Storyboard Layer 0 (Background)
//Storyboard Layer 1 (Fail)
//Storyboard Layer 2 (Pass)
//Storyboard Layer 3 (Foreground)
//Storyboard Sound Samples

[TimingPoints]
538,1000,2,2,1,45,1,0
538,-116.009280742459,3,2,1,45,0,0
12538,-101.419878296146,3,2,1,55,0,0
14954,-101.419878296146,3,2,1,5,0,0
15038,-101.419878296146,3,2,1,55,0,0
24204,-116.009280742459,3,2,1,55,0,0
24454,-116.009280742459,3,2,1,5,0,0
24538,-90.2527075812274,3,2,1,65,0,0
25538,-116.009280742459,3,2,1,65,0,0
26038,-90.2527075812274,3,2,1,65,0,0
26204,-90.2527075812274,3,2,1,25,0,0
26538,-90.2527075812274,3,2,1,65,0,0
27538,-116.009280742459,3,2,1,65,0,0
28204,-81.4332247557003,3,2,1,65,0,0
28454,-81.4332247557003,3,2,1,5,0,0
28538,-90.2527075812274,3,2,1,65,0,0
32204,-81.4332247557003,3,2,1,65,0,0
32454,-81.4332247557003,3,2,1,5,0,0
32538,-90.2527075812274,3,2,1,65,0,0
34038,-90.2527075812274,3,2,1,55,0,0
34204,-90.2527075812274,3,2,1,25,0,0
34538,-90.2527075812274,3,2,1,65,0,0
36204,-81.4332247557003,3,2,1,65,0,0
36454,-81.4332247557003,3,2,1,5,0,0
36538,-90.2527075812274,3,2,1,65,0,0
40204,-116.009280742459,3,2,1,65,0,0
40454,-116.009280742459,3,2,1,5,0,0
40538,-90.2527075812274,3,2,1,65,0,0
42538,-81.1688311688312,3,2,1,85,0,1
44038,-81.1688311688312,3,2,1,55,0,1
44538,-81.1688311688312,3,2,1,85,0,1
46038,-81.1688311688312,3,2,1,55,0,1
46538,-81.1688311688312,3,2,1,85,0,1
47704,-81.1688311688312,3,2,1,55,0,1
48538,-81.1688311688312,3,2,1,85,0,1
49871,-81.1688311688312,3,2,1,55,0,1
50204,-81.1688311688312,3,2,1,40,0,1
50538,-81.1688311688312,3,2,1,85,0,1
52038,-81.1688311688312,3,2,1,55,0,1
52538,-81.1688311688312,3,2,1,85,0,1
54038,-81.1688311688312,3,2,1,55,0,1
54538,-81.1688311688312,3,2,1,85,0,1
56038,-81.1688311688312,3,2,1,55,0,1
56538,-81.1688311688312,3,2,1,85,0,1
57871,-81.1688311688312,3,2,1,55,0,1
58204,-81.1688311688312,3,2,1,40,0,1
58538,-81.1688311688312,3,2,1,85,0,1
60038,-81.1688311688312,3,2,1,55,0,1
60538,-81.1688311688312,3,2,1,85,0,1
62038,-81.1688311688312,3,2,1,55,0,1
62538,-81.1688311688312,3,2,1,85,0,1
62954,-81.1688311688312,3,2,1,5,0,1
63038,-81.1688311688312,3,2,1,85,0,1
63704,-81.1688311688312,3,2,1,55,0,1
64538,-81.1688311688312,3,2,1,85,0,1
65871,-81.1688311688312,3,2,1,55,0,1
66538,-81.1688311688312,3,2,1,85,0,1
68038,-81.1688311688312,3,2,1,55,0,1
68538,-81.1688311688312,3,2,1,85,0,1
70038,-81.1688311688312,3,2,1,55,0,1
70538,-81.1688311688312,3,2,1,85,0,1
72038,-81.1688311688312,3,2,1,55,0,1
72538,-81.1688311688312,3,2,1,85,0,1
73871,-81.1688311688312,3,2,1,55,0,1
74538,-81.1688311688312,3,2,1,85,0,1
75871,-81.1688311688312,3,2,1,55,0,1
76204,-81.1688311688312,3,2,1,85,0,1
76538,-81.1688311688312,3,2,1,85,0,0
77788,-81.1688311688312,3,2,1,5,0,0
77871,-81.1688311688312,3,2,1,85,0,0
78121,-81.1688311688312,3,2,1,5,0,0
78204,-81.1688311688312,3,2,1,85,0,0
78454,-81.1688311688312,3,2,1,5,0,0
78538,-81.1688311688312,3,2,1,85,0,0
78788,-81.1688311688312,3,2,1,5,0,0
78871,-81.1688311688312,3,2,1,85,0,0
79121,-81.1688311688312,3,2,1,5,0,0
79204,-81.1688311688312,3,2,1,85,0,0
79788,-81.1688311688312,3,2,1,5,0,0
79871,-81.1688311688312,3,2,1,85,0,0
80121,-81.1688311688312,3,2,1,5,0,0
80204,-81.1688311688312,3,2,1,85,0,0
80454,-81.1688311688312,3,2,1,5,0,0
80538,-81.1688311688312,3,2,1,85,0,0
81788,-81.1688311688312,3,2,1,5,0,0
81871,-81.1688311688312,3,2,1,85,0,0
82121,-81.1688311688312,3,2,1,5,0,0
82204,-81.1688311688312,3,2,1,85,0,0
82454,-81.1688311688312,3,2,1,5,0,0
82538,-81.1688311688312,3,2,1,85,0,0
82788,-81.1688311688312,3,2,1,5,0,0
82871,-81.1688311688312,3,2,1,85,0,0
83121,-81.1688311688312,3,2,1,5,0,0
83204,-81.1688311688312,3,2,1,85,0,0
83788,-81.1688311688312,3,2,1,5,0,0
83871,-81.1688311688312,3,2,1,85,0,0
84121,-81.1688311688312,3,2,1,5,0,0
84204,-81.1688311688312,3,2,1,85,0,0
84454,-81.1688311688312,3,2,1,5,0,0
84538,-81.1688311688312,3,2,1,85,0,0
85788,-81.1688311688312,3,2,1,5,0,0
85871,-81.1688311688312,3,2,1,85,0,0
86121,-81.1688311688312,3,2,1,5,0,0
86204,-81.1688311688312,3,2,1,85,0,0
86454,-81.1688311688312,3,2,1,5,0,0
86538,-81.1688311688312,3,2,1,85,0,0
86788,-81.1688311688312,3,2,1,5,0,0
86871,-81.1688311688312,3,2,1,85,0,0
87121,-81.1688311688312,3,2,1,5,0,0
87204,-81.1688311688312,3,2,1,85,0,0
87788,-81.1688311688312,3,2,1,5,0,0
87871,-81.1688311688312,3,2,1,85,0,0
88121,-81.1688311688312,3,2,1,5,0,0
88204,-81.1688311688312,3,2,1,85,0,0
88454,-81.1688311688312,3,2,1,5,0,0
88538,-81.1688311688312,3,2,1,85,0,0
89788,-81.1688311688312,3,2,1,5,0,0
89871,-81.1688311688312,3,2,1,85,0,0
90121,-81.1688311688312,3,2,1,5,0,0
90204,-81.1688311688312,3,2,1,85,0,0
90454,-81.1688311688312,3,2,1,5,0,0
90538,-81.1688311688312,3,2,1,85,0,0
90788,-81.1688311688312,3,2,1,5,0,0
90871,-81.1688311688312,3,2,1,85,0,0
91121,-81.1688311688312,3,2,1,5,0,0
91204,-81.1688311688312,3,2,1,85,0,0
91788,-81.1688311688312,3,2,1,5,0,0
91871,-81.1688311688312,3,2,1,85,0,0
92121,-81.1688311688312,3,2,1,5,0,0
92204,-81.1688311688312,3,2,1,85,0,0
92454,-81.1688311688312,3,2,1,5,0,0
92538,-81.1688311688312,3,2,1,75,0,0
96038,-81.1688311688312,3,2,1,5,0,0

[Colours]
Combo1 : 137,97,61
Combo2 : 122,149,197
Combo3 : 54,96,137

[HitObjects]
296,20,538,6,0,L|288:132,1,97.9999970092774,2|0,0:0|0:0,0:0:0:0:
367,161,1038,1,0,0:0:0:0:
367,161,1204,2,0,L|371:99,1,48.9999985046387
362,239,1538,6,0,L|469:245,1,97.9999970092774,2|0,0:0|0:0,0:0:0:0:
436,334,2038,1,0,0:0:0:0:
436,334,2204,2,0,L|489:337,1,48.9999985046387
353,329,2538,5,2,0:0:0:0:
220,318,2871,2,0,L|226:383,1,48.9999985046387
147,288,3204,2,0,L|142:239,1,48.9999985046387
55,168,3538,6,0,L|45:265,1,97.9999970092774,2|0,0:0|0:0,0:0:0:0:
72,354,4038,1,0,0:0:0:0:
72,354,4204,2,0,L|124:358,1,48.9999985046387
199,310,4538,6,0,L|302:319,1,97.9999970092774,2|0,0:0|0:0,0:0:0:0:
328,240,5038,1,0,0:0:0:0:
328,240,5204,2,0,L|279:235,1,48.9999985046387
409,245,5538,5,2,0:0:0:0:
359,129,5871,2,0,L|310:124,1,48.9999985046387
199,75,6204,2,0,L|247:79,1,48.9999985046387
154,143,6538,6,0,L|46:131,1,97.9999970092774,2|0,0:0|0:0,0:0:0:0:
33,59,7038,1,0,0:0:0:0:
33,59,7204,2,0,L|38:10,1,48.9999985046387
125,18,7538,6,0,L|114:121,1,97.9999970092774,2|0,0:0|0:0,0:0:0:0:
195,145,8038,1,0,0:0:0:0:
195,145,8204,2,0,L|199:96,1,48.9999985046387
188,224,8538,5,2,0:0:0:0:
252,341,8871,2,0,L|300:345,1,48.9999985046387
373,322,9204,2,0,L|421:326,1,48.9999985046387
503,329,9538,5,2,0:0:0:0:
420,197,9871,2,0,L|416:245,1,48.9999985046387
489,160,10204,2,0,L|485:112,1,48.9999985046387
478,31,10538,6,0,L|380:39,1,97.9999970092774,2|0,0:0|0:0,0:0:0:0:
355,123,11038,1,0,0:0:0:0:
355,123,11204,2,0,L|403:118,1,48.9999985046387
273,131,11538,5,2,0:0:0:0:
160,13,11871,2,0,L|156:61,1,48.9999985046387
177,185,12204,2,0,L|181:137,1,48.9999985046387
170,267,12538,6,0,P|124:253|41:257,1,112,6|0,0:0|0:0,0:0:0:0:
43,376,13038,1,0,0:0:0:0:
35,378,13204,2,0,P|35:321|36:312,1,56,0|4,0:0|0:0,0:0:0:0:
156,369,13538,6,0,B|202:374|202:374|284:359,1,112,8|0,0:0|0:0,0:0:0:0:
338,316,14038,1,0,0:0:0:0:
346,314,14204,2,0,P|371:314|412:324,1,56
447,111,14538,5,6,0:0:0:0:
476,203,14704,2,0,P|485:244|484:305,1,83.8099994651444
485,301,15038,1,0,0:0:0:0:
388,164,15204,2,0,P|357:171|316:170,1,56,0|4,0:0|0:0,0:0:0:0:
367,58,15538,5,8,0:0:0:0:
367,58,15871,2,0,L|362:-6,1,56
432,134,16204,1,0,0:0:0:0:
443,62,16371,1,0,0:0:0:0:
302,131,16538,6,0,P|318:157|348:246,1,112,6|0,0:0|0:0,0:0:0:0:
301,348,17038,1,0,0:0:0:0:
293,350,17204,2,0,P|294:319|306:278,1,56,0|4,0:0|0:0,0:0:0:0:
204,197,17538,6,0,B|143:189|143:189|85:197,1,112,8|0,0:0|0:0,0:0:0:0:
42,88,18038,1,0,0:0:0:0:
34,86,18204,2,0,P|35:117|33:157,1,56
35,245,18538,5,6,0:0:0:0:
136,356,18871,2,0,L|66:351,1,56
257,299,19204,1,0,0:0:0:0:
209,353,19371,1,4,0:0:0:0:
342,371,19538,6,0,B|353:332|353:332|341:250,1,112,10|0,0:0|0:0,0:0:0:0:
416,205,20038,2,0,L|427:278,1,56
450,355,20371,1,0,0:0:0:0:
442,357,20538,6,0,B|376:334|393:378|315:349,1,112,6|0,0:0|0:0,0:0:0:0:
252,301,21038,1,0,0:0:0:0:
260,303,21204,2,0,P|255:364|257:376,1,56,0|4,0:0|0:0,0:0:0:0:
317,247,21538,6,0,L|315:118,1,112,8|0,0:0|0:0,0:0:0:0:
225,96,22038,1,0,0:0:0:0:
233,100,22204,2,0,L|233:164,1,56
236,20,22538,5,6,0:0:0:0:
423,83,22871,2,0,L|367:74,1,56
497,156,23204,2,0,L|441:164,1,56
264,192,23538,6,0,P|310:223|363:244,1,112,8|0,0:0|0:0,0:0:0:0:
380,339,24038,1,0,0:0:0:0:
377,330,24204,2,2,P|333:349|302:353,1,73.4999977569581
233,372,24538,5,4,0:0:0:0:
233,372,24871,1,0,0:0:0:0:
122,306,25038,2,0,P|160:303|202:308,1,62.9999980773926,4|0,0:0|0:0,0:0:0:0:
43,308,25371,1,4,0:0:0:0:
266,301,25538,6,0,P|262:242|255:196,1,97.9999970092774,8|0,0:0|0:0,0:0:0:0:
241,124,26038,1,0,0:0:0:0:
333,212,26204,1,0,0:0:0:0:
336,204,26371,1,0,0:0:0:0:
148,204,26538,5,4,0:0:0:0:
148,204,26871,2,0,P|68:205|58:206,1,62.9999980773926,0|4,0:0|0:0,0:0:0:0:
40,68,27204,2,0,P|28:105|29:139,1,62.9999980773926,0|4,0:0|0:0,0:0:0:0:
170,10,27538,6,0,P|185:50|228:98,1,97.9999970092774,8|0,0:0|0:0,0:0:0:0:
285,127,28038,1,0,0:0:0:0:
354,26,28204,6,0,P|344:64|333:27,1,105,2|0,0:0|0:0,0:0:0:0:
426,1,28538,6,0,P|436:55|386:127,1,125.999996154785,4|0,0:0|0:0,0:0:0:0:
347,164,29038,1,4,0:0:0:0:
473,223,29204,2,0,L|471:137,1,62.9999980773926,0|4,0:0|0:0,0:0:0:0:
474,305,29538,6,0,P|436:310|354:356,1,125.999996154785,8|0,0:0|0:0,0:0:0:0:
294,285,30038,1,0,0:0:0:0:
178,369,30204,2,0,L|257:369,1,62.9999980773926
228,220,30538,6,0,B|160:189|160:242|95:215,1,125.999996154785,4|0,0:0|0:0,0:0:0:0:
49,336,31038,2,0,L|31:266,1,62.9999980773926,4|0,0:0|0:0,0:0:0:0:
190,286,31371,1,4,0:0:0:0:
95,221,31538,6,0,L|126:342,1,125.999996154785,8|0,0:0|0:0,0:0:0:0:
32,299,32037,1,0,0:0:0:0:
170,172,32204,6,0,P|206:187|168:193,1,105,2|0,0:0|0:0,0:0:0:0:
211,273,32538,5,4,0:0:0:0:
215,277,32871,2,0,L|215:368,2,62.9999980773926,0|4|0,0:0|0:0|0:0,0:0:0:0:
248,200,33371,1,4,0:0:0:0:
292,266,33538,5,8,0:0:0:0:
168,205,33704,1,0,0:0:0:0:
283,128,33871,1,0,0:0:0:0:
296,99,34038,1,0,0:0:0:0:
235,62,34204,1,0,0:0:0:0:
226,43,34371,1,0,0:0:0:0:
128,140,34538,6,0,P|117:72|65:12,1,125.999996154785,4|0,0:0|0:0,0:0:0:0:
39,173,35038,2,0,P|37:131|48:103,1,62.9999980773926,4|0,0:0|0:0,0:0:0:0:
108,217,35371,1,4,0:0:0:0:
157,60,35538,5,8,0:0:0:0:
157,60,35871,2,0,P|183:105|197:126,1,62.9999980773926
274,209,36204,6,0,P|238:193|261:224,1,105,2|0,0:0|0:0,0:0:0:0:
274,306,36538,6,0,P|308:294|411:315,1,125.999996154785,4|0,0:0|0:0,0:0:0:0:
486,208,37038,2,0,P|425:222|364:207,1,125.999996154785,4|4,0:0|0:0,0:0:0:0:
280,28,37538,6,0,P|317:78|321:141,1,125.999996154785,8|0,0:0|0:0,0:0:0:0:
154,66,38038,2,0,P|110:59|81:52,1,62.9999980773926
206,11,38371,1,0,0:0:0:0:
234,111,38538,6,0,B|223:197|223:197|235:248,1,125.999996154785,4|0,0:0|0:0,0:0:0:0:
150,275,39038,1,4,0:0:0:0:
259,339,39204,2,0,P|229:350|198:354,1,62.9999980773926,0|4,0:0|0:0,0:0:0:0:
337,320,39538,6,0,B|408:303|396:352|470:327,1,125.999996154785,8|0,0:0|0:0,0:0:0:0:
481,235,40038,1,0,0:0:0:0:
403,145,40204,2,2,P|392:172|385:228,1,73.4999977569581
313,247,40538,6,0,L|221:247,2,62.9999980773926,4|0|0,0:0|0:0|0:0,0:0:0:0:
140,170,41038,2,0,L|203:170,2,62.9999980773926,4|0|4,0:0|0:0|0:0,0:0:0:0:
359,125,41538,5,8,0:0:0:0:
359,125,42538,6,0,P|290:110|222:99,1,140,4|0,0:0|0:0,0:0:0:0:
96,31,43038,2,0,P|130:28|165:28,2,70,4|0|4,0:0|0:0|0:0,0:0:0:0:
134,132,43538,6,0,P|137:197|146:277,1,140,8|0,0:0|0:0,0:0:0:0:
216,359,44038,1,0,0:0:0:0:
237,241,44204,1,0,0:0:0:0:
259,246,44371,1,0,0:0:0:0:
29,194,44538,6,0,P|58:257|113:300,1,140,4|0,0:0|0:0,0:0:0:0:
215,236,45038,2,0,P|225:198|238:167,2,70,4|0|4,0:0|0:0|0:0,0:0:0:0:
256,343,45538,6,0,B|314:343|314:343|340:356|340:356|394:355,1,140,8|0,0:0|0:0,0:0:0:0:
360,247,46038,1,0,0:0:0:0:
482,311,46204,1,0,0:0:0:0:
458,307,46371,1,0,0:0:0:0:
500,148,46538,6,0,P|445:144|355:149,1,140,4|0,0:0|0:0,0:0:0:0:
313,54,47038,1,4,0:0:0:0:
285,127,47204,1,0,0:0:0:0:
349,30,47371,1,4,0:0:0:0:
422,175,47538,5,8,0:0:0:0:
314,209,47704,1,0,0:0:0:0:
298,243,47871,2,0,P|352:248|393:255,1,70
276,355,48204,1,0,0:0:0:0:
299,351,48371,1,0,0:0:0:0:
128,293,48538,6,0,P|118:331|111:385,1,70,4|0,0:0|0:0,0:0:0:0:
183,238,48871,1,0,0:0:0:0:
58,180,49038,2,0,P|48:218|41:272,1,70,4|0,0:0|0:0,0:0:0:0:
113,125,49371,1,4,0:0:0:0:
149,326,49538,6,0,L|235:313,1,70,8|0,0:0|0:0,0:0:0:0:
327,254,49871,1,0,0:0:0:0:
301,257,50038,1,0,0:0:0:0:
257,128,50204,1,0,0:0:0:0:
283,131,50371,1,0,0:0:0:0:
172,117,50538,5,4,0:0:0:0:
303,44,50704,1,0,0:0:0:0:
177,23,50871,1,0,0:0:0:0:
244,185,51038,2,0,L|263:104,1,70,4|0,0:0|0:0,0:0:0:0:
227,268,51371,1,4,0:0:0:0:
356,175,51538,6,0,P|379:235|389:315,1,140,8|0,0:0|0:0,0:0:0:0:
245,361,52038,2,0,P|285:356|318:358,2,70
258,228,52538,6,0,B|329:256|332:205|404:237,1,140,4|0,0:0|0:0,0:0:0:0:
474,182,53038,2,0,P|481:147|505:97,2,70,4|0|4,0:0|0:0|0:0,0:0:0:0:
343,73,53538,6,0,P|357:141|366:210,1,140,8|0,0:0|0:0,0:0:0:0:
447,273,54038,1,0,0:0:0:0:
354,359,54204,1,0,0:0:0:0:
378,354,54371,1,0,0:0:0:0:
265,293,54538,6,0,P|219:295|182:299,1,70,4|0,0:0|0:0,0:0:0:0:
152,368,54871,1,0,0:0:0:0:
79,291,55038,1,4,0:0:0:0:
45,357,55204,1,0,0:0:0:0:
57,250,55371,1,4,0:0:0:0:
220,315,55538,6,0,P|236:198|239:166,1,140,8|0,0:0|0:0,0:0:0:0:
316,229,56038,1,0,0:0:0:0:
158,183,56204,1,0,0:0:0:0:
151,206,56371,1,0,0:0:0:0:
228,49,56538,6,0,P|186:48|139:42,1,70,4|0,0:0|0:0,0:0:0:0:
304,27,56871,1,0,0:0:0:0:
194,155,57038,2,0,P|236:154|283:148,1,70,4|0,0:0|0:0,0:0:0:0:
118,133,57371,1,4,0:0:0:0:
344,97,57538,6,0,L|432:106,1,70,8|0,0:0|0:0,0:0:0:0:
464,218,57871,1,0,0:0:0:0:
472,193,58038,1,0,0:0:0:0:
371,305,58204,1,0,0:0:0:0:
363,280,58371,1,0,0:0:0:0:
195,266,58538,6,0,P|196:191|202:115,1,140,4|0,0:0|0:0,0:0:0:0:
280,14,59038,2,0,P|272:55|259:100,2,70,4|0|4,0:0|0:0|0:0,0:0:0:0:
342,122,59538,6,0,P|387:112|492:73,1,140,8|0,0:0|0:0,0:0:0:0:
383,31,60038,1,0,0:0:0:0:
438,169,60204,1,0,0:0:0:0:
460,162,60371,1,0,0:0:0:0:
477,350,60538,6,0,B|421:356|421:356|322:334,1,140,4|0,0:0|0:0,0:0:0:0:
193,288,61038,2,0,L|262:283,2,70,4|0|4,0:0|0:0|0:0,0:0:0:0:
103,355,61538,6,0,B|93:279|27:202,1,140,8|0,0:0|0:0,0:0:0:0:
129,151,62038,1,0,0:0:0:0:
31,64,62204,1,0,0:0:0:0:
18,82,62371,1,0,0:0:0:0:
252,104,62538,5,4,0:0:0:0:
202,26,62704,2,0,P|270:22|327:32,1,104.719997446179
321,36,63038,1,4,0:0:0:0:
447,16,63204,1,0,0:0:0:0:
395,93,63371,1,4,0:0:0:0:
493,162,63538,5,8,0:0:0:0:
417,229,63704,1,0,0:0:0:0:
403,195,63871,2,0,L|309:192,1,70
389,86,64204,1,0,0:0:0:0:
366,91,64371,1,0,0:0:0:0:
225,24,64537,6,0,P|231:65|234:107,1,70,4|0,0:0|0:0,0:0:0:0:
293,148,64871,1,0,0:0:0:0:
136,163,65037,2,0,P|142:204|145:246,1,70,4|0,0:0|0:0,0:0:0:0:
204,287,65371,1,4,0:0:0:0:
213,91,65538,6,0,L|127:81,1,70,8|0,0:0|0:0,0:0:0:0:
329,142,65871,1,0,0:0:0:0:
303,145,66038,1,0,0:0:0:0:
420,74,66204,1,0,0:0:0:0:
446,77,66371,1,0,0:0:0:0:
334,62,66538,5,4,0:0:0:0:
452,175,66704,1,0,0:0:0:0:
473,42,66871,1,0,0:0:0:0:
381,204,67038,2,0,L|367:131,1,70,4|0,0:0|0:0,0:0:0:0:
397,289,67371,1,4,0:0:0:0:
264,186,67538,6,0,P|226:208|119:245,1,140,8|0,0:0|0:0,0:0:0:0:
20,133,68038,2,0,P|25:167|38:200,2,70
155,134,68538,6,0,P|185:63|239:18,1,140,4|0,0:0|0:0,0:0:0:0:
332,90,69038,2,0,L|318:15,2,70,4|0|4,0:0|0:0|0:0,0:0:0:0:
460,38,69538,6,0,L|434:175,1,140,8|0,0:0|0:0,0:0:0:0:
490,268,70038,1,0,0:0:0:0:
377,323,70204,1,0,0:0:0:0:
384,345,70371,1,0,0:0:0:0:
304,220,70538,6,0,L|297:292,1,70,4|0,0:0|0:0,0:0:0:0:
240,353,70871,1,0,0:0:0:0:
153,264,71038,1,4,0:0:0:0:
228,260,71204,1,0,0:0:0:0:
119,289,71371,1,4,0:0:0:0:
185,117,71538,6,0,P|103:114|18:115,1,140,8|0,0:0|0:0,0:0:0:0:
96,193,72038,1,0,0:0:0:0:
101,36,72204,1,0,0:0:0:0:
76,41,72371,1,0,0:0:0:0:
283,98,72538,6,0,P|286:58|283:4,1,70,4|0,0:0|0:0,0:0:0:0:
238,161,72871,1,0,0:0:0:0:
408,107,73038,2,0,P|404:146|407:200,1,70,4|0,0:0|0:0,0:0:0:0:
453,44,73371,1,4,0:0:0:0:
418,248,73538,6,0,L|492:240,1,70,8|0,0:0|0:0,0:0:0:0:
339,331,73871,1,0,0:0:0:0:
345,305,74038,1,0,0:0:0:0:
220,206,74204,1,0,0:0:0:0:
226,232,74371,1,0,0:0:0:0:
138,99,74538,6,0,P|109:159|88:233,1,140,4|0,0:0|0:0,0:0:0:0:
43,358,75038,1,4,0:0:0:0:
35,285,75204,1,0,0:0:0:0:
89,368,75371,1,4,0:0:0:0:
219,224,75538,6,0,P|231:260|240:302,1,70,8|0,0:0|0:0,0:0:0:0:
337,277,75871,1,0,0:0:0:0:
345,236,76038,1,0,0:0:0:0:
326,361,76204,1,8,0:0:0:0:
472,258,76371,1,8,0:0:0:0:
348,162,76538,6,0,L|501:119,1,140,4|0,0:0|0:0,0:0:0:0:
397,8,77038,2,0,P|390:42|391:87,1,70,4|0,0:0|0:0,0:0:0:0:
443,208,77371,1,4,0:0:0:0:
266,315,77538,6,0,P|279:258|287:187,1,105,10|0,0:0|0:0,0:0:0:0:
206,229,77871,2,0,P|198:170|181:101,1,105,2|0,0:0|0:0,0:0:0:0:
119,169,78204,2,0,P|92:116|52:57,1,105,2|0,0:0|0:0,0:0:0:0:
117,15,78538,6,0,P|175:14|237:22,1,105,6|0,0:0|0:0,0:0:0:0:
192,95,78871,2,0,P|246:113|302:142,1,105,2|0,0:0|0:0,0:0:0:0:
301,209,79204,2,0,P|341:220|395:212,1,70,2|4,0:0|0:0,0:0:0:0:
130,182,79538,6,0,P|104:230|91:300,1,105,10|0,0:0|0:0,0:0:0:0:
173,271,79871,2,0,P|174:325|198:392,1,105,2|0,0:0|0:0,0:0:0:0:
257,330,80204,2,0,P|305:356|375:368,1,105,2|0,0:0|0:0,0:0:0:0:
430,342,80538,5,4,0:0:0:0:
422,262,80704,1,0,0:0:0:0:
460,277,80871,1,0,0:0:0:0:
335,290,81038,5,4,0:0:0:0:
378,204,81204,1,0,0:0:0:0:
257,297,81371,1,4,0:0:0:0:
300,116,81538,6,0,P|288:78|223:20,1,105,10|0,0:0|0:0,0:0:0:0:
204,102,81871,2,0,P|170:80|83:77,1,105,2|0,0:0|0:0,0:0:0:0:
123,152,82204,2,0,P|83:157|15:211,1,105,2|0,0:0|0:0,0:0:0:0:
28,269,82538,6,0,P|52:301|133:333,1,105,6|0,0:0|0:0,0:0:0:0:
122,250,82871,2,0,P|159:265|245:252,1,105,2|0,0:0|0:0,0:0:0:0:
299,287,83204,2,0,P|320:323|322:375,1,70,2|4,0:0|0:0,0:0:0:0:
451,200,83538,6,0,P|458:142|459:64,1,105,10|0,0:0|0:0,0:0:0:0:
382,119,83871,2,0,P|368:62|343:-11,1,105,2|0,0:0|0:0,0:0:0:0:
287,63,84204,2,0,P|231:46|154:31,1,105,2|0,0:0|0:0,0:0:0:0:
109,46,84538,6,0,P|59:108|39:186,1,140,4|0,0:0|0:0,0:0:0:0:
141,211,85038,2,0,P|143:169|137:141,1,70,4|0,0:0|0:0,0:0:0:0:
64,245,85371,1,4,0:0:0:0:
220,346,85538,6,0,P|259:321|310:255,1,105,10|0,0:0|0:0,0:0:0:0:
347,342,85871,2,0,P|375:305|400:225,1,105,2|0,0:0|0:0,0:0:0:0:
464,302,86204,2,0,P|477:257|474:174,1,105,2|0,0:0|0:0,0:0:0:0:
463,123,86538,6,0,P|422:113|356:66,1,105,6|0,0:0|0:0,0:0:0:0:
331,152,86871,2,0,P|300:122|266:49,1,105,2|0,0:0|0:0,0:0:0:0:
216,12,87204,2,0,P|176:15|139:23,1,70,2|4,0:0|0:0,0:0:0:0:
29,188,87538,6,0,P|83:187|136:153,1,105,10|0,0:0|0:0,0:0:0:0:
142,245,87871,2,0,P|188:217|217:161,1,105,2|0,0:0|0:0,0:0:0:0:
268,243,88204,2,0,P|294:195|291:132,1,105,2|0,0:0|0:0,0:0:0:0:
277,67,88538,5,4,0:0:0:0:
363,61,88704,1,0,0:0:0:0:
348,23,88871,1,0,0:0:0:0:
341,138,89038,5,4,0:0:0:0:
239,105,89204,1,0,0:0:0:0:
417,106,89371,1,4,0:0:0:0:
361,306,89538,6,0,P|318:291|267:237,1,105,10|0,0:0|0:0,0:0:0:0:
235,322,89871,2,0,P|199:293|170:225,1,105,2|0,0:0|0:0,0:0:0:0:
113,299,90204,2,0,P|89:259|85:185,1,105,2|0,0:0|0:0,0:0:0:0:
143,153,90538,6,0,P|178:118|201:66,1,105,6|0,0:0|0:0,0:0:0:0:
261,122,90871,2,0,P|281:77|285:20,1,105,2|0,0:0|0:0,0:0:0:0:
363,11,91204,2,0,P|366:51|382:87,1,70,2|4,0:0|0:0,0:0:0:0:
202,241,91538,6,0,P|259:226|316:202,1,105,10|0,0:0|0:0,0:0:0:0:
332,285,91871,2,0,P|373:243|411:194,1,105,2|0,0:0|0:0,0:0:0:0:
466,261,92204,2,0,P|481:204|489:142,1,105,2|0,0:0|0:0,0:0:0:0:
457,83,92538,5,4,0:0:0:0:
354,31,92704,1,0,0:0:0:0:
394,27,92871,1,0,0:0:0:0:
292,91,93038,5,4,0:0:0:0:
394,108,93204,1,0,0:0:0:0:
280,13,93371,1,4,0:0:0:0:
323,211,93538,5,8,0:0:0:0:
348,127,93704,1,0,0:0:0:0:
447,221,93871,1,0,0:0:0:0:
452,260,94038,1,0,0:0:0:0:
251,210,94204,1,0,0:0:0:0:
256,171,94371,1,0,0:0:0:0:
310,337,94538,5,4,0:0:0:0:
256,192,94621,12,0,96038,0:0:0:0:
