osu file format v14

[General]
AudioFilename: audio.mp3
AudioLeadIn: 0
PreviewTime: -1
Countdown: 1
SampleSet: Soft
StackLeniency: 0.7
Mode: 0
LetterboxInBreaks: 0
WidescreenStoryboard: 1

[Editor]
Bookmarks: 72,4705,9338,13971,27871,37137,44087,46404,55643,64936,74203,83469,92736,97369,102002,106635,111268,115902,120535,134434,139068,152967,157600,166867,171500,176133,180766,190033,194666,203933,208566
DistanceSpacing: 1
BeatDivisor: 4
GridSize: 16
TimelineZoom: 1

[Metadata]
Title:In the Eyes
TitleUnicode:In the Eyes
Artist:MOD music
ArtistUnicode:MOD music
Creator:Nitronic Techno
Version:The Eye (AR7)
Source:Need For Madness Revised & Recharged
Tags:Need For Madness Revised Recharged MOD music In Eyes Funk Deep-Bass
BeatmapID:1475660
BeatmapSetID:696693

[Difficulty]
HPDrainRate:7
CircleSize:5
OverallDifficulty:8
ApproachRate:7
SliderMultiplier:1.7
SliderTickRate:1

[Events]
//Background and Video events
0,0,"Image.PNG",0,0
//Break Periods
2,83706,91876
2,157863,166032
//Storyboard Layer 0 (Background)
//Storyboard Layer 1 (Fail)
//Storyboard Layer 2 (Pass)
//Storyboard Layer 3 (Foreground)
//Storyboard Sound Samples

[TimingPoints]
80,579.346304253367,4,2,0,60,1,0
13984,-125,4,2,0,60,0,0
27888,-111.111111111111,4,2,0,60,0,0
44110,-100,4,1,0,60,0,0
46427,-90.9090909090909,4,1,0,70,0,0
64966,-83.3333333333333,4,1,0,75,0,1
83505,-100,4,1,0,75,0,0
92775,-125,4,2,0,60,0,0
97410,-111.111111111111,4,2,0,70,0,0
102044,-90.9090909090909,4,1,0,70,0,0
111314,-83.3333333333333,4,1,0,70,0,0
115949,-90.9090909090909,4,1,0,70,0,0
120584,-90.9090909090909,4,1,0,60,0,0
134488,-111.111111111111,4,1,0,60,0,0
139123,-90.9090909090909,4,1,0,60,0,0
153027,-100,4,1,0,60,0,0
166931,-111.111111111111,4,1,0,60,0,0
180836,-90.9090909090908,4,1,0,60,0,0
190105,-100,4,1,0,60,0,0
194740,-111.111111111111,4,2,0,60,0,0

[HitObjects]
256,80,80,6,0,L|354:80,2,85
230,114,804,1,0,0:0:0:0:
205,148,949,1,0,0:0:0:0:
178,180,1093,2,0,B|164:232|180:278|180:278,1,85
207,282,1528,1,0,0:0:0:0:
241,306,1673,1,0,0:0:0:0:
299,244,1962,1,0,0:0:0:0:
331,270,2107,1,0,0:0:0:0:
363,296,2252,1,0,0:0:0:0:
400,317,2397,6,0,L|400:223,1,85
376,150,2976,2,0,L|348:97,1,42.5
313,111,3266,1,0,0:0:0:0:
283,80,3411,1,0,0:0:0:0:
200,61,3700,1,0,0:0:0:0:
171,92,3845,1,0,0:0:0:0:
143,124,3990,1,0,0:0:0:0:
153,165,4135,1,0,0:0:0:0:
123,194,4280,1,0,0:0:0:0:
93,224,4425,1,0,0:0:0:0:
67,257,4569,1,0,0:0:0:0:
54,297,4714,6,0,B|93:315|150:270|150:270,1,85
210,271,5294,1,0,0:0:0:0:
210,271,5438,1,0,0:0:0:0:
239,240,5583,1,0,0:0:0:0:
239,240,5728,1,0,0:0:0:0:
316,204,6018,1,0,0:0:0:0:
333,165,6163,1,0,0:0:0:0:
320,124,6308,1,0,0:0:0:0:
192,48,6597,1,0,0:0:0:0:
175,87,6742,1,0,0:0:0:0:
188,128,6887,1,0,0:0:0:0:
216,159,7032,6,0,L|216:255,1,85
287,290,7611,2,0,L|287:231,1,42.5
325,229,7901,2,0,L|325:167,1,42.5
372,115,8335,1,0,0:0:0:0:
342,84,8480,1,0,0:0:0:0:
306,59,8625,1,0,0:0:0:0:
265,44,8770,1,0,0:0:0:0:
226,60,8915,1,0,0:0:0:0:
196,90,9059,1,0,0:0:0:0:
167,121,9204,1,0,0:0:0:0:
139,152,9349,5,0,0:0:0:0:
256,192,9494,12,0,13693,0:0:0:0:
96,80,13984,5,0,0:0:0:0:
96,80,14129,1,0,0:0:0:0:
104,113,14274,1,0,0:0:0:0:
104,113,14418,1,0,0:0:0:0:
113,145,14563,1,0,0:0:0:0:
162,234,14998,2,0,B|213:266|284:224|284:224,1,102
304,179,15722,1,0,0:0:0:0:
339,121,16012,1,0,0:0:0:0:
357,92,16156,1,0,0:0:0:0:
384,72,16301,6,0,L|434:72,1,34
383,130,16736,2,0,L|345:130,1,34
320,191,17170,1,0,0:0:0:0:
320,191,17315,2,0,L|439:191,1,102
400,255,18039,1,0,0:0:0:0:
335,275,18329,1,0,0:0:0:0:
304,289,18474,1,0,0:0:0:0:
274,305,18619,6,0,B|226:337|135:279|135:279,1,136
200,246,19488,1,0,0:0:0:0:
200,246,19633,2,0,B|158:193|104:189|104:189,1,102
64,156,20357,1,0,0:0:0:0:
209,238,20646,1,0,0:0:0:0:
222,269,20791,1,0,0:0:0:0:
238,305,20936,6,0,B|335:315|372:284|372:284,1,136
312,246,21805,1,0,0:0:0:0:
312,246,21950,2,0,B|363:186|402:188|402:188,1,102
448,156,22674,1,0,0:0:0:0:
384,131,22964,1,0,0:0:0:0:
352,116,23109,1,0,0:0:0:0:
318,115,23254,6,0,L|254:116,1,34
266,145,23543,2,0,L|222:145,1,34
206,167,23833,2,0,B|195:194|166:203|127:205,1,68
130,230,24267,2,0,B|156:260|194:269|238:253,1,102
292,253,24992,1,0,0:0:0:0:
317,315,25281,1,0,0:0:0:0:
317,315,25426,1,0,0:0:0:0:
317,315,25571,6,0,L|337:264,1,34
283,232,26005,2,0,L|306:177,1,34
275,135,26440,1,0,0:0:0:0:
275,135,26585,2,0,B|309:104|339:43|339:43,1,102
272,80,27309,2,0,P|221:99|198:123,1,68
154,145,27888,6,0,B|126:169|120:191|130:249,1,76.4999976654053
137,289,28468,2,0,B|174:275|192:246|199:214,1,76.4999976654053
196,200,28902,1,0,0:0:0:0:
232,132,29192,1,0,0:0:0:0:
232,132,29337,2,0,B|276:110|328:114|328:114,2,76.4999976654053
358,145,30206,6,0,B|389:175|392:200|382:249,1,76.4999976654053
374,288,30785,2,0,B|336:271|326:250|321:211,1,76.4999976654053
316,200,31220,1,0,0:0:0:0:
280,132,31509,1,0,0:0:0:0:
280,132,31654,2,0,B|236:110|186:113|186:113,2,76.4999976654053
154,239,32523,6,0,B|119:201|113:164|126:142,1,76.4999976654053
137,95,33102,2,0,B|176:122|199:170|199:170,1,76.4999976654053
196,184,33537,1,0,0:0:0:0:
232,252,33827,1,0,0:0:0:0:
232,252,33972,2,0,B|245:271|276:274|333:270,2,76.4999976654053
358,239,34841,6,0,B|399:207|379:148|379:148,1,76.4999976654053
375,95,35420,2,0,B|336:122|312:169|312:169,1,76.4999976654053
316,184,35854,1,0,0:0:0:0:
280,252,36144,1,0,0:0:0:0:
280,252,36289,2,0,B|236:274|206:286|179:270,2,76.4999976654053
256,192,37158,12,0,39330,0:0:0:0:
256,192,39475,12,0,41647,0:0:0:0:
256,192,41793,12,0,43820,0:0:0:0:
110,167,44110,6,0,L|110:103,1,42.5
233,81,44689,2,0,B|286:115|237:172|237:172,1,85
283,175,45124,2,0,B|253:205|248:231|269:268,1,85
296,286,45559,2,0,L|348:309,1,42.5
377,306,45848,1,0,0:0:0:0:
407,335,45993,1,0,0:0:0:0:
449,339,46138,1,0,0:0:0:0:
486,358,46283,1,0,0:0:0:0:
486,358,46428,6,0,B|493:238|406:197|406:197,1,187.000005706787
360,132,47297,1,0,0:0:0:0:
304,108,47441,1,0,0:0:0:0:
247,130,47586,2,0,B|202:154|150:128|150:128,1,93.5000028533936
38,156,48166,1,0,0:0:0:0:
71,104,48310,1,0,0:0:0:0:
111,218,48600,1,0,0:0:0:0:
88,274,48745,5,0,0:0:0:0:
148,276,48890,1,0,0:0:0:0:
208,275,49035,1,0,0:0:0:0:
268,273,49179,1,0,0:0:0:0:
328,268,49324,2,0,L|443:244,1,93.5000028533936
434,189,49759,2,0,B|460:140|454:96|409:54,1,140.25000428009
298,46,50483,2,0,L|256:145,1,93.5000028533936
140,146,51062,6,0,B|123:92|123:92|85:232,1,187.000005706787
193,279,51931,1,0,0:0:0:0:
251,294,52076,1,0,0:0:0:0:
305,265,52221,2,0,B|355:282|399:250|399:250,1,93.5000028533936
276,222,52800,2,0,B|240:214|211:221|180:241,1,93.5000028533936
137,268,53235,1,0,0:0:0:0:
89,305,53380,6,0,L|39:305,1,46.7500014266968
159,271,53814,2,0,L|221:271,1,46.7500014266968
305,200,54249,1,0,0:0:0:0:
335,147,54394,1,0,0:0:0:0:
358,91,54538,2,0,B|343:49|302:33|263:34,1,93.5000028533936
232,57,54973,1,0,0:0:0:0:
171,55,55118,1,0,0:0:0:0:
132,102,55263,1,0,0:0:0:0:
96,151,55407,1,0,0:0:0:0:
60,199,55552,1,0,0:0:0:0:
43,257,55697,6,0,B|82:288|148:278|233:246,1,187.000005706787
321,323,56566,1,0,0:0:0:0:
347,268,56711,1,0,0:0:0:0:
323,211,56856,1,0,0:0:0:0:
254,110,57146,2,0,B|203:147|189:200|189:200,1,93.5000028533936
190,234,57580,1,0,0:0:0:0:
112,140,57870,1,0,0:0:0:0:
110,79,58015,6,0,L|171:62,1,46.7500014266968
188,117,58304,2,0,L|250:96,1,46.7500014266968
257,157,58594,2,0,B|285:177|328:174|378:153,1,93.5000028533936
385,122,59028,2,0,B|414:165|391:260|391:260,1,140.25000428009
285,206,59753,1,0,0:0:0:0:
177,263,60042,1,0,0:0:0:0:
87,345,60332,6,0,B|127:320|127:320|176:348|235:355|274:288,1,187.000005706787
392,191,61346,2,0,B|412:147|412:112|387:54,1,140.25000428009
286,122,62070,2,0,B|274:164|274:188|286:230,1,93.5000028533936
212,111,62649,6,0,L|212:177,1,46.7500014266968
95,191,63084,2,0,L|95:261,1,46.7500014266968
208,283,63518,1,0,0:0:0:0:
266,301,63663,1,0,0:0:0:0:
319,272,63808,2,0,B|353:231|362:203|349:169,1,93.5000028533936
313,150,64243,1,0,0:0:0:0:
253,160,64387,1,0,0:0:0:0:
214,113,64532,1,0,0:0:0:0:
175,65,64677,1,0,0:0:0:0:
137,17,64822,1,0,0:0:0:0:
86,16,64967,6,0,L|63:98,1,50.9999984436036
117,89,65256,2,0,L|83:192,1,101.999996887207
129,210,65691,2,0,L|90:332,1,101.999996887207
131,345,66125,1,0,0:0:0:0:
211,282,66415,1,0,0:0:0:0:
245,244,66560,2,0,L|350:119,1,152.999995330811
256,72,67284,5,0,0:0:0:0:
209,51,67429,1,0,0:0:0:0:
157,51,67574,1,0,0:0:0:0:
134,150,67864,2,0,L|161:223,1,50.9999984436036
175,297,68298,1,0,0:0:0:0:
177,348,68443,2,0,B|218:370|294:337|294:337,1,101.999996887207
290,298,68877,2,0,B|336:285|396:285|440:310,1,152.999995330811
426,368,69602,6,0,L|449:286,1,50.9999984436036
395,295,69891,2,0,L|429:192,1,101.999996887207
383,174,70326,2,0,L|422:52,1,101.999996887207
381,39,70760,1,0,0:0:0:0:
301,102,71050,1,0,0:0:0:0:
267,140,71195,2,0,L|162:265,1,152.999995330811
87,318,71919,6,0,L|45:267,2,50.9999984436036
180,277,72498,1,0,0:0:0:0:
231,278,72643,1,0,0:0:0:0:
313,338,72933,1,0,0:0:0:0:
343,297,73078,2,0,B|363:257|359:204|326:169,1,101.999996887207
294,176,73512,2,0,B|281:123|304:63|304:63,1,101.999996887207
323,38,73947,1,0,0:0:0:0:
220,34,74236,6,0,L|174:255,1,203.999993774414
240,314,75105,1,0,0:0:0:0:
290,290,75250,1,0,0:0:0:0:
298,234,75395,2,0,B|289:191|299:157|327:134,1,101.999996887207
363,107,75830,1,0,0:0:0:0:
403,145,75974,2,0,B|426:163|436:197|427:240,1,101.999996887207
425,290,76409,1,0,0:0:0:0:
471,320,76554,6,0,B|421:357|356:366|271:334,1,203.999993774414
179,308,77423,1,0,0:0:0:0:
125,324,77568,1,0,0:0:0:0:
74,300,77712,1,0,0:0:0:0:
67,244,77857,1,0,0:0:0:0:
78,189,78002,1,0,0:0:0:0:
123,156,78147,1,0,0:0:0:0:
178,146,78292,1,0,0:0:0:0:
234,150,78437,1,0,0:0:0:0:
287,164,78582,1,0,0:0:0:0:
339,184,78726,1,0,0:0:0:0:
381,220,78871,6,0,B|457:226|493:119|418:70,1,203.999993774414
336,154,79740,1,0,0:0:0:0:
291,222,80030,2,0,B|215:228|179:121|254:72,1,203.999993774414
336,154,80899,1,0,0:0:0:0:
336,266,81189,5,0,0:0:0:0:
292,292,81333,1,0,0:0:0:0:
241,294,81478,1,0,0:0:0:0:
199,263,81623,1,0,0:0:0:0:
200,211,81768,1,0,0:0:0:0:
167,171,81913,1,0,0:0:0:0:
116,171,82058,1,0,0:0:0:0:
81,132,82202,1,0,0:0:0:0:
80,80,82347,1,0,0:0:0:0:
119,48,82492,1,0,0:0:0:0:
174,46,82637,1,0,0:0:0:0:
218,80,82782,1,0,0:0:0:0:
217,136,82927,1,0,0:0:0:0:
266,163,83071,1,0,0:0:0:0:
322,161,83216,1,0,0:0:0:0:
363,124,83361,1,0,0:0:0:0:
357,68,83506,5,0,0:0:0:0:
64,83,92776,6,0,L|64:172,1,68
131,160,93355,2,0,L|131:233,1,68
161,243,93789,1,0,0:0:0:0:
192,256,93934,2,0,L|192:335,1,68
257,344,94514,2,0,L|257:262,1,68
308,231,95093,6,0,L|352:231,1,34
381,175,95528,2,0,L|345:175,1,34
371,111,95962,1,0,0:0:0:0:
405,111,96107,2,0,B|466:111|466:111|466:163,1,102
424,205,96831,1,0,0:0:0:0:
359,224,97121,1,0,0:0:0:0:
283,237,97410,6,0,B|224:273|165:275|137:220,1,152.999995330811
208,193,98279,1,0,0:0:0:0:
208,154,98424,2,0,B|208:98|167:50|167:50,1,114.749996498108
139,126,99148,2,0,B|129:159|133:191|138:215,1,76.4999976654053
256,192,99583,12,0,101754,0:0:0:0:
192,137,102045,5,0,0:0:0:0:
109,181,102335,2,0,B|97:234|105:250|122:278,1,93.5000028533936
159,264,102769,2,0,B|209:249|230:255|259:265,1,93.5000028533936
287,283,103204,2,0,B|345:278|361:263|392:230,1,93.5000028533936
357,213,103638,2,0,B|382:159|398:150|428:134,1,93.5000028533936
447,113,104073,1,0,0:0:0:0:
369,59,104363,5,0,0:0:0:0:
300,122,104652,2,0,B|296:160|251:187|214:163,1,93.5000028533936
190,140,105087,2,0,B|156:160|145:171|129:209,1,93.5000028533936
111,248,105521,1,0,0:0:0:0:
120,293,105666,1,0,0:0:0:0:
162,310,105811,1,0,0:0:0:0:
208,315,105956,1,0,0:0:0:0:
254,316,106101,2,0,B|297:348|363:313|363:313,1,93.5000028533936
393,192,106680,5,0,0:0:0:0:
305,82,106970,6,0,B|252:72|219:117|219:117,1,93.5000028533936
226,149,107404,2,0,B|197:193|141:199|141:199,1,93.5000028533936
105,190,107839,2,0,B|64:239|100:300|100:300,1,93.5000028533936
138,286,108273,2,0,B|176:239|147:187|147:187,1,93.5000028533936
140,155,108708,1,0,0:0:0:0:
224,114,108997,5,0,0:0:0:0:
316,124,109287,2,0,B|344:145|369:151|405:143,1,93.5000028533936
445,130,109722,2,0,B|463:162|466:192|447:220,1,93.5000028533936
424,255,110156,1,0,0:0:0:0:
380,272,110301,1,0,0:0:0:0:
333,263,110446,1,0,0:0:0:0:
286,262,110591,1,0,0:0:0:0:
244,284,110735,2,0,B|195:329|137:293|137:293,1,93.5000028533936
80,236,111315,6,0,L|54:294,1,50.9999984436036
90,323,111604,2,0,L|146:191,1,101.999996887207
149,181,112039,2,0,B|189:204|243:210|306:172,1,152.999995330811
360,106,112763,1,0,0:0:0:0:
360,106,112908,2,0,B|448:106|459:208|459:208,1,152.999995330811
399,273,113632,6,0,L|420:331,2,50.9999984436036
322,205,114212,1,0,0:0:0:0:
304,157,114356,1,0,0:0:0:0:
213,110,114646,1,0,0:0:0:0:
162,105,114791,2,0,B|124:106|97:130|88:169,1,101.999996887207
124,200,115225,2,0,B|119:245|82:268|49:283,1,101.999996887207
15,289,115660,1,0,0:0:0:0:
95,337,115950,5,0,0:0:0:0:
188,340,116239,2,0,B|229:341|265:340|299:286,1,93.5000028533936
274,268,116674,2,0,B|308:222|351:201|351:201,1,93.5000028533936
384,194,117108,2,0,B|435:153|408:102|408:102,1,93.5000028533936
381,85,117543,2,0,B|345:39|276:76|276:76,1,93.5000028533936
248,87,117977,1,0,0:0:0:0:
191,161,118267,5,0,0:0:0:0:
99,180,118557,2,0,B|86:235|133:271|133:271,1,93.5000028533936
173,250,118991,2,0,L|274:270,1,93.5000028533936
305,292,119426,1,0,0:0:0:0:
334,256,119571,1,0,0:0:0:0:
364,220,119715,1,0,0:0:0:0:
388,180,119860,1,0,0:0:0:0:
367,138,120005,1,0,0:0:0:0:
387,96,120150,1,0,0:0:0:0:
412,56,120295,1,0,0:0:0:0:
273,33,120584,6,0,B|243:88|229:155|301:227,1,187.000005706787
412,194,121453,1,0,0:0:0:0:
395,252,121598,1,0,0:0:0:0:
334,259,121743,2,0,B|289:274|279:274|234:260,1,93.5000028533936
125,239,122322,1,0,0:0:0:0:
156,186,122467,1,0,0:0:0:0:
43,231,122757,1,0,0:0:0:0:
52,290,122902,6,0,L|26:341,1,46.7500014266968
135,268,123336,2,0,L|106:319,1,46.7500014266968
207,233,123771,1,0,0:0:0:0:
256,268,123916,1,0,0:0:0:0:
316,267,124061,2,0,B|362:272|403:251|417:225,1,93.5000028533936
307,169,124640,2,0,B|327:141|357:125|395:117,1,93.5000028533936
288,40,125219,6,0,B|235:116|115:82|115:82,1,187.000005706787
97,207,126088,1,0,0:0:0:0:
157,207,126233,1,0,0:0:0:0:
217,205,126378,2,0,B|250:194|281:194|327:219,1,93.5000028533936
266,118,126957,1,0,0:0:0:0:
257,268,127247,1,0,0:0:0:0:
165,289,127537,6,0,L|143:363,1,46.7500014266968
142,212,127971,2,0,L|161:135,1,46.7500014266968
61,86,128406,1,0,0:0:0:0:
121,81,128550,1,0,0:0:0:0:
181,76,128695,2,0,B|223:49|299:86|299:86,1,93.5000028533936
315,117,129130,1,0,0:0:0:0:
375,121,129275,1,0,0:0:0:0:
411,169,129420,1,0,0:0:0:0:
448,217,129564,1,0,0:0:0:0:
483,265,129709,1,0,0:0:0:0:
483,265,129854,6,0,B|434:321|382:335|309:317,1,187.000005706787
209,257,130723,1,0,0:0:0:0:
154,283,130868,1,0,0:0:0:0:
98,258,131013,2,0,P|84:188|92:131,1,93.5000028533936
206,163,131592,1,0,0:0:0:0:
222,104,131737,1,0,0:0:0:0:
322,172,132027,1,0,0:0:0:0:
352,223,132171,6,0,L|308:290,1,46.7500014266968
205,250,132606,1,0,0:0:0:0:
226,192,132751,2,0,B|293:182|283:114|283:114,1,93.5000028533936
241,84,133185,1,0,0:0:0:0:
206,134,133330,2,0,B|132:135|155:61|155:61,1,93.5000028533936
306,134,133909,2,0,B|380:135|357:61|357:61,1,93.5000028533936
256,18,134489,6,0,L|255:197,1,152.999995330811
200,224,135358,1,0,0:0:0:0:
200,224,135503,1,0,0:0:0:0:
200,224,135648,1,0,0:0:0:0:
256,192,135792,12,0,137963,0:0:0:0:
128,193,138255,5,0,0:0:0:0:
166,193,138399,1,0,0:0:0:0:
204,193,138544,1,0,0:0:0:0:
242,193,138689,1,0,0:0:0:0:
280,193,138834,1,0,0:0:0:0:
318,193,138979,1,0,0:0:0:0:
364,193,139124,6,0,B|431:186|463:143|472:57,1,187.000005706787
351,46,139993,1,0,0:0:0:0:
290,37,140138,1,0,0:0:0:0:
241,74,140282,2,0,B|219:117|169:126|122:112,1,93.5000028533936
200,234,140862,1,0,0:0:0:0:
260,233,141007,1,0,0:0:0:0:
304,191,141151,1,0,0:0:0:0:
409,131,141441,6,0,B|424:211|362:320|362:320,1,187.000005706787
267,239,142310,1,0,0:0:0:0:
232,289,142455,1,0,0:0:0:0:
176,313,142600,2,0,B|136:350|118:353|79:342,1,93.5000028533936
161,244,143179,2,0,B|198:214|223:208|283:210,1,93.5000028533936
137,155,143758,6,0,B|195:153|275:138|320:73,1,187.000005706787
411,151,144627,2,0,L|361:217,1,46.7500014266968
421,235,144917,2,0,B|408:261|397:285|311:301,1,93.5000028533936
229,302,145496,2,0,B|183:274|177:254|189:214,1,93.5000028533936
256,192,145931,12,0,148102,0:0:0:0:
40,348,148393,6,0,B|75:313|81:240|54:161,1,187.000005706787
144,85,149262,1,0,0:0:0:0:
191,123,149407,1,0,0:0:0:0:
242,155,149552,2,0,B|283:194|349:149|349:149,1,93.5000028533936
447,130,150131,2,0,L|472:202,1,46.7500014266968
381,82,150566,1,0,0:0:0:0:
348,30,150711,6,0,L|291:30,1,46.7500014266968
198,95,151145,2,0,L|121:95,1,46.7500014266968
255,158,151580,1,0,0:0:0:0:
315,159,151725,1,0,0:0:0:0:
375,161,151869,1,0,0:0:0:0:
307,262,152159,1,0,0:0:0:0:
192,221,152449,2,0,B|144:235|133:264|127:315,1,93.5000028533936
26,252,153028,6,0,B|56:211|60:201|59:166,1,85
91,141,153463,1,0,0:0:0:0:
128,113,153607,2,0,B|169:92|189:92|219:119,1,85
245,136,154042,1,0,0:0:0:0:
283,163,154187,1,0,0:0:0:0:
372,189,154476,1,0,0:0:0:0:
450,240,154766,2,0,B|434:281|420:296|391:303,1,85
316,252,155345,6,0,L|285:313,1,42.5
215,336,155780,2,0,L|247:273,1,42.5
163,236,156214,2,0,B|119:253|117:273|114:335,2,85
199,206,156939,1,0,0:0:0:0:
192,159,157084,1,0,0:0:0:0:
223,124,157228,1,0,0:0:0:0:
254,89,157373,1,0,0:0:0:0:
285,54,157518,1,0,0:0:0:0:
317,20,157663,5,0,0:0:0:0:
256,192,166932,12,0,168959,0:0:0:0:
256,192,169250,12,0,171277,0:0:0:0:
60,122,171567,6,0,B|103:82|149:83|204:121,1,152.999995330811
256,179,172436,1,0,0:0:0:0:
452,122,172726,2,0,B|409:82|363:83|308:121,1,152.999995330811
256,179,173595,1,0,0:0:0:0:
208,248,173885,6,0,L|208:290,1,38.2499988327027
304,286,174319,2,0,L|304:248,1,38.2499988327027
256,178,174754,1,0,0:0:0:0:
256,135,174899,1,0,0:0:0:0:
256,92,175043,1,0,0:0:0:0:
191,37,175333,1,0,0:0:0:0:
168,72,175478,1,0,0:0:0:0:
176,113,175623,1,0,0:0:0:0:
147,143,175768,1,0,0:0:0:0:
118,174,175912,1,0,0:0:0:0:
89,204,176057,1,0,0:0:0:0:
63,237,176202,5,0,0:0:0:0:
94,315,176492,2,0,B|139:323|160:323|191:305,1,76.4999976654053
200,286,176926,2,0,B|236:271|270:271|301:287,1,76.4999976654053
312,297,177361,2,0,B|357:300|378:291|400:260,1,76.4999976654053
384,236,177795,2,0,B|388:190|400:161|431:121,1,114.749996498108
368,66,178519,5,0,0:0:0:0:
288,93,178809,2,0,B|243:114|214:114|187:107,1,76.4999976654053
190,75,179244,2,0,B|148:83|123:103|111:138,1,76.4999976654053
116,152,179678,1,0,0:0:0:0:
114,194,179823,1,0,0:0:0:0:
116,236,179968,1,0,0:0:0:0:
126,276,180113,1,0,0:0:0:0:
162,296,180258,2,0,B|207:306|224:306|265:285,1,76.4999976654053
309,223,180837,6,0,B|341:244|361:255|406:251,1,93.5000028533936
460,170,181416,1,0,0:0:0:0:
460,170,181561,2,0,B|414:198|380:192|336:174,1,93.5000028533936
325,160,181996,2,0,B|259:165|235:182|235:182,1,93.5000028533936
195,215,182430,2,0,B|152:234|125:238|75:221,1,93.5000028533936
62,198,182865,1,0,0:0:0:0:
116,111,183154,5,0,0:0:0:0:
184,33,183444,2,0,B|195:77|190:99|169:129,1,93.5000028533936
146,166,183878,2,0,B|138:210|142:234|170:281,1,93.5000028533936
195,290,184313,1,0,0:0:0:0:
234,256,184458,1,0,0:0:0:0:
269,293,184603,1,0,0:0:0:0:
306,258,184747,1,0,0:0:0:0:
345,291,184892,2,0,B|395:296|422:277|436:231,1,93.5000028533936
319,164,185472,5,0,0:0:0:0:
183,130,185761,2,0,B|151:165|138:172|88:172,1,93.5000028533936
75,215,186196,2,0,B|121:235|137:251|140:290,1,93.5000028533936
188,290,186630,2,0,B|200:256|222:234|297:216,1,93.5000028533936
263,178,187065,2,0,B|312:189|338:195|411:153,1,140.25000428009
329,82,187789,5,0,0:0:0:0:
227,66,188079,2,0,B|176:80|161:97|149:135,1,93.5000028533936
183,161,188513,2,0,B|166:199|146:216|72:232,1,93.5000028533936
68,242,188948,1,0,0:0:0:0:
54,291,189093,1,0,0:0:0:0:
74,338,189237,1,0,0:0:0:0:
124,347,189382,1,0,0:0:0:0:
175,349,189527,2,0,L|292:350,1,93.5000028533936
353,310,190106,6,0,B|396:288|404:260|408:235,1,85
389,207,190541,1,0,0:0:0:0:
369,168,190686,1,0,0:0:0:0:
294,127,190976,1,0,0:0:0:0:
256,106,191120,2,0,B|211:119|199:129|169:191,1,127.5
167,233,191700,1,0,0:0:0:0:
172,274,191845,2,0,B|213:303|236:308|286:302,1,85
334,316,192424,6,0,L|334:262,1,42.5
410,234,192858,2,0,L|410:180,1,42.5
464,125,193293,1,0,0:0:0:0:
447,85,193438,1,0,0:0:0:0:
417,54,193583,2,0,B|380:46|341:48|299:67,1,85
298,79,194017,1,0,0:0:0:0:
286,119,194162,1,0,0:0:0:0:
250,141,194307,1,0,0:0:0:0:
214,164,194452,1,0,0:0:0:0:
178,187,194596,1,0,0:0:0:0:
147,210,194741,6,0,B|127:251|127:271|144:305,1,76.4999976654053
209,303,195321,2,0,L|233:249,1,38.2499988327027
261,256,195610,2,0,L|276:213,1,38.2499988327027
321,160,196045,1,0,0:0:0:0:
332,123,196190,1,0,0:0:0:0:
326,85,196335,1,0,0:0:0:0:
228,25,196624,1,0,0:0:0:0:
212,60,196769,1,0,0:0:0:0:
223,96,196914,1,0,0:0:0:0:
235,132,197059,6,0,B|241:175|236:195|209:226,1,76.4999976654053
160,247,197638,2,0,L|128:283,1,38.2499988327027
96,276,197928,2,0,L|54:325,1,38.2499988327027
52,338,198217,1,0,0:0:0:0:
90,339,198362,1,0,0:0:0:0:
128,340,198507,1,0,0:0:0:0:
165,342,198652,1,0,0:0:0:0:
192,315,198797,1,0,0:0:0:0:
230,317,198942,1,0,0:0:0:0:
268,317,199086,1,0,0:0:0:0:
306,317,199231,1,0,0:0:0:0:
337,338,199376,6,0,B|371:324|385:308|379:257,1,76.4999976654053
364,206,199955,2,0,L|364:142,1,38.2499988327027
337,139,200245,2,0,L|337:83,1,38.2499988327027
275,55,200680,1,0,0:0:0:0:
239,40,200824,1,0,0:0:0:0:
200,38,200969,1,0,0:0:0:0:
148,94,201259,1,0,0:0:0:0:
122,122,201404,1,0,0:0:0:0:
123,160,201549,1,0,0:0:0:0:
150,187,201694,6,0,B|190:208|208:210|252:203,1,76.4999976654053
273,263,202273,2,0,L|319:237,1,38.2499988327027
308,205,202563,2,0,L|358:181,1,38.2499988327027
372,117,202997,1,0,0:0:0:0:
333,117,203142,1,0,0:0:0:0:
294,117,203287,1,0,0:0:0:0:
267,143,203432,1,0,0:0:0:0:
228,142,203576,1,0,0:0:0:0:
189,142,203721,1,0,0:0:0:0:
150,143,203866,1,0,0:0:0:0:
111,146,204011,6,0,B|92:200|87:227|131:318,1,152.999995330811
221,345,205025,2,0,B|240:303|244:263|225:222,1,114.749996498108
272,169,205749,2,0,B|323:184|345:186|374:170,1,76.4999976654053
411,139,206328,6,0,B|378:103|342:95|256:117,1,152.999995330811
173,178,207342,2,0,B|201:209|243:221|302:221,1,114.749996498108
340,262,208066,2,0,B|377:268|407:264|436:227,1,76.4999976654053
465,193,208646,5,0,0:0:0:0:
256,192,208791,12,0,210674,0:0:0:0:
256,192,210818,12,0,213279,0:0:0:0:
