osu file format v14

[General]
AudioFilename: audio.mp3
AudioLeadIn: 0
PreviewTime: 53572
Countdown: 0
SampleSet: Soft
StackLeniency: 0.4
Mode: 0
LetterboxInBreaks: 0
WidescreenStoryboard: 1

[Editor]
DistanceSpacing: 1.3
BeatDivisor: 4
GridSize: 4
TimelineZoom: 2.4

[Metadata]
Title:99.9 (TV Size)
TitleUnicode:99.9 (TV Size)
Artist:MOB CHOIR feat. sajou no hana
ArtistUnicode:MOB CHOIR feat. sajou no hana
Creator:Gottagof4st
Version:Overload
Source:モブサイコ100 II
Tags:Gottagofast ggf Yudragen Chaoticred Mob Psycho 100 2nd Season Anime Opening Japanese rock
BeatmapID:1911768
BeatmapSetID:915385

[Difficulty]
HPDrainRate:6
CircleSize:4.1
OverallDifficulty:8.3
ApproachRate:9.2
SliderMultiplier:1.86
SliderTickRate:1

[Events]
//Background and Video events
0,0,"wallhaven-427257.png",0,0
Video,-400,"video.avi"
//Break Periods
//Storyboard Layer 0 (Background)
//Storyboard Layer 1 (Fail)
//Storyboard Layer 2 (Pass)
//Storyboard Layer 3 (Foreground)
//Storyboard Sound Samples

[TimingPoints]
260,357.142857142857,4,2,1,50,1,0
260,-125,4,2,1,50,0,0
1509,-125,4,2,1,65,0,0
3117,-90.9090909090909,4,2,1,70,0,0
14545,-125,4,2,1,50,0,0
25974,-111.111111111111,4,2,1,60,0,0
34545,-99.9999999999999,4,2,1,60,0,0
35974,-90.9090909090909,4,2,1,60,0,0
37402,-142.857142857143,4,2,1,50,0,0
40259,-111.111111111111,4,2,1,60,0,0
43117,-142.857142857143,4,2,1,50,0,0
45974,-86.9565217391306,4,2,1,65,0,0
51688,-166.666666666667,4,2,1,40,0,0
54545,-80,4,2,1,75,0,1
65974,-76.9230769230769,4,2,1,80,0,1
77402,-86.9565217391304,4,2,1,70,0,0
88831,-80,4,2,1,70,0,0

[Colours]
Combo1 : 128,128,128
Combo2 : 224,31,31
Combo3 : 56,216,152
Combo4 : 232,201,28

[HitObjects]
29,0,260,5,0,3:0:0:0:
113,89,438,1,0,3:0:0:0:
113,89,527,1,2,0:2:0:0:
113,89,617,2,0,L|110:135,2,37.2,2|2|2,0:2|0:1|0:1,0:0:0:0:
135,154,884,2,0,B|144:191|144:191|137:238,1,74.4,2|2,3:2|0:2,0:0:0:0:
109,249,1152,2,0,B|100:286|100:286|107:333,1,74.4,2|2,3:2|3:2,0:0:0:0:
42,187,1509,1,0,3:0:0:0:
42,187,1599,1,0,3:0:0:0:
42,187,1688,5,2,3:0:0:0:
186,301,1867,1,0,0:0:0:0:
186,301,1956,2,0,P|214:307|276:308,1,74.4,4|0,3:0|3:0,0:0:0:0:
304,306,2223,1,8,3:0:0:0:
249,163,2402,1,4,3:0:0:0:
449,221,2581,1,0,3:0:0:0:
445,239,2670,1,0,3:0:0:0:
442,253,2759,2,0,L|374:241,1,37.2,0|0,3:0|3:0,0:0:0:0:
249,163,2938,2,0,L|317:151,1,37.2,0|0,3:0|0:0,0:0:0:0:
460,77,3117,6,0,P|400:46|306:45,1,153.450004682922,4|0,1:2|0:0,0:0:0:0:
282,54,3474,2,0,L|285:167,1,102.300003121948,2|0,3:2|0:0,0:0:0:0:
396,13,3831,1,2,3:2:0:0:
170,0,4009,2,0,L|173:113,1,102.300003121948,2|0,0:2|3:0,0:0:0:0:
72,282,4367,6,0,P|18:259|22:159,1,153.450004682922,2|0,0:2|0:0,0:0:0:0:
25,142,4724,1,2,0:2:0:0:
249,163,4902,1,2,3:2:0:0:
101,277,5081,1,2,0:2:0:0:
87,52,5259,1,2,3:2:0:0:
87,52,5349,2,0,L|94:102,1,51.1500015609742,0|2,3:0|0:2,0:0:0:0:
238,263,5617,2,0,P|250:202|246:144,1,102.300003121948,2|0,3:2|0:0,0:0:0:0:
342,2,5974,5,4,3:0:0:0:
342,2,6331,2,0,P|330:56|336:116,1,102.300003121948,2|0,3:2|0:0,0:0:0:0:
507,15,6688,1,2,3:2:0:0:
507,15,6777,1,2,3:1:0:0:
507,15,6867,2,0,P|454:31|405:66,1,102.300003121948,2|0,0:2|3:0,0:0:0:0:
333,236,7224,1,6,3:2:0:0:
503,186,7402,5,0,0:0:0:0:
261,117,7581,1,2,3:2:0:0:
261,117,7670,1,0,3:0:0:0:
261,117,7759,2,0,L|328:115,1,51.1500015609742,2|0,3:2|3:0,0:0:0:0:
507,15,7938,1,2,3:2:0:0:
333,236,8117,2,0,P|326:299|329:362,1,102.300003121948,2|0,0:2|3:0,0:0:0:0:
503,186,8474,2,0,P|488:124|463:66,1,102.300003121948,6|0,3:2|3:0,0:0:0:0:
423,27,8742,1,0,3:0:0:0:
423,27,8831,5,4,1:2:0:0:
423,27,9188,2,0,P|349:11|309:15,1,102.300003121948,2|0,3:2|0:0,0:0:0:0:
251,145,9545,1,2,3:2:0:0:
432,221,9724,2,0,P|358:237|318:233,1,102.300003121948,2|0,0:2|3:0,0:0:0:0:
150,175,10081,6,0,P|191:235|170:326,1,153.450004682922,2|0,0:2|0:0,0:0:0:0:
160,341,10438,1,2,0:2:0:0:
26,97,10617,1,2,3:2:0:0:
251,145,10795,1,2,0:2:0:0:
55,306,10974,1,2,3:2:0:0:
55,306,11063,2,0,L|60:239,1,51.1500015609742,0|0,3:0|3:0,0:0:0:0:
166,7,11331,2,0,P|182:51|186:130,1,102.300003121948,2|2,3:2|0:2,0:0:0:0:
55,306,11688,5,4,3:0:0:0:
55,306,12045,2,0,P|103:321|161:321,1,102.300003121948,2|0,3:2|0:0,0:0:0:0:
168,128,12402,1,2,3:2:0:0:
168,128,12492,1,0,3:0:0:0:
168,128,12581,2,0,P|179:177|208:227,1,102.300003121948,2|0,0:2|3:0,0:0:0:0:
368,358,12938,6,0,B|331:265|404:262|365:158,1,204.600006243897,4|0,3:2|3:0,0:0:0:0:
346,131,13384,2,0,P|340:108|337:72,1,51.1500015609742,0|0,3:0|3:0,0:0:0:0:
402,8,13563,1,0,3:0:0:0:
402,8,13652,2,0,P|341:35|278:30,1,102.300003121948,6|0,3:2|0:0,0:0:0:0:
131,77,14009,5,2,0:2:0:0:
208,32,14188,1,2,3:2:0:0:
211,127,14367,1,2,0:2:0:0:
57,6,14545,6,0,P|34:89|56:153,2,148.8,4|0|0,3:2|3:0|0:0,0:0:0:0:
131,77,15438,1,2,0:2:0:0:
151,201,15617,1,0,3:0:0:0:
151,201,15795,6,0,P|116:218|91:254,1,74.4,2|0,0:2|3:0,0:0:0:0:
211,127,16152,2,0,P|213:88|195:48,1,74.4,2|4,0:2|3:0,0:0:0:0:
245,215,16509,2,0,P|277:236|320:240,1,74.4,2|0,0:2|3:0,0:0:0:0:
143,199,16867,2,0,P|108:216|83:252,1,74.4,2|4,3:0|3:0,0:0:0:0:
219,126,17224,2,0,P|221:87|203:47,1,74.4,2|0,0:2|3:0,0:0:0:0:
133,190,17581,1,2,0:2:0:0:
340,118,17759,5,2,3:2:0:0:
340,118,18117,1,0,3:0:0:0:
428,105,18295,1,2,0:2:0:0:
441,193,18474,1,4,3:0:0:0:
353,206,18652,1,2,0:2:0:0:
438,90,19009,5,2,0:1:0:0:
455,203,19188,1,4,3:0:0:0:
341,220,19367,2,0,P|330:254|330:298,1,74.4,2|0,0:2|3:0,0:0:0:0:
342,329,19634,1,0,3:0:0:0:
342,329,19724,1,2,3:2:0:0:
220,227,19902,1,2,3:2:0:0:
119,355,20081,1,2,0:2:0:0:
119,355,20170,1,2,0:1:0:0:
119,355,20259,6,0,P|58:334|58:253,2,148.8,4|4|0,3:2|3:0|0:0,0:0:0:0:
143,263,21152,1,2,0:2:0:0:
115,171,21331,1,4,3:0:0:0:
115,171,21509,6,0,P|116:120|108:86,1,74.4,2|0,0:2|3:0,0:0:0:0:
168,248,21867,2,0,P|194:204|204:170,1,74.4,2|4,0:2|3:0,0:0:0:0:
175,341,22224,2,0,P|219:316|245:292,1,74.4,2|0,0:2|3:0,0:0:0:0:
293,164,22581,2,0,P|292:215|299:249,1,74.4,2|4,3:2|3:0,0:0:0:0:
387,354,22938,2,0,P|343:327|309:317,1,74.4,2|0,0:2|3:0,0:0:0:0:
168,248,23295,1,2,0:2:0:0:
368,195,23474,5,4,3:0:0:0:
368,195,23831,1,0,3:0:0:0:
381,107,24009,1,0,0:0:0:0:
293,94,24188,1,4,3:0:0:0:
280,182,24366,1,2,0:2:0:0:
396,97,24723,5,0,3:0:0:0:
283,80,24902,1,4,3:0:0:0:
266,194,25081,2,0,P|232:205|188:205,1,74.4,0|0,3:0|3:0,0:0:0:0:
162,186,25348,1,0,0:0:0:0:
162,186,25438,1,2,0:2:0:0:
259,76,25616,1,2,3:2:0:0:
67,26,25795,1,2,0:2:0:0:
67,26,25884,1,2,0:1:0:0:
67,26,25974,6,0,B|52:64|53:110,1,83.6999974456788,6|0,1:2|0:0,0:0:0:0:
162,186,26331,2,0,B|87:169|93:232|-16:186,1,167.399994891358,4|0,3:0|3:0,0:0:0:0:
52,107,26867,1,2,0:2:0:0:
142,285,27045,1,2,3:2:0:0:
268,194,27224,6,0,P|318:172|381:182,1,83.6999974456788,2|0,0:2|3:0,0:0:0:0:
394,324,27581,2,0,P|349:291|327:232,1,83.6999974456788,2|4,0:2|3:0,0:0:0:0:
444,150,27938,2,0,P|438:204|397:253,1,83.6999974456788,2|0,0:2|3:0,0:0:0:0:
257,187,28295,2,0,P|307:165|370:175,1,83.6999974456788,2|4,3:2|3:0,0:0:0:0:
393,338,28652,6,0,P|348:305|326:246,1,83.6999974456788,2|0,0:2|3:0,0:0:0:0:
444,150,29009,1,2,0:2:0:0:
250,83,29188,2,0,P|183:72|112:75,1,125.549996168518,4|0,3:0|0:0,0:0:0:0:
98,82,29545,1,0,3:0:0:0:
16,177,29724,1,2,0:2:0:0:
123,189,29902,1,4,3:0:0:0:
41,284,30081,1,2,0:2:0:0:
357,71,30438,5,2,0:2:0:0:
250,83,30616,1,4,3:0:0:0:
332,178,30795,2,0,P|394:192|436:189,1,83.6999974456788,2|0,0:2|3:0,0:0:0:0:
446,190,31063,1,0,3:0:0:0:
446,190,31152,1,2,3:2:0:0:
357,71,31331,1,2,3:2:0:0:
264,232,31509,1,2,0:2:0:0:
264,232,31599,1,2,0:1:0:0:
264,232,31688,6,0,P|253:272|254:328,1,83.6999974456788,4|0,3:0|0:0,0:0:0:0:
96,371,32045,2,0,P|116:300|94:200,1,167.399994891358,4|0,3:0|3:0,0:0:0:0:
2,113,32581,1,2,3:2:0:0:
31,264,32759,1,2,3:2:0:0:
112,63,32938,6,0,P|164:50|197:49,1,83.6999974456788,2|0,0:2|3:0,0:0:0:0:
98,209,33295,2,0,P|136:171|164:154,1,83.6999974456788,2|4,0:2|3:0,0:0:0:0:
158,342,33652,2,0,P|172:290|188:261,1,83.6999974456788,2|0,0:2|3:0,0:0:0:0:
205,243,33920,1,0,3:0:0:0:
207,247,34009,1,0,3:0:0:0:
374,326,34188,1,4,3:0:0:0:
374,326,34545,6,0,B|390:278|390:278|376:184,1,139.5,2|0,3:2|0:0,0:0:0:0:
373,163,34902,2,0,P|413:147|465:147,1,93,4|0,3:0|0:0,0:0:0:0:
402,2,35259,2,0,P|384:56|310:85,1,139.5,2|0,3:2|0:0,0:0:0:0:
284,74,35617,2,0,P|234:65|183:66,1,93,4|0,3:0|0:0,0:0:0:0:
24,151,35974,6,0,P|99:146|142:263,1,204.600006243897,2|4,3:2|3:0,0:0:0:0:
119,369,36509,1,2,3:2:0:0:
236,205,36688,2,0,P|290:188|350:187,1,102.300003121948,2|0,3:2|3:0,0:0:0:0:
117,107,37045,1,2,3:2:0:0:
111,92,37134,1,0,3:0:0:0:
108,76,37224,1,0,3:0:0:0:
108,60,37313,1,0,3:0:0:0:
110,47,37402,6,0,P|172:33|242:31,1,130.199996026611,6|4,3:2|3:0,0:0:0:0:
284,104,37938,1,2,0:2:0:0:
284,104,38117,2,0,P|346:117|416:119,1,130.199996026611,2|4,3:2|3:0,0:0:0:0:
466,52,38652,1,2,0:2:0:0:
466,52,38831,6,0,B|496:81|496:81|492:177,1,130.199996026611,2|4,3:2|3:0,0:0:0:0:
478,271,39367,1,2,0:2:0:0:
394,212,39545,2,0,P|354:204|312:206,1,65.0999980133057,2|0,3:2|3:0,0:0:0:0:
245,298,39902,1,0,3:0:0:0:
228,300,39992,1,0,3:0:0:0:
212,302,40081,1,0,3:0:0:0:
195,304,40170,1,0,3:0:0:0:
179,306,40259,6,0,B|130:301|130:301|103:309|103:309|42:305,1,125.549996168518,2|0,3:2|0:0,0:0:0:0:
20,303,40617,1,2,3:2:0:0:
152,202,40795,1,2,0:2:0:0:
0,188,40974,1,2,3:2:0:0:
102,68,41152,2,0,P|140:60|203:66,1,83.6999974456788,2|2,0:2|3:2,0:0:0:0:
245,205,41509,1,2,0:2:0:0:
301,45,41688,6,0,P|286:95|293:137,1,83.6999974456788,2|2,3:2|0:2,0:0:0:0:
449,64,42045,2,0,P|398:76|365:103,1,83.6999974456788,2|2,3:2|0:2,0:0:0:0:
505,228,42402,1,4,3:0:0:0:
505,228,42492,1,0,3:0:0:0:
505,228,42581,1,2,0:2:0:0:
435,148,42759,1,2,3:2:0:0:
404,321,42938,1,2,3:2:0:0:
404,321,43027,1,0,3:0:0:0:
404,321,43117,6,0,P|340:337|274:316,1,130.199996026611,6|4,3:2|3:0,0:0:0:0:
244,232,43653,1,2,0:2:0:0:
244,232,43831,2,0,P|180:216|114:237,1,130.199996026611,2|4,3:2|3:0,0:0:0:0:
79,304,44367,1,2,0:2:0:0:
79,304,44546,6,0,B|71:143,1,130.199996026611,2|0,3:2|0:0,0:0:0:0:
8,100,45082,1,2,0:2:0:0:
106,15,45260,2,0,P|146:7|188:9,1,65.0999980133057,2|0,3:2|3:0,0:0:0:0:
246,185,45617,1,2,3:2:0:0:
150,97,45796,1,0,3:0:0:0:
150,97,45885,1,0,3:0:0:0:
150,97,45974,1,4,3:2:0:0:
305,27,46152,5,2,3:2:0:0:
244,212,46331,2,0,P|234:271|234:324,1,106.950002039909,2|0,3:2|3:0,0:0:0:0:
241,349,46599,1,0,3:0:0:0:
241,349,46688,1,2,3:2:0:0:
408,283,46867,1,0,3:0:0:0:
408,283,46956,2,0,L|346:277,1,53.4750010199547,2|4,3:2|3:0,0:0:0:0:
267,138,47224,2,0,P|242:134|205:144,2,53.4750010199547,2|0|0,3:2|3:0|3:0,0:0:0:0:
288,145,47492,1,0,3:0:0:0:
288,145,47581,5,2,0:2:0:0:
462,150,47760,2,0,P|472:91|472:38,1,106.950002039909,2|0,3:2|3:0,0:0:0:0:
465,13,48028,1,0,3:0:0:0:
465,13,48117,1,2,3:2:0:0:
341,150,48296,1,0,0:0:0:0:
341,150,48385,2,0,L|279:144,1,53.4750010199547,2|4,3:2|3:0,0:0:0:0:
344,334,48652,2,0,L|406:328,1,53.4750010199547,2|0,3:2|3:0,0:0:0:0:
264,374,48831,5,4,1:2:0:0:
264,374,49188,2,0,L|143:365,1,106.950002039909,2|2,3:2|3:2,0:0:0:0:
138,351,49456,2,0,L|79:351,1,53.4750010199547,0|2,3:0|0:2,0:0:0:0:
8,276,49634,1,0,3:0:0:0:
8,276,49724,2,0,P|24:243|25:202,1,53.4750010199547,4|0,3:0|0:0,0:0:0:0:
16,153,49902,1,0,3:0:0:0:
53,47,50082,1,2,3:2:0:0:
53,47,50171,1,0,3:0:0:0:
53,47,50260,5,0,3:0:0:0:
146,166,50438,1,2,0:2:0:0:
239,98,50617,2,0,P|243:67|240:35,2,53.4750010199547,2|0|4,0:2|3:0|3:0,0:0:0:0:
233,136,50884,1,0,3:0:0:0:
60,183,51064,2,0,P|50:133|50:74,1,106.950002039909,0|0,3:0|3:0,0:0:0:0:
53,47,51331,1,6,3:2:0:0:
53,47,51688,6,0,L|123:51,1,55.7999982971192,2|0,0:2|0:0,0:0:0:0:
133,70,51956,2,0,L|173:68,1,27.8999991485596,2|2,0:2|0:2,0:0:0:0:
56,145,52224,1,0,0:0:0:0:
131,204,52402,2,0,L|170:205,2,27.8999991485596,2|0|0,0:1|0:0|3:0,0:0:0:0:
79,283,52759,2,0,P|75:319|84:352,1,55.7999982971192,2|2,0:2|0:2,0:0:0:0:
169,379,53117,1,2,0:1:0:0:
169,379,53206,1,2,0:1:0:0:
169,379,53295,2,0,L|246:378,1,55.7999982971192,2|2,0:1|0:1,0:0:0:0:
335,216,53652,5,2,0:2:0:0:
335,216,53831,2,0,B|330:195|330:195|336:177|336:177|329:157|329:157|335:129,2,83.6999974456788,2|2|2,0:2|0:2|0:2,0:0:0:0:
475,329,54545,6,0,B|494:280|494:280|462:139,1,174.375,4|0,3:2|0:0,0:0:0:0:
458,126,54902,1,8,3:2:0:0:
397,368,55081,1,2,0:2:0:0:
242,149,55259,2,0,P|191:131|126:131,1,116.25,2|2,3:2|0:1,0:0:0:0:
129,130,55527,1,2,0:2:0:0:
129,130,55617,1,8,3:2:0:0:
140,324,55795,1,2,0:2:0:0:
316,199,55974,6,0,B|357:118|283:107|331:10,1,174.375,4|0,3:0|0:0,0:0:0:0:
336,1,56331,1,8,3:2:0:0:
242,149,56509,1,2,0:2:0:0:
68,0,56688,1,0,3:2:0:0:
68,0,56777,2,0,L|59:63,1,58.125,0|0,3:0|0:0,0:0:0:0:
167,231,57045,1,8,3:2:0:0:
203,2,57224,1,2,0:2:0:0:
15,258,57402,6,0,P|0:309|1:381,1,116.25,4|2,3:0|0:2,0:0:0:0:
101,151,57759,1,10,3:2:0:0:
169,352,57938,1,2,0:2:0:0:
355,160,58117,2,0,P|305:146|240:149,1,116.25,2|2,3:2|0:1,0:0:0:0:
241,148,58384,1,2,0:2:0:0:
241,148,58474,1,8,3:2:0:0:
381,362,58652,6,0,P|398:308|382:245,1,116.25,2|4,0:2|3:0,0:0:0:0:
253,44,59009,2,0,P|236:98|252:161,1,116.25,2|8,0:2|3:2,0:0:0:0:
465,201,59367,1,2,0:2:0:0:
362,2,59545,1,2,3:2:0:0:
362,2,59634,2,0,P|345:32|335:76,1,58.125,0|0,3:0|0:0,0:0:0:0:
280,247,59902,1,8,3:2:0:0:
176,16,60081,1,2,3:2:0:0:
176,16,60170,1,0,3:0:0:0:
176,16,60259,6,0,P|96:-15|28:43,1,174.375,6|0,3:2|0:0,0:0:0:0:
23,66,60617,1,8,3:2:0:0:
248,154,60795,1,2,0:2:0:0:
16,211,60974,2,0,P|1:262|2:334,1,116.25,2|0,3:2|0:0,0:0:0:0:
0,324,61242,1,2,0:2:0:0:
0,324,61331,1,8,3:2:0:0:
98,122,61509,1,2,0:2:0:0:
265,354,61688,6,0,B|284:305|284:305|252:164,1,174.375,4|0,3:0|0:0,0:0:0:0:
248,154,62045,1,8,3:2:0:0:
189,301,62224,1,2,0:2:0:0:
408,200,62402,1,2,3:2:0:0:
408,200,62492,1,0,3:0:0:0:
408,200,62581,1,2,0:1:0:0:
181,93,62759,1,8,3:2:0:0:
265,354,62938,1,2,0:2:0:0:
383,114,63117,6,0,P|398:56|395:-15,1,116.25,4|2,3:0|0:2,0:0:0:0:
257,186,63474,1,10,3:2:0:0:
495,97,63652,1,2,0:2:0:0:
263,1,63831,1,2,3:2:0:0:
263,1,63920,2,0,L|251:78,2,58.125,0|2|2,3:0|3:1|3:2,0:0:0:0:
391,171,64188,1,8,3:2:0:0:
391,171,64277,1,0,3:0:0:0:
391,171,64366,2,0,L|379:94,1,58.125,6|0,1:2|3:0,0:0:0:0:
234,207,64545,6,0,L|222:284,1,58.125,2|0,3:2|3:0,0:0:0:0:
419,377,64724,1,0,3:0:0:0:
435,353,64813,1,0,3:0:0:0:
440,324,64902,1,8,3:2:0:0:
436,294,64992,1,0,3:0:0:0:
423,267,65081,2,0,L|296:259,1,116.25,2|2,3:2|0:2,0:0:0:0:
150,324,65438,1,0,3:0:0:0:
152,343,65527,1,2,3:2:0:0:
156,361,65617,1,8,3:2:0:0:
240,179,65795,1,2,3:2:0:0:
23,285,65974,6,0,P|-28:210|0:124,1,181.349991698456,6|0,1:2|0:0,0:0:0:0:
25,101,66331,1,8,3:2:0:0:
240,179,66509,1,2,0:2:0:0:
23,285,66688,1,2,3:2:0:0:
122,31,66867,1,0,3:0:0:0:
240,323,67045,1,8,3:2:0:0:
300,35,67224,1,2,3:2:0:0:
300,35,67313,1,0,3:0:0:0:
300,35,67402,6,0,P|377:16|455:94,1,181.349991698456,6|0,3:2|0:0,0:0:0:0:
461,110,67759,1,8,3:2:0:0:
384,315,67937,1,2,0:2:0:0:
272,26,68116,1,2,3:2:0:0:
240,323,68295,1,0,3:0:0:0:
391,20,68473,1,8,3:2:0:0:
144,167,68652,1,2,3:2:0:0:
144,167,68741,1,0,3:0:0:0:
144,167,68831,6,0,B|169:258|107:253|137:346,1,181.349991698456,6|0,1:2|0:0,0:0:0:0:
142,374,69188,1,10,3:2:0:0:
14,191,69366,1,2,0:2:0:0:
310,274,69545,1,2,3:2:0:0:
9,331,69724,1,0,3:0:0:0:
265,194,69902,1,8,3:2:0:0:
49,69,70081,1,2,3:2:0:0:
49,69,70170,1,0,3:0:0:0:
49,69,70259,6,0,P|98:53|168:52,1,120.899994465637,6|2,1:2|0:2,0:0:0:0:
14,191,70616,1,8,3:2:0:0:
310,274,70794,1,2,0:2:0:0:
175,24,70973,1,2,3:2:0:0:
136,343,71152,1,0,3:0:0:0:
35,40,71330,1,8,3:2:0:0:
297,145,71509,1,2,3:2:0:0:
297,145,71598,1,0,3:0:0:0:
297,145,71688,6,0,B|388:170|383:108|476:138,1,181.349991698456,6|0,1:2|0:0,0:0:0:0:
337,31,72045,1,8,3:2:0:0:
356,334,72223,1,2,0:2:0:0:
181,67,72402,1,2,3:2:0:0:
447,259,72581,1,0,3:0:0:0:
250,0,72759,1,8,3:2:0:0:
269,339,72937,1,2,3:2:0:0:
269,339,73026,1,0,3:0:0:0:
269,339,73116,6,0,P|187:379|94:344,1,181.349991698456,6|0,1:2|0:0,0:0:0:0:
173,116,73474,1,8,3:2:0:0:
285,364,73651,1,2,0:2:0:0:
254,51,73831,1,2,3:2:0:0:
104,353,74009,1,2,3:2:0:0:
166,19,74188,1,10,3:2:0:0:
423,313,74367,1,0,3:0:0:0:
423,313,74456,1,0,3:0:0:0:
423,313,74545,6,0,B|450:263|450:263|418:130,1,181.349991698456,4|0,3:2|0:0,0:0:0:0:
372,66,74902,2,0,P|313:50|245:52,1,120.899994465637,10|0,3:2|3:0,0:0:0:0:
213,294,75259,2,0,P|256:250|288:191,1,120.899994465637,2|0,3:2|3:0,0:0:0:0:
95,42,75617,1,10,3:2:0:0:
95,42,75795,2,0,P|110:101|146:158,1,120.899994465637,2|0,3:2|3:0,0:0:0:0:
354,131,76152,5,0,3:2:0:0:
389,92,76242,1,0,3:0:0:0:
363,45,76331,1,0,3:2:0:0:
310,55,76420,1,0,3:0:0:0:
303,108,76509,1,2,3:2:0:0:
303,108,77402,6,0,B|285:142|285:142|312:263,1,160.425003059864,4|0,1:2|0:0,0:0:0:0:
332,291,77759,2,0,P|381:284|432:256,1,106.950002039909,2|0,3:2|0:0,0:0:0:0:
476,74,78116,1,2,3:2:0:0:
301,20,78295,2,0,P|255:1|197:0,1,106.950002039909,2|0,0:2|3:0,0:0:0:0:
31,70,78652,6,0,P|101:76|136:162,1,160.425003059864,2|0,0:2|0:0,0:0:0:0:
139,184,79009,1,2,0:2:0:0:
18,49,79187,1,2,3:2:0:0:
225,105,79366,1,2,0:2:0:0:
34,198,79544,1,2,3:2:0:0:
34,198,79634,2,0,L|41:251,1,53.4750010199547,0|2,3:0|0:2,0:0:0:0:
225,105,79902,2,0,P|237:44|233:-14,1,106.950002039909,2|0,3:2|0:0,0:0:0:0:
139,184,80259,5,4,3:0:0:0:
139,184,80616,2,0,P|193:196|253:190,1,106.950002039909,2|0,3:2|0:0,0:0:0:0:
113,292,80973,1,2,3:2:0:0:
256,330,81152,2,0,P|308:313|357:278,1,106.950002039909,2|0,0:2|3:0,0:0:0:0:
319,132,81509,1,6,3:2:0:0:
459,242,81687,5,0,0:0:0:0:
395,57,81866,1,2,3:2:0:0:
395,57,81955,1,0,3:0:0:0:
395,57,82045,2,0,L|330:55,1,53.4750010199547,2|0,3:2|0:0,0:0:0:0:
239,193,82223,1,2,3:2:0:0:
407,136,82402,2,0,P|470:129|533:132,1,106.950002039909,2|0,0:2|3:0,0:0:0:0:
259,31,82759,2,0,P|196:38|133:35,1,106.950002039909,6|0,3:2|3:0,0:0:0:0:
87,11,83027,1,0,3:0:0:0:
87,11,83116,5,4,1:2:0:0:
87,11,83474,2,0,P|71:85|75:125,1,106.950002039909,2|0,3:2|0:0,0:0:0:0:
259,31,83830,1,2,3:2:0:0:
160,157,84009,2,0,P|183:229|206:261,1,106.950002039909,2|0,0:2|3:0,0:0:0:0:
428,173,84366,6,0,B|391:153|391:153|269:171,1,160.425003059864,2|0,0:2|0:0,0:0:0:0:
241,178,84724,1,2,0:2:0:0:
405,264,84902,1,2,3:2:0:0:
274,53,85080,1,2,0:2:0:0:
202,282,85259,1,2,3:2:0:0:
202,282,85348,2,0,L|207:349,1,53.4750010199547,0|2,3:0|0:2,0:0:0:0:
75,146,85616,2,0,P|91:102|95:23,1,106.950002039909,2|2,3:2|0:2,0:0:0:0:
13,208,85974,5,4,3:0:0:0:
13,208,86330,2,0,P|56:233|112:223,1,106.950002039909,2|0,3:2|0:0,0:0:0:0:
227,84,86687,1,2,3:2:0:0:
227,84,86777,1,0,3:0:0:0:
227,84,86867,2,0,P|183:108|164:162,1,106.950002039909,2|4,0:2|3:0,0:0:0:0:
341,297,87223,6,0,B|243:258|239:334|130:293,1,213.900004079819,4|0,1:2|3:0,0:0:0:0:
119,274,87670,2,0,P|113:251|110:215,1,53.4750010199547,0|0,3:0|3:0,0:0:0:0:
46,153,87848,1,0,3:0:0:0:
46,153,87938,2,0,P|73:92|68:29,1,106.950002039909,6|0,3:2|0:0,0:0:0:0:
204,193,88295,1,0,3:0:0:0:
201,209,88384,1,0,3:0:0:0:
198,224,88473,1,0,3:0:0:0:
319,64,88652,1,0,3:0:0:0:
316,48,88742,1,0,3:0:0:0:
313,33,88831,5,2,3:2:0:0:
