osu file format v14

[General]
AudioFilename: audio.mp3
AudioLeadIn: 0
PreviewTime: 53572
Countdown: 0
SampleSet: Soft
StackLeniency: 0.4
Mode: 0
LetterboxInBreaks: 0
WidescreenStoryboard: 1

[Editor]
DistanceSpacing: 1.3
BeatDivisor: 4
GridSize: 4
TimelineZoom: 1.5

[Metadata]
Title:99.9 (TV Size)
TitleUnicode:99.9 (TV Size)
Artist:MOB CHOIR feat. sajou no hana
ArtistUnicode:MOB CHOIR feat. sajou no hana
Creator:Gottagof4st
Version:Advanced
Source:モブサイコ100 II
Tags:Gottagofast ggf Yudragen Chaoticred Mob Psycho 100 2nd Season Anime Opening Japanese rock
BeatmapID:1913574
BeatmapSetID:915385

[Difficulty]
HPDrainRate:4
CircleSize:3
OverallDifficulty:5
ApproachRate:7
SliderMultiplier:1.4
SliderTickRate:1

[Events]
//Background and Video events
0,0,"wallhaven-427257.png",0,0
Video,-400,"video.avi"
//Break Periods
//Storyboard Layer 0 (Background)
//Storyboard Layer 1 (Fail)
//Storyboard Layer 2 (Pass)
//Storyboard Layer 3 (Foreground)
//Storyboard Sound Samples

[TimingPoints]
260,357.142857142857,4,2,1,50,1,0
260,-142.857142857143,4,2,1,50,0,0
1509,-142.857142857143,4,2,1,65,0,0
3117,-111.111111111111,4,2,1,70,0,0
14545,-142.857142857143,4,2,1,50,0,0
25974,-125,4,2,1,60,0,0
37402,-125,4,2,1,50,0,0
40259,-125,4,2,1,60,0,0
43117,-125,4,2,1,50,0,0
45974,-125,4,2,1,65,0,0
51688,-125,4,2,1,40,0,0
54545,-90.9090909090909,4,2,1,75,0,1
65795,-90.9090909090909,4,2,1,75,0,0
65974,-90.9090909090909,4,2,1,80,0,1
77402,-111.111111111111,4,2,1,70,0,0

[Colours]
Combo1 : 128,128,128
Combo2 : 224,31,31
Combo3 : 56,216,152
Combo4 : 232,201,28

[HitObjects]
82,50,260,6,0,P|124:99|83:227,1,195.999994018555,0|2,3:0|0:1,0:0:0:0:
141,315,1331,2,0,P|180:290|224:284,1,73.4999977569581,2|0,3:2|3:0,0:0:0:0:
238,283,1688,6,0,L|249:366,2,73.4999977569581,2|4|8,3:0|3:0|3:0,0:0:0:0:
311,178,2581,2,0,L|320:125,2,48.9999985046387,0|0|0,3:0|3:0|0:0,0:0:0:0:
347,251,3117,6,0,P|393:266|451:266,1,94.499997116089,4|0,1:2|0:0,0:0:0:0:
475,248,3474,2,0,L|466:168,1,62.9999980773926,2|0,3:2|0:0,0:0:0:0:
425,115,3831,1,2,3:2:0:0:
425,115,4009,2,0,L|434:35,1,62.9999980773926,2|0,0:2|3:0,0:0:0:0:
362,8,4367,6,0,P|309:2|220:3,1,125.999996154785,2|2,0:2|0:2,0:0:0:0:
161,34,4902,1,2,3:2:0:0:
140,115,5081,1,2,0:2:0:0:
62,141,5259,2,0,P|50:194|50:219,1,62.9999980773926,2|2,3:2|0:2,0:0:0:0:
118,248,5617,2,0,P|130:301|130:326,1,62.9999980773926,2|0,3:2|0:0,0:0:0:0:
67,362,5974,5,4,3:0:0:0:
67,362,6331,2,0,P|108:349|172:345,1,94.499997116089,2|0,3:2|0:0,0:0:0:0:
196,361,6688,1,2,3:2:0:0:
267,320,6867,2,0,P|308:321|340:315,1,62.9999980773926,2|0,0:2|3:0,0:0:0:0:
406,288,7224,6,0,L|409:156,1,125.999996154785,6|2,3:2|3:2,0:0:0:0:
396,81,7759,1,2,3:2:0:0:
321,112,7938,1,2,3:2:0:0:
246,146,8117,2,0,P|196:146|159:134,1,62.9999980773926,2|0,0:2|3:0,0:0:0:0:
129,81,8474,2,0,P|79:81|42:93,1,62.9999980773926,6|0,3:2|3:0,0:0:0:0:
11,144,8831,5,4,1:2:0:0:
11,144,9188,2,0,P|30:99|40:40,1,94.499997116089,2|0,3:2|0:0,0:0:0:0:
26,15,9545,1,2,3:2:0:0:
107,7,9724,2,0,P|155:17|185:19,1,62.9999980773926,2|0,0:2|3:0,0:0:0:0:
237,62,10081,6,0,P|293:43|361:55,1,125.999996154785,2|2,0:2|0:2,0:0:0:0:
426,100,10617,1,2,3:2:0:0:
452,178,10795,1,2,0:2:0:0:
456,262,10974,2,0,B|424:269|424:269|385:261,1,62.9999980773926,2|0,3:2|3:0,0:0:0:0:
335,319,11331,2,0,B|303:312|303:312|264:320,1,62.9999980773926,2|2,3:2|0:2,0:0:0:0:
209,369,11688,5,4,3:0:0:0:
209,369,12045,2,0,P|154:351|115:350,1,94.499997116089,2|0,3:2|0:0,0:0:0:0:
78,361,12402,1,2,3:2:0:0:
43,286,12581,2,0,L|38:206,1,62.9999980773926,2|0,0:2|3:0,0:0:0:0:
10,146,12938,6,0,P|49:174|130:167,1,125.999996154785,4|0,3:2|3:0,0:0:0:0:
182,112,13474,1,0,3:0:0:0:
182,112,13652,2,0,P|221:84|302:91,1,125.999996154785,6|2,3:2|0:2,0:0:0:0:
350,149,14188,2,0,L|354:218,1,62.9999980773926,2|2,3:2|0:2,0:0:0:0:
331,290,14545,6,0,L|221:293,1,97.9999970092774,4|0,3:2|3:0,0:0:0:0:
233,292,15438,2,0,L|238:348,2,48.9999985046387,2|0|2,0:2|3:0|0:2,0:0:0:0:
107,268,16152,2,0,L|101:375,2,97.9999970092774,2|2|2,0:2|0:2|3:0,0:0:0:0:
54,151,17224,1,2,0:2:0:0:
121,43,17581,5,2,0:2:0:0:
121,42,17759,2,0,P|162:59|232:53,1,97.9999970092774,2|0,3:2|3:0,0:0:0:0:
334,15,18474,1,4,3:0:0:0:
334,15,18652,1,2,0:2:0:0:
417,111,19009,2,0,L|478:105,2,48.9999985046387,2|4|2,0:1|3:0|0:2,0:0:0:0:
315,188,19724,2,0,P|310:223|310:248,1,48.9999985046387,2|2,3:2|3:2,0:0:0:0:
333,295,20081,1,2,0:2:0:0:
333,295,20259,6,0,P|397:291|441:302,1,97.9999970092774,4|4,3:2|3:0,0:0:0:0:
429,298,21152,2,0,L|425:355,2,48.9999985046387,2|4|2,0:2|3:0|0:2,0:0:0:0:
349,197,21867,2,0,L|342:97,2,97.9999970092774,2|2|2,0:2|0:2|3:2,0:0:0:0:
291,310,22938,1,2,0:2:0:0:
191,229,23295,5,2,0:2:0:0:
191,229,23474,2,0,B|173:266|173:327,1,97.9999970092774,4|0,3:0|3:0,0:0:0:0:
51,361,24188,1,4,3:0:0:0:
51,361,24367,1,2,0:2:0:0:
46,233,24724,2,0,L|96:237,2,48.9999985046387,0|4|0,3:0|3:0|3:0,0:0:0:0:
14,109,25438,2,0,L|16:51,1,48.9999985046387,2|2,0:2|3:2,0:0:0:0:
52,7,25795,1,2,0:2:0:0:
52,7,25974,6,0,P|91:28|156:23,1,112,6|4,1:2|3:0,0:0:0:0:
156,22,26867,1,2,0:2:0:0:
207,87,27045,1,2,3:2:0:0:
165,160,27224,2,0,L|158:278,2,112,2|2|2,0:2|0:2|0:2,0:0:0:0:
241,10,28295,1,2,3:2:0:0:
310,162,28652,1,2,0:2:0:0:
383,10,29009,6,0,P|436:15|461:80,1,112,2|2,0:2|0:2,0:0:0:0:
430,140,29545,2,0,L|423:210,1,56,0|2,3:0|0:2,0:0:0:0:
457,273,29902,1,4,3:0:0:0:
457,273,30081,1,2,0:2:0:0:
325,377,30438,2,0,L|318:307,1,56,2|4,0:2|3:0,0:0:0:0:
279,247,30795,1,2,0:2:0:0:
151,356,31152,1,2,3:2:0:0:
151,356,31331,2,0,P|110:368|73:368,1,56,2|2,3:2|0:2,0:0:0:0:
24,326,31688,6,0,B|44:288|44:288|34:204,1,112,4|4,3:0|3:0,0:0:0:0:
35,219,32581,1,2,3:2:0:0:
98,163,32759,1,2,3:2:0:0:
168,209,32938,2,0,P|178:155|147:97,2,112,2|2|2,0:2|0:2|0:2,0:0:0:0:
265,345,34009,1,0,3:0:0:0:
265,345,34188,1,4,3:0:0:0:
382,224,34545,6,0,L|516:234,1,112,2|4,3:2|3:0,0:0:0:0:
418,82,35259,2,0,L|284:92,1,112,2|4,3:2|3:0,0:0:0:0:
306,258,35974,2,0,L|440:268,1,112,2|4,3:2|3:0,0:0:0:0:
320,129,36688,2,0,P|283:126|251:133,1,56,2|0,3:2|3:0,0:0:0:0:
208,191,37045,2,0,P|171:194|139:187,1,56,2|0,3:2|3:0,0:0:0:0:
80,147,37402,5,6,3:2:0:0:
29,309,37938,2,0,L|21:372,1,56,2|2,0:2|3:2,0:0:0:0:
208,191,38652,2,0,L|216:254,1,56,2|2,0:2|3:2,0:0:0:0:
33,67,39367,1,2,0:2:0:0:
33,67,39545,2,0,P|70:70|102:63,1,56,2|0,3:2|3:0,0:0:0:0:
145,5,39902,2,0,P|182:2|214:9,1,56,0|0,3:0|3:0,0:0:0:0:
259,64,40259,5,2,3:2:0:0:
423,26,40617,2,0,P|433:61|435:87,1,56,2|2,3:2|0:2,0:0:0:0:
476,153,40974,2,0,P|466:188|464:214,2,56,2|2|2,3:2|0:2|3:2,0:0:0:0:
434,80,41509,1,2,0:2:0:0:
376,141,41688,6,0,P|335:146|248:143,1,112,2|2,3:2|3:2,0:0:0:0:
150,21,42402,1,4,3:0:0:0:
13,118,42759,2,0,P|6:151|10:191,1,56,2|2,3:2|3:2,0:0:0:0:
62,236,43117,5,6,3:2:0:0:
214,88,43652,2,0,L|151:80,1,56,2|2,0:2|3:2,0:0:0:0:
294,275,44367,2,0,L|231:283,1,56,2|2,0:2|3:2,0:0:0:0:
391,67,45081,1,2,0:2:0:0:
391,67,45259,2,0,P|380:102|377:131,1,56,2|0,3:2|3:0,0:0:0:0:
437,181,45617,2,0,P|448:216|452:296,1,112,2|4,3:2|3:2,0:0:0:0:
391,347,46152,5,2,3:2:0:0:
391,347,46331,2,0,L|315:341,1,56,2|0,3:2|3:0,0:0:0:0:
269,289,46688,2,0,L|168:298,2,84,2|2|2,3:2|3:2|3:2,0:0:0:0:
332,133,47581,5,2,0:2:0:0:
332,133,47759,2,0,P|341:104|339:67,1,56,2|0,3:2|3:0,0:0:0:0:
269,33,48117,2,0,P|217:26|176:11,2,84,2|2|2,3:2|3:2|3:2,0:0:0:0:
341,78,48831,5,4,1:2:0:0:
474,179,49188,2,0,L|481:249,1,56,2|2,3:2|3:2,0:0:0:0:
418,292,49545,2,0,P|409:331|405:382,2,84,2|2|2,0:2|0:2|3:2,0:0:0:0:
361,229,50259,5,0,3:0:0:0:
259,363,50617,1,2,0:2:0:0:
229,197,50974,2,0,P|183:186|162:186,1,56,2|0,0:2|0:0,0:0:0:0:
119,249,51331,2,0,P|73:260|52:260,1,56,6|0,3:2|3:0,0:0:0:0:
9,196,51688,5,2,0:2:0:0:
9,196,53652,5,2,0:2:0:0:
9,196,53831,2,0,L|27:104,2,84,2|2|2,0:2|0:2|0:2,0:0:0:0:
44,289,54545,6,0,P|91:278|157:303,1,115.50000352478,4|0,3:2|0:0,0:0:0:0:
185,338,54902,2,0,L|272:334,1,77.0000023498536,8|2,3:2|0:2,0:0:0:0:
329,260,55259,2,0,P|357:301|354:376,2,115.50000352478,2|2|2,3:2|0:2|0:2,0:0:0:0:
245,203,55974,2,0,P|225:122|273:40,1,154.000004699707,4|8,3:0|3:2,0:0:0:0:
346,26,56509,1,2,0:2:0:0:
346,26,56688,2,0,L|464:35,2,115.50000352478,0|2|2,3:2|0:2|0:2,0:0:0:0:
251,59,57402,5,4,3:0:0:0:
169,118,57581,1,2,0:2:0:0:
102,44,57759,2,0,P|55:38|20:41,1,77.0000023498536,10|2,3:2|0:2,0:0:0:0:
0,137,58117,2,0,P|9:199|1:268,2,115.50000352478,2|2|2,3:2|0:2|0:2,0:0:0:0:
106,306,59009,2,0,P|140:287|181:288,1,77.0000023498536,2|8,0:2|3:2,0:0:0:0:
260,343,59367,1,2,0:2:0:0:
260,343,59545,1,2,3:2:0:0:
322,264,59724,2,0,P|356:245|397:246,1,77.0000023498536,0|8,0:0|3:2,0:0:0:0:
475,302,60081,1,2,3:2:0:0:
505,207,60259,6,0,B|519:170|519:170|501:89,1,115.50000352478,6|0,3:2|0:0,0:0:0:0:
474,53,60617,2,0,P|432:47|392:46,1,77.0000023498536,8|2,3:2|0:2,0:0:0:0:
318,107,60974,2,0,P|310:181|314:222,2,115.50000352478,2|2|2,3:2|0:2|0:2,0:0:0:0:
249,33,61688,2,0,P|168:13|86:61,1,154.000004699707,4|8,3:0|3:2,0:0:0:0:
35,111,62223,1,2,0:2:0:0:
86,196,62402,2,0,P|93:236|90:319,2,115.50000352478,2|2|2,3:2|0:2|0:2,0:0:0:0:
35,111,63116,5,4,3:0:0:0:
35,111,63295,1,2,0:2:0:0:
105,39,63473,2,0,P|152:33|187:36,1,77.0000023498536,10|2,3:2|0:2,0:0:0:0:
246,112,63831,2,0,P|257:165|262:277,1,154.000004699707,2|8,3:2|3:2,0:0:0:0:
299,357,64367,6,0,B|341:335|341:335|454:359,1,154.000004699707,6|0,1:2|3:0,0:0:0:0:
501,165,65081,1,2,3:2:0:0:
501,165,65259,2,0,P|459:178|380:183,2,115.50000352478,2|2|2,0:2|3:2|3:2,0:0:0:0:
497,64,65974,6,0,L|406:59,1,77.0000023498536,6|0,1:2|0:0,0:0:0:0:
330,14,66331,2,0,L|239:19,1,77.0000023498536,8|2,3:2|0:2,0:0:0:0:
187,94,66688,1,2,3:2:0:0:
187,94,66867,1,0,3:0:0:0:
102,41,67045,2,0,P|70:81|56:122,1,77.0000023498536,8|2,3:2|3:2,0:0:0:0:
46,203,67402,6,0,P|62:235|65:289,1,77.0000023498536,6|0,3:2|0:0,0:0:0:0:
140,343,67759,2,0,P|159:313|204:283,1,77.0000023498536,8|2,3:2|0:2,0:0:0:0:
293,279,68117,1,2,3:2:0:0:
293,279,68295,1,0,3:0:0:0:
378,331,68474,2,0,P|424:338|457:335,1,77.0000023498536,8|2,3:2|3:2,0:0:0:0:
490,242,68831,6,0,L|480:78,1,154.000004699707,6|10,1:2|3:2,0:0:0:0:
413,14,69367,1,2,0:2:0:0:
355,95,69545,2,0,P|346:147|351:214,2,115.50000352478,2|2|2,3:2|0:2|3:2,0:0:0:0:
288,19,70259,5,6,1:2:0:0:
169,18,70438,2,0,B|200:61|200:61|186:171,1,154.000004699707,2|0,0:2|0:0,0:0:0:0:
118,234,70974,2,0,P|110:283|105:358,2,115.50000352478,2|2|2,3:2|0:2|3:2,0:0:0:0:
40,170,71688,6,0,P|26:130|28:86,1,77.0000023498536,6|0,1:2|0:0,0:0:0:0:
98,26,72045,2,0,P|139:33|176:57,1,77.0000023498536,8|2,3:2|0:2,0:0:0:0:
226,133,72402,1,2,3:2:0:0:
226,133,72581,1,0,3:0:0:0:
279,48,72759,2,0,P|331:38|366:42,1,77.0000023498536,8|2,3:2|3:2,0:0:0:0:
449,73,73117,6,0,P|465:109|475:225,1,154.000004699707,6|8,1:2|3:2,0:0:0:0:
414,301,73652,1,2,0:2:0:0:
323,258,73831,1,2,3:2:0:0:
260,335,74009,1,2,3:2:0:0:
178,276,74188,2,0,P|131:277|86:288,1,77.0000023498536,10|0,3:2|3:0,0:0:0:0:
12,327,74545,6,0,P|40:268|40:216,1,115.50000352478,4|0,3:2|0:0,0:0:0:0:
14,175,74902,2,0,P|11:134|18:91,1,77.0000023498536,10|0,3:2|3:0,0:0:0:0:
100,43,75259,2,0,P|137:60|170:88,1,77.0000023498536,2|0,3:2|3:0,0:0:0:0:
223,164,75617,1,10,3:2:0:0:
319,189,75795,6,0,P|356:171|389:143,1,77.0000023498536,2|0,3:2|3:0,0:0:0:0:
459,82,76152,2,0,P|445:122|466:207,1,115.50000352478,0|0,3:2|3:0,0:0:0:0:
482,237,76509,1,2,3:2:0:0:
482,237,77402,6,0,P|436:252|378:252,1,94.499997116089,4|0,1:2|0:0,0:0:0:0:
356,229,77759,2,0,P|325:226|291:230,1,62.9999980773926,2|0,3:2|0:0,0:0:0:0:
229,280,78116,1,2,3:2:0:0:
229,280,78295,2,0,P|198:283|164:279,1,62.9999980773926,2|0,0:2|3:0,0:0:0:0:
105,334,78652,6,0,P|111:281|91:198,1,125.999996154785,2|2,0:2|0:2,0:0:0:0:
41,149,79187,1,2,3:2:0:0:
55,68,79366,1,2,0:2:0:0:
125,27,79545,2,0,P|178:15|203:15,1,62.9999980773926,2|2,3:2|0:2,0:0:0:0:
249,67,79902,2,0,P|302:79|327:79,1,62.9999980773926,2|0,3:2|0:0,0:0:0:0:
380,36,80259,5,4,3:0:0:0:
380,36,80616,2,0,P|393:77|397:141,1,94.499997116089,2|0,3:2|0:0,0:0:0:0:
400,169,80973,1,2,3:2:0:0:
346,231,81152,2,0,P|311:223|273:226,1,62.9999980773926,2|0,0:2|3:0,0:0:0:0:
234,289,81509,6,0,B|188:302|188:302|102:286,1,125.999996154785,6|2,3:2|3:2,0:0:0:0:
105,206,82044,1,2,3:2:0:0:
32,166,82223,1,2,3:2:0:0:
25,84,82402,2,0,P|50:40|78:14,1,62.9999980773926,2|0,0:2|3:0,0:0:0:0:
139,14,82759,2,0,P|164:57|172:95,1,62.9999980773926,6|0,3:2|3:0,0:0:0:0:
192,147,83116,5,4,1:2:0:0:
192,147,83474,2,0,P|236:163|297:159,1,94.499997116089,2|0,3:2|0:0,0:0:0:0:
322,148,83830,1,2,3:2:0:0:
368,80,84009,2,0,L|446:87,1,62.9999980773926,2|0,0:2|3:0,0:0:0:0:
490,141,84366,6,0,B|476:178|476:178|483:265,1,125.999996154785,2|2,0:2|0:2,0:0:0:0:
449,339,84902,1,2,3:2:0:0:
379,296,85080,1,2,0:2:0:0:
333,364,85259,2,0,B|301:371|301:371|262:363,1,62.9999980773926,2|2,3:2|0:2,0:0:0:0:
190,379,85616,2,0,B|158:372|158:372|119:380,1,62.9999980773926,2|2,3:2|0:2,0:0:0:0:
51,349,85973,5,4,3:0:0:0:
51,349,86331,2,0,L|43:253,1,94.499997116089,2|0,3:2|0:0,0:0:0:0:
39,213,86687,1,2,3:2:0:0:
69,136,86866,2,0,P|95:125|147:123,1,62.9999980773926,2|4,0:2|3:0,0:0:0:0:
187,178,87223,6,0,B|227:201|227:201|316:191,1,125.999996154785,4|0,1:2|3:0,0:0:0:0:
371,142,87759,1,0,3:0:0:0:
371,142,87938,2,0,B|417:142|417:142|489:195,1,125.999996154785,6|0,3:2|3:0,0:0:0:0:
474,271,88474,1,0,3:0:0:0:
426,337,88652,2,0,L|355:335,1,62.9999980773926,0|2,3:0|3:2,0:0:0:0:
