osu file format v14

[General]
AudioFilename: audio.mp3
AudioLeadIn: 0
PreviewTime: -1
Countdown: 1
SampleSet: None
StackLeniency: 0.7
Mode: 0
LetterboxInBreaks: 0
WidescreenStoryboard: 0

[Editor]
Bookmarks: 14002,34538,37395,51681,54538,77395
DistanceSpacing: 1.3
BeatDivisor: 4
GridSize: 4
TimelineZoom: 1

[Metadata]
Title:99.9 (TV Size)
TitleUnicode:99.9 (TV Size)
Artist:MOB CHOIR feat. sajou no hana
ArtistUnicode:MOB CHOIR feat. sajou no hana
Creator:Doomsdaddy
Version:Your Life Is Your Own
Source:Mob Psycho 100 II
Tags:anime opening op
BeatmapID:2047168
BeatmapSetID:978200

[Difficulty]
HPDrainRate:4
CircleSize:3.8
OverallDifficulty:8.2
ApproachRate:9.2
SliderMultiplier:2.2
SliderTickRate:1

[Events]
//Background and Video events
0,0,"thumb-1920-706757.png",0,0
//Break Periods
//Storyboard Layer 0 (Background)
//Storyboard Layer 1 (Fail)
//Storyboard Layer 2 (Pass)
//Storyboard Layer 3 (Foreground)
//Storyboard Sound Samples

[TimingPoints]
253,357.142857142857,4,2,0,60,1,0
3110,-83.3333333333333,4,2,0,60,0,0
5252,-166.666666666667,4,2,0,60,0,0
5967,-83.3333333333333,4,2,0,60,0,0
14538,-125,4,2,0,60,0,0
30342,-125,4,2,0,5,0,0
30431,-125,4,2,0,60,0,0
30520,-125,4,2,0,5,0,0
30610,-125,4,2,0,60,0,0
30699,-125,4,2,0,5,0,0
30788,-125,4,2,0,60,0,0
30877,-125,4,2,0,5,0,0
30967,-125,4,2,0,60,0,0
31056,-125,4,2,0,5,0,0
31145,-125,4,2,0,60,0,0
31235,-125,4,2,0,5,0,0
31324,-125,4,2,0,60,0,0
31413,-125,4,2,0,5,0,0
31502,-125,4,2,0,60,0,0
31592,-125,4,2,0,5,0,0
31681,-125,4,2,0,60,0,0
37395,-100,4,2,0,60,0,0
53824,-200,4,2,0,60,0,0
54360,-100,4,2,0,60,0,0
54538,-62.5,4,2,0,60,0,0
55788,-62.5,4,2,0,60,0,0
65520,-125,4,2,0,60,0,0
65788,-62.5,4,2,0,60,0,0
76502,-250,4,2,0,60,0,0
77752,-100,4,2,0,60,0,0
81681,-250,4,2,0,60,0,0
83110,-100,4,2,0,60,0,0

[HitObjects]
92,130,253,6,0,P|135:135|182:206,1,110
103,262,520,2,0,P|98:234|106:198,2,55
163,320,788,1,0,0:0:0:0:
223,260,877,2,0,L|350:279,1,110
405,202,1145,2,0,L|326:190,2,55
136,116,1502,5,0,0:0:0:0:
162,109,1591,1,0,0:0:0:0:
188,103,1681,2,0,P|223:115|175:181,1,110
135,254,1949,2,0,P|170:261|185:294,2,55
39,196,2217,2,0,P|77:193|99:176,1,55
188,103,2395,6,0,P|263:107|317:129,1,110
331,197,2663,1,0,0:0:0:0:
283,221,2752,1,0,0:0:0:0:
270,245,2841,1,0,0:0:0:0:
262,271,2930,1,0,0:0:0:0:
261,299,3019,1,0,0:0:0:0:
265,326,3110,6,0,P|330:355|377:230,1,197.99999395752
354,178,3467,2,0,P|345:132|371:51,1,131.99999597168
188,103,3824,2,0,L|96:120,1,65.9999979858399
270,85,4002,1,0,0:0:0:0:
33,137,4181,1,0,0:0:0:0:
33,137,4360,6,0,P|40:218|175:251,1,197.99999395752
247,169,4717,2,0,P|256:137|232:83,1,65.9999979858399
119,171,4895,6,0,P|152:145|215:138,1,65.9999979858399
248,263,5074,2,0,P|214:237|151:230,1,65.9999979858399
123,349,5252,1,0,0:0:0:0:
123,349,5342,6,0,P|156:323|219:316,1,65.9999979858399
275,349,5610,1,0,0:0:0:0:
388,243,5967,6,0,P|329:225|318:111,1,131.99999597168
378,41,6324,2,0,B|333:37|333:37|287:62|287:62|235:55|235:55|139:84,1,197.99999395752
101,95,6681,1,0,0:0:0:0:
101,95,6770,2,0,P|140:158|119:222,1,131.99999597168
67,310,7038,2,0,L|161:303,1,65.9999979858399
285,193,7217,2,0,L|191:186,1,65.9999979858399
319,295,7395,6,0,P|345:279|377:155,1,131.99999597168
347,119,7663,1,0,0:0:0:0:
389,109,7752,1,0,0:0:0:0:
430,122,7841,1,0,0:0:0:0:
458,156,7931,6,0,B|384:189|384:189|241:146,1,197.99999395752
142,125,8288,2,0,P|138:158|161:229,1,65.9999979858399
225,268,8467,1,0,0:0:0:0:
203,77,8645,1,0,0:0:0:0:
145,48,8734,1,0,0:0:0:0:
86,72,8823,5,0,0:0:0:0:
86,72,9181,2,0,P|121:137|252:121,1,197.99999395752
307,46,9538,2,0,L|397:66,1,65.9999979858399
454,154,9717,2,0,L|364:174,1,65.9999979858399
310,264,9895,1,0,0:0:0:0:
310,264,10074,6,0,P|240:208|167:244,1,131.99999597168
74,320,10431,1,0,0:0:0:0:
236,284,10610,1,0,0:0:0:0:
39,154,10788,1,0,0:0:0:0:
198,118,10967,1,0,0:0:0:0:
198,118,11056,2,0,P|257:159|333:150,1,131.99999597168
314,157,11324,2,0,P|278:209|333:202,1,131.99999597168
426,314,11681,6,0,L|257:326,1,131.99999597168
119,309,12038,2,0,B|149:282|149:282|130:158,1,131.99999597168
42,91,12395,5,0,0:0:0:0:
46,119,12485,2,0,P|101:83|202:97,1,131.99999597168
310,161,12752,2,0,L|393:147,1,65.9999979858399
307,52,12931,2,0,L|227:67,1,65.9999979858399
216,179,13110,2,0,P|219:219|235:260,1,65.9999979858399
252,348,13288,5,0,0:0:0:0:
224,330,13377,1,0,0:0:0:0:
191,326,13467,1,0,0:0:0:0:
158,322,13556,1,0,0:0:0:0:
130,304,13645,6,0,P|57:263|129:204,1,197.99999395752
223,179,14002,2,0,P|190:121|149:101,1,65.9999979858399
54,200,14181,2,0,P|120:200|158:174,1,65.9999979858399
128,44,14360,2,0,P|94:101|97:147,1,65.9999979858399
192,267,14538,6,0,P|227:259|316:264,1,88
393,341,14895,2,0,P|382:302|438:214,1,132
476,137,15252,6,0,P|417:120|366:142,1,88
280,211,15610,2,0,B|247:225|247:225|122:172,1,132
61,144,15967,6,0,P|68:95|122:49,1,88
214,106,16324,2,0,P|262:87|352:115,1,132
409,186,16681,1,0,0:0:0:0:
370,206,16770,1,0,0:0:0:0:
327,210,16859,1,0,0:0:0:0:
426,93,17038,1,0,0:0:0:0:
398,282,17217,1,0,0:0:0:0:
398,282,17306,1,0,0:0:0:0:
398,282,17395,6,0,P|342:286|283:319,1,88
201,232,17752,2,0,P|123:229|63:207,1,132
46,106,18110,6,0,P|102:110|161:143,1,88
243,56,18467,2,0,P|321:53|381:31,1,132
451,77,18824,5,0,0:0:0:0:
373,234,19002,1,0,0:0:0:0:
478,176,19181,1,0,0:0:0:0:
321,144,19360,1,0,0:0:0:0:
182,225,19538,5,0,0:0:0:0:
201,234,19627,1,0,0:0:0:0:
223,236,19716,1,0,0:0:0:0:
386,195,19895,1,0,0:0:0:0:
229,147,20074,1,0,0:0:0:0:
229,147,20163,1,0,0:0:0:0:
229,147,20252,6,0,P|216:97|235:37,1,88
315,140,20610,2,0,P|306:186|222:237,1,132
131,288,20967,1,0,0:0:0:0:
160,297,21056,2,0,P|156:239|133:185,1,88
59,157,21324,2,0,P|61:109|86:55,1,88
120,48,21592,1,0,0:0:0:0:
164,71,21681,6,0,P|198:84|282:72,1,88
358,168,22038,2,0,P|297:167|215:214,1,132
172,285,22395,2,0,P|168:236|134:196,1,88
37,93,22752,2,0,P|70:93|96:79,1,44
177,40,22931,1,0,0:0:0:0:
177,40,23020,1,0,0:0:0:0:
177,40,23110,6,0,L|280:62,1,88
398,174,23467,1,0,0:0:0:0:
210,212,23645,1,0,0:0:0:0:
361,81,23824,1,0,0:0:0:0:
361,81,23913,2,0,P|401:76|469:106,1,88
408,216,24181,2,0,L|392:154,1,44
481,275,24360,2,0,L|465:337,1,44
346,336,24538,5,0,0:0:0:0:
330,320,24627,1,0,0:0:0:0:
310,311,24716,1,0,0:0:0:0:
119,229,24895,1,0,0:0:0:0:
234,348,25074,1,0,0:0:0:0:
162,158,25252,6,0,P|134:148|98:146,1,44
76,241,25431,2,0,P|104:231|140:229,1,44
164,323,25610,2,0,P|136:313|100:311,1,44
243,236,25788,1,0,0:0:0:0:
282,217,25877,1,0,0:0:0:0:
321,196,25967,6,0,P|357:193|424:230,1,88
243,236,26324,2,0,P|235:177|290:108,1,132
336,32,26681,6,0,L|240:39,1,88
104,122,27038,2,0,P|41:118|82:77,1,132
164,67,27395,6,0,P|182:100|168:169,1,88
103,276,27752,2,0,B|132:261|132:261|265:290,1,132
338,312,28110,1,0,0:0:0:0:
338,312,28199,1,0,0:0:0:0:
338,312,28288,1,0,0:0:0:0:
230,204,28467,1,0,0:0:0:0:
303,43,28645,1,0,0:0:0:0:
303,43,28735,1,0,0:0:0:0:
303,43,28824,5,0,0:0:0:0:
120,124,29002,2,0,P|157:130|199:121,1,44
230,83,29181,1,0,0:0:0:0:
87,43,29360,1,0,0:0:0:0:
203,192,29538,2,0,L|192:248,1,44
116,329,29717,2,0,L|105:273,1,44
275,231,29895,1,0,0:0:0:0:
69,179,30074,1,0,0:0:0:0:
258,308,30252,6,0,P|284:309|311:301,1,44
260,319,30431,2,0,P|285:313|309:298,1,44
265,329,30610,2,0,P|288:316|307:296,1,44
272,337,30789,2,0,P|291:319|304:294,1,44
355,230,30967,6,0,P|381:229|408:237,1,44
357,219,31146,2,0,P|382:224|406:239,1,44
362,209,31325,2,0,P|385:221|404:241,1,44
369,201,31504,2,0,P|388:218|401:243,1,44
271,232,31681,6,0,P|255:193|269:132,1,88
362,41,32038,2,0,B|334:36|334:36|210:64,1,132
152,137,32395,6,0,P|99:119|53:138,1,88
118,288,32752,2,0,P|161:287|258:243,1,132
306,161,33110,6,0,L|416:183,1,88
323,321,33467,1,0,0:0:0:0:
219,175,33645,1,0,0:0:0:0:
377,79,33824,1,0,0:0:0:0:
377,79,33913,1,0,0:0:0:0:
377,79,34002,6,0,P|352:68|306:65,1,44
245,87,34181,1,0,0:0:0:0:
87,167,34360,2,0,P|112:156|158:153,1,44
219,175,34538,6,0,P|240:269|341:184,1,264
345,201,35252,2,0,P|340:100|479:113,1,264
471,100,35967,6,0,B|427:75|389:104|389:104|342:133|264:101,1,176
135,230,36502,1,0,0:0:0:0:
307,201,36681,1,0,0:0:0:0:
117,49,36860,1,0,0:0:0:0:
214,183,37038,2,0,P|170:145|123:137,1,88
91,158,37306,1,0,0:0:0:0:
55,198,37395,6,0,P|70:263|217:298,1,220
319,206,37931,5,0,0:0:0:0:
214,183,38110,2,0,P|207:121|346:110,1,220
434,206,38645,5,0,0:0:0:0:
386,302,38824,2,0,B|356:289|356:289|292:300|292:300|241:279|241:279|170:284,1,220
39,188,39360,1,0,0:0:0:0:
121,136,39538,2,0,P|81:99|28:89,1,110
116,232,39895,1,0,0:0:0:0:
141,221,39984,1,0,0:0:0:0:
164,207,40073,1,0,0:0:0:0:
185,188,40162,1,0,0:0:0:0:
208,170,40252,6,0,P|258:135|316:187,1,110
405,276,40610,2,0,L|327:288,1,55
269,240,40788,1,0,0:0:0:0:
108,270,40967,2,0,L|136:196,1,55
208,170,41145,1,0,0:0:0:0:
263,15,41324,2,0,L|312:76,1,55
299,151,41502,1,0,0:0:0:0:
219,301,41681,5,0,0:0:0:0:
144,161,41860,1,0,0:0:0:0:
319,251,42038,1,0,0:0:0:0:
394,111,42217,1,0,0:0:0:0:
220,211,42395,5,0,0:0:0:0:
220,211,42485,2,0,P|165:245|109:242,1,110
128,114,42752,2,0,P|146:134|123:178,1,55
52,87,42931,1,0,0:0:0:0:
65,63,43020,1,0,0:0:0:0:
85,44,43110,6,0,B|127:32|127:32|309:79,1,220
378,249,43645,1,0,0:0:0:0:
441,142,43824,2,0,B|399:130|399:130|217:177,1,220
148,347,44359,1,0,0:0:0:0:
72,242,44538,2,0,B|114:230|114:230|296:277,1,220
148,347,45074,5,0,0:0:0:0:
39,176,45252,2,0,L|137:149,1,55
184,80,45431,2,0,L|282:107,1,55
319,185,45610,2,0,L|417:158,1,55
427,67,45788,1,0,0:0:0:0:
427,67,45877,1,0,0:0:0:0:
427,67,45967,1,0,0:0:0:0:
427,67,46145,6,0,P|444:96|450:153,1,55
430,235,46324,2,0,P|408:236|362:265,3,55
330,325,46681,2,0,L|204:313,1,110
147,244,46949,2,0,P|196:216|206:152,1,110
96,139,47217,2,0,P|111:161|148:173,1,55
204,88,47395,1,0,0:0:0:0:
204,88,47574,6,0,P|233:76|293:93,1,55
315,148,47752,2,0,P|392:153|448:67,1,165
358,66,48110,2,0,L|409:191,1,110
391,269,48377,2,0,L|266:320,1,110
203,254,48645,2,0,B|176:240|176:240|127:253,1,55
59,287,48824,6,0,P|52:230|124:147,1,165
244,105,49181,2,0,P|216:84|202:139,1,110
260,186,49449,1,0,0:0:0:0:
323,141,49538,2,0,P|363:148|393:173,1,55
424,231,49717,2,0,P|399:242|371:245,1,55
307,306,49895,1,0,0:0:0:0:
152,301,50074,5,0,0:0:0:0:
177,290,50163,1,0,0:0:0:0:
202,279,50252,1,0,0:0:0:0:
229,271,50342,2,0,P|228:217|170:181,2,110
283,346,50788,5,0,0:0:0:0:
283,346,50877,1,0,0:0:0:0:
283,346,50967,1,0,0:0:0:0:
283,346,51056,2,0,P|340:332|380:250,1,110
313,206,51324,2,0,P|308:175|341:116,1,55
346,55,51502,1,0,0:0:0:0:
346,55,51592,1,0,0:0:0:0:
346,55,51681,1,0,0:0:0:0:
255,63,53110,5,0,0:0:0:0:
255,63,53199,1,0,0:0:0:0:
255,63,53288,2,0,P|273:98|189:132,1,110
110,177,53556,1,0,0:0:0:0:
110,177,53645,2,0,P|101:209|122:259,1,55
174,331,53824,6,0,P|202:308|234:303,1,55
336,253,54092,2,0,P|310:243|290:225,1,55
195,142,54360,6,0,P|186:110|207:60,1,55
264,31,54538,6,0,P|374:42|472:177,1,264
391,210,54895,2,0,P|359:124|277:110,1,176
218,198,55163,1,0,0:0:0:0:
218,198,55252,2,0,P|207:248|178:280,1,88
39,235,55431,1,0,0:0:0:0:
39,235,55520,6,0,B|146:166|146:166|75:136,1,176
226,129,55788,6,0,P|189:101|276:124,1,352
272,265,56235,1,0,0:0:0:0:
272,265,56324,2,0,P|333:263|367:216,1,88
489,159,56502,2,0,P|451:136|408:141,1,88
189,214,56681,5,0,0:0:0:0:
189,214,56770,2,0,B|118:242|118:242|202:83,1,176
208,75,57038,2,0,P|238:102|252:170,1,88
143,285,57217,2,0,P|156:243|188:213,1,88
300,313,57395,6,0,P|393:335|354:237,1,176
330,110,57752,2,0,P|271:145|204:129,1,88
131,39,57931,2,0,P|173:47|207:74,1,88
98,174,58110,2,0,B|143:120|143:120|191:276,1,176
200,296,58377,2,0,B|221:362|221:362|288:280,1,176
367,263,58645,2,0,B|342:226|342:226|421:176|402:53,1,176
376,41,58913,2,0,B|335:23|298:45|298:45|263:86|176:69,1,176
128,52,59181,5,0,0:0:0:0:
207,253,59360,1,0,0:0:0:0:
304,144,59538,1,0,0:0:0:0:
304,144,59627,2,0,B|257:139|257:139|186:168|186:168|114:156,1,176
32,215,59895,2,0,P|80:225|108:280,1,88
180,341,60074,1,0,0:0:0:0:
222,331,60163,1,0,0:0:0:0:
265,322,60252,5,0,0:0:0:0:
438,192,60431,1,0,0:0:0:0:
199,67,60610,1,0,0:0:0:0:
315,224,60788,1,0,0:0:0:0:
330,41,60967,6,0,L|228:186,1,176
158,281,61235,2,0,P|90:248|166:221,1,176
248,269,61502,2,0,P|278:298|354:294,1,88
428,270,61681,5,0,0:0:0:0:
333,110,61860,1,0,0:0:0:0:
207,342,62038,1,0,0:0:0:0:
338,214,62217,1,0,0:0:0:0:
245,46,62395,5,0,0:0:0:0:
245,46,62485,2,0,P|144:50|126:147,1,176
68,217,62752,2,0,B|110:202|144:229|144:229|179:163|261:182|261:182|250:146|151:167,1,264
229,274,63110,2,0,P|243:315|277:360,1,88
334,264,63288,2,0,P|348:222|373:186,1,88
446,270,63467,5,0,0:0:0:0:
224,159,63645,1,0,0:0:0:0:
391,54,63824,1,0,0:0:0:0:
391,54,63913,2,0,L|170:82,1,176
129,178,64181,1,0,0:0:0:0:
129,178,64270,1,0,0:0:0:0:
129,178,64360,6,0,P|81:254|248:243,1,352
245,202,64806,1,0,0:0:0:0:
288,164,64895,1,0,0:0:0:0:
346,162,64984,1,0,0:0:0:0:
392,196,65073,1,0,0:0:0:0:
168,241,65252,6,0,P|160:195|182:138,1,88
210,89,65431,1,0,0:0:0:0:
148,44,65520,6,0,L|40:79,1,88
44,146,65788,6,0,P|66:182|41:237,1,88
95,302,65967,5,0,0:0:0:0:
311,225,66145,1,0,0:0:0:0:
170,155,66324,1,0,0:0:0:0:
310,349,66502,1,0,0:0:0:0:
433,255,66681,5,0,0:0:0:0:
213,242,66860,1,0,0:0:0:0:
365,294,67038,1,0,0:0:0:0:
274,96,67217,1,0,0:0:0:0:
274,96,67306,1,0,0:0:0:0:
274,96,67395,5,0,0:0:0:0:
483,154,67574,1,0,0:0:0:0:
320,192,67752,1,0,0:0:0:0:
471,33,67931,1,0,0:0:0:0:
422,242,68110,5,0,0:0:0:0:
225,340,68288,1,0,0:0:0:0:
320,192,68467,1,0,0:0:0:0:
470,350,68645,1,0,0:0:0:0:
428,335,68734,1,0,0:0:0:0:
386,321,68824,6,0,L|176:236,1,176
26,157,69181,1,0,0:0:0:0:
143,351,69360,1,0,0:0:0:0:
190,136,69538,6,0,P|247:65|381:102,1,176
373,289,69895,2,0,P|359:199|224:164,1,176
233,197,70163,1,0,0:0:0:0:
279,252,70252,5,0,0:0:0:0:
447,162,70431,1,0,0:0:0:0:
124,65,70610,5,0,0:0:0:0:
292,155,70789,1,0,0:0:0:0:
136,210,70967,5,0,0:0:0:0:
226,42,71146,1,0,0:0:0:0:
307,365,71325,5,0,0:0:0:0:
217,197,71504,1,0,0:0:0:0:
217,197,71592,1,0,0:0:0:0:
217,197,71681,2,0,P|268:237|375:174,1,176
312,76,72038,2,0,P|292:116|292:170,1,88
385,283,72217,2,0,P|382:239|362:200,1,88
210,106,72395,5,0,0:0:0:0:
265,308,72574,1,0,0:0:0:0:
382,122,72752,1,0,0:0:0:0:
191,226,72931,1,0,0:0:0:0:
191,226,73020,1,0,0:0:0:0:
186,222,73110,6,0,P|92:209|186:148,1,264
304,235,73467,2,0,P|308:278|350:312,1,88
343,169,73645,2,0,P|301:158|261:173,1,88
230,291,73824,5,0,0:0:0:0:
409,227,74002,1,0,0:0:0:0:
233,115,74181,1,0,0:0:0:0:
326,276,74360,1,0,0:0:0:0:
327,254,74449,1,0,0:0:0:0:
321,232,74538,6,0,L|130:174,1,176
58,335,74895,2,0,L|174:302,1,88
237,281,75074,1,0,0:0:0:0:
79,206,75252,2,0,P|82:147|199:118,1,176
322,159,75610,2,0,P|286:188|201:179,1,88
152,180,75788,1,0,0:0:0:0:
297,75,75967,6,0,P|335:72|403:183,1,176
387,196,76235,1,0,0:0:0:0:
381,224,76324,1,0,0:0:0:0:
384,253,76413,1,0,0:0:0:0:
397,280,76502,6,0,B|375:296|345:289,2,44
295,350,77038,2,0,L|265:310,1,44
224,219,77395,2,0,P|255:205|290:219,1,66
151,299,77752,6,0,P|117:246|137:163,1,110
261,50,78110,1,0,0:0:0:0:
224,219,78288,1,0,0:0:0:0:
62,42,78467,1,0,0:0:0:0:
208,127,78645,2,0,L|439:170,1,220
424,167,79181,5,0,0:0:0:0:
291,67,79360,1,0,0:0:0:0:
363,271,79538,1,0,0:0:0:0:
363,271,79627,2,0,P|301:245|263:265,1,110
194,332,79895,2,0,B|148:300|148:300|164:245,1,110
195,79,80252,6,0,P|135:75|90:130,1,110
316,125,80610,2,0,P|341:73|300:61,1,110
215,186,80967,1,0,0:0:0:0:
418,263,81145,1,0,0:0:0:0:
256,325,81324,2,0,P|283:312|292:281,1,55
215,186,81502,2,0,L|167:138,1,55
87,60,81681,6,0,P|63:87|62:128,1,66
83,231,82038,1,0,0:0:0:0:
83,231,82127,1,0,0:0:0:0:
83,231,82217,2,0,B|117:230|117:230|151:257,1,66
162,330,82574,1,0,0:0:0:0:
334,237,82752,1,0,0:0:0:0:
201,145,82931,1,0,0:0:0:0:
208,165,83020,1,0,0:0:0:0:
214,187,83110,6,0,P|272:180|251:96,1,165
253,96,83467,2,0,P|310:130|376:94,1,110
468,223,83824,1,0,0:0:0:0:
296,293,84002,1,0,0:0:0:0:
433,121,84181,1,0,0:0:0:0:
387,271,84360,6,0,B|359:238|313:257|313:257|290:226|290:226|235:254|179:215,1,220
44,287,84895,1,0,0:0:0:0:
179,354,85074,1,0,0:0:0:0:
85,181,85252,1,0,0:0:0:0:
85,181,85342,2,0,P|85:122|139:107,1,110
234,148,85610,2,0,P|288:165|358:112,1,110
445,234,85967,6,0,P|400:255|440:280,1,110
335,145,86324,2,0,P|285:165|234:148,1,110
67,224,86681,1,0,0:0:0:0:
67,224,86770,2,0,P|106:205|126:276,1,110
76,304,87038,1,0,0:0:0:0:
153,130,87217,1,0,0:0:0:0:
259,340,87395,6,0,L|394:313,1,110
419,305,87663,1,0,0:0:0:0:
381,266,87752,1,0,0:0:0:0:
378,213,87841,1,0,0:0:0:0:
412,171,87931,6,0,P|351:117|253:196,1,220
260,240,88377,1,0,0:0:0:0:
268,293,88467,1,0,0:0:0:0:
344,73,88645,1,0,0:0:0:0:
344,73,88735,1,0,0:0:0:0:
344,73,88824,1,0,0:0:0:0:
