osu file format v14

[General]
AudioFilename: audio.mp3
AudioLeadIn: 0
PreviewTime: 53972
Countdown: 0
SampleSet: Normal
StackLeniency: 0.7
Mode: 1
LetterboxInBreaks: 0
WidescreenStoryboard: 0

[Editor]
Bookmarks: 14544,25973,37401
DistanceSpacing: 0.9
BeatDivisor: 4
GridSize: 4
TimelineZoom: 1.3

[Metadata]
Title:99.9 (TV Size)
TitleUnicode:99.9 (TV Size)
Artist:MOB CHOIR feat. sajou no hana
ArtistUnicode:MOB CHOIR feat. sajou no hana
Creator:A r M i N
Version:Ron's Futsuu
Source:モブサイコ100 II
Tags:Mob Psycho 100 Season 2 II Two Opening Anime Japanese Armin A_r_M_i_N Charlotte Ron [R] キタニタツヤ Tatsuya Kitani j-rock rock
BeatmapID:2364976
BeatmapSetID:1129239

[Difficulty]
HPDrainRate:7.5
CircleSize:4
OverallDifficulty:4
ApproachRate:9.3
SliderMultiplier:1.4
SliderTickRate:1

[Events]
//Background and Video events
0,0,"BG.jpg",0,90
//Break Periods
//Storyboard Layer 0 (Background)
//Storyboard Layer 1 (Fail)
//Storyboard Layer 2 (Pass)
//Storyboard Layer 3 (Foreground)
//Storyboard Layer 4 (Overlay)
//Storyboard Sound Samples

[TimingPoints]
669,357.142857142857,4,1,1,50,1,0
3526,-100,4,1,0,65,0,0
14954,-100,4,1,0,55,0,0
26383,-100,4,1,0,60,0,0
37811,-100,4,1,0,65,0,0
54954,-100,4,1,0,75,0,1
66026,-100,4,1,0,75,0,0
66383,-100,4,1,0,85,0,1
77097,-100,4,1,0,65,0,1
77811,-100,4,1,0,65,0,0

[Colours]
Combo1 : 241,112,173
Combo2 : 3,220,155
Combo3 : 236,60,143
Combo4 : 2,168,118

[HitObjects]
176,128,669,5,12,0:0:0:0:
156,196,2097,1,8,0:0:0:0:
156,196,2365,1,8,0:0:0:0:
156,196,2633,1,8,0:0:0:0:
352,200,2990,1,8,0:0:0:0:
352,200,3168,1,8,0:0:0:0:
352,200,3526,1,4,0:0:0:0:
352,200,3883,1,8,0:0:0:0:
156,196,4240,1,8,0:0:0:0:
360,200,4776,1,0,0:0:0:0:
184,192,5133,1,8,0:0:0:0:
184,192,5311,1,0,0:0:0:0:
184,192,5668,1,8,0:0:0:0:
364,208,6026,1,8,0:0:0:0:
352,200,6740,1,8,0:0:0:0:
156,196,7097,1,0,0:0:0:0:
360,200,7633,1,8,0:0:0:0:
200,192,7990,1,0,0:0:0:0:
200,192,8168,1,8,0:0:0:0:
356,192,8526,1,0,0:0:0:0:
364,208,8883,1,8,0:0:0:0:
352,200,9240,1,4,0:0:0:0:
352,200,9597,1,8,0:0:0:0:
156,196,9954,1,8,0:0:0:0:
360,200,10490,1,0,0:0:0:0:
184,192,10847,1,8,0:0:0:0:
352,196,11026,1,0,0:0:0:0:
184,192,11382,1,8,0:0:0:0:
364,208,11740,1,8,0:0:0:0:
352,200,12454,1,8,0:0:0:0:
156,196,12811,1,0,0:0:0:0:
360,200,13347,1,8,0:0:0:0:
200,192,13704,1,0,0:0:0:0:
200,192,13882,1,0,0:0:0:0:
360,192,14061,1,8,0:0:0:0:
200,192,14418,1,8,0:0:0:0:
364,208,14597,1,8,0:0:0:0:
192,208,14954,1,4,0:0:0:0:
352,212,15311,1,8,0:0:0:0:
344,212,16026,1,8,0:0:0:0:
184,208,16383,1,0,0:0:0:0:
184,204,16561,1,0,0:0:0:0:
192,208,16740,1,8,0:0:0:0:
352,208,17097,1,0,0:0:0:0:
352,208,17454,1,8,0:0:0:0:
200,208,17811,1,0,0:0:0:0:
352,208,18168,1,8,0:0:0:0:
352,208,18883,1,8,0:0:0:0:
184,204,19240,1,0,0:0:0:0:
360,204,19597,1,8,0:0:0:0:
184,204,19776,1,8,0:0:0:0:
360,204,20133,1,0,0:0:0:0:
360,204,20311,1,8,0:0:0:0:
192,208,20668,1,0,0:0:0:0:
352,212,21025,1,8,0:0:0:0:
344,212,21740,1,8,0:0:0:0:
192,208,22097,1,0,0:0:0:0:
352,208,22454,1,8,0:0:0:0:
352,208,22811,1,0,0:0:0:0:
352,208,22990,1,0,0:0:0:0:
352,208,23168,1,8,0:0:0:0:
200,208,23526,1,0,0:0:0:0:
352,208,23882,1,8,0:0:0:0:
352,208,24597,1,8,0:0:0:0:
184,204,24954,1,0,0:0:0:0:
360,204,25311,1,8,0:0:0:0:
184,204,25490,1,0,0:0:0:0:
360,204,25847,1,8,0:0:0:0:
360,204,26025,1,8,0:0:0:0:
192,208,26383,1,4,0:0:0:0:
352,212,26740,1,8,0:0:0:0:
344,212,27454,1,8,0:0:0:0:
184,208,27811,1,0,0:0:0:0:
184,204,27989,1,0,0:0:0:0:
192,208,28168,1,8,0:0:0:0:
352,208,28525,1,0,0:0:0:0:
352,208,28882,1,8,0:0:0:0:
200,208,29061,1,0,0:0:0:0:
192,208,29418,1,0,0:0:0:0:
352,208,29596,1,8,0:0:0:0:
352,208,30311,1,8,0:0:0:0:
184,204,30490,1,0,0:0:0:0:
184,204,30846,1,0,0:0:0:0:
360,204,31025,1,8,0:0:0:0:
184,204,31204,1,0,0:0:0:0:
360,204,31561,1,8,0:0:0:0:
360,204,31739,1,8,0:0:0:0:
192,208,32096,1,0,0:0:0:0:
352,212,32453,1,8,0:0:0:0:
344,212,33168,1,8,0:0:0:0:
192,208,33525,1,0,0:0:0:0:
352,208,33882,1,8,0:0:0:0:
352,208,34240,1,0,0:0:0:0:
352,208,34418,1,0,0:0:0:0:
352,208,34596,1,8,0:0:0:0:
200,208,34954,1,0,0:0:0:0:
352,208,35310,1,8,0:0:0:0:
184,204,35668,1,0,0:0:0:0:
184,204,35847,1,0,0:0:0:0:
352,208,36025,1,8,0:0:0:0:
184,204,36382,1,0,0:0:0:0:
184,204,36918,1,8,0:0:0:0:
184,204,37097,1,0,0:0:0:0:
360,204,37275,1,8,0:0:0:0:
360,204,37453,1,8,0:0:0:0:
184,204,37811,1,12,0:0:0:0:
180,184,38347,1,0,0:0:0:0:
304,184,38526,1,8,0:0:0:0:
180,192,39061,1,8,0:0:0:0:
316,184,39240,1,0,0:0:0:0:
164,192,39776,1,0,0:0:0:0:
164,192,39954,1,8,0:0:0:0:
164,192,40133,1,8,0:0:0:0:
312,196,40311,1,0,0:0:0:0:
312,196,40668,1,8,0:0:0:0:
156,193,41026,1,0,0:0:0:0:
326,190,41383,1,8,0:0:0:0:
338,188,42097,1,8,0:0:0:0:
338,188,42454,1,0,0:0:0:0:
151,199,42811,1,0,0:0:0:0:
151,199,42990,1,0,0:0:0:0:
338,188,43168,1,8,0:0:0:0:
333,184,43526,1,0,0:0:0:0:
165,206,44061,1,0,0:0:0:0:
338,188,44240,1,8,0:0:0:0:
344,175,44776,1,8,0:0:0:0:
193,186,44954,1,0,0:0:0:0:
207,189,45490,1,0,0:0:0:0:
347,192,45668,1,8,0:0:0:0:
347,192,46026,1,0,0:0:0:0:
207,189,46383,1,8,0:0:0:0:
348,185,46561,1,0,0:0:0:0:
343,196,46740,1,8,0:0:0:0:
202,192,47097,1,0,0:0:0:0:
164,195,47811,1,0,0:0:0:0:
189,196,47990,1,8,0:0:0:0:
189,196,48168,1,0,0:0:0:0:
318,193,48526,1,8,0:0:0:0:
137,197,49240,1,0,0:0:0:0:
297,189,49597,1,8,0:0:0:0:
154,194,49776,1,0,0:0:0:0:
283,195,50133,1,0,0:0:0:0:
288,201,50311,1,8,0:0:0:0:
164,212,50668,1,0,0:0:0:0:
164,212,51026,1,0,0:0:0:0:
284,211,51204,1,0,0:0:0:0:
276,232,51383,1,8,0:0:0:0:
284,211,51740,1,8,0:0:0:0:
142,216,51918,1,8,0:0:0:0:
256,192,53526,12,0,54776,0:0:0:0:
145,194,54954,5,4,0:0:0:0:
267,223,55668,1,8,0:0:0:0:
219,159,56026,1,0,0:0:0:0:
305,190,56204,1,8,0:0:0:0:
134,195,56383,1,0,0:0:0:0:
149,196,56740,1,8,0:0:0:0:
279,191,57097,1,0,0:0:0:0:
168,197,57454,1,8,0:0:0:0:
164,197,57633,1,0,0:0:0:0:
171,204,57990,1,0,0:0:0:0:
267,190,58168,1,8,0:0:0:0:
355,198,58526,1,0,0:0:0:0:
316,194,59061,1,8,0:0:0:0:
364,177,59418,1,0,0:0:0:0:
366,186,59954,1,8,0:0:0:0:
146,194,60311,1,8,0:0:0:0:
157,181,60490,1,8,0:0:0:0:
364,177,60668,1,0,0:0:0:0:
322,126,61383,1,0,0:0:0:0:
296,162,61740,1,8,0:0:0:0:
322,126,61918,1,0,0:0:0:0:
172,188,62097,1,8,0:0:0:0:
127,217,62454,1,8,0:0:0:0:
196,83,62811,1,0,0:0:0:0:
321,157,63168,1,8,0:0:0:0:
254,180,63347,1,0,0:0:0:0:
322,240,63704,1,0,0:0:0:0:
205,235,63883,1,8,0:0:0:0:
322,240,64061,1,8,0:0:0:0:
228,128,64240,1,0,0:0:0:0:
282,88,64776,1,12,0:0:0:0:
228,128,65133,1,0,0:0:0:0:
228,128,65311,1,0,0:0:0:0:
330,162,65490,1,8,0:0:0:0:
228,128,65847,1,8,0:0:0:0:
244,121,66026,1,8,0:0:0:0:
318,197,66383,1,4,0:0:0:0:
300,236,67097,1,8,0:0:0:0:
97,173,67454,1,8,0:0:0:0:
318,197,67633,1,0,0:0:0:0:
213,148,67811,1,8,0:0:0:0:
325,199,68168,1,8,0:0:0:0:
175,202,68347,1,0,0:0:0:0:
262,212,68526,1,8,0:0:0:0:
85,192,68883,1,8,0:0:0:0:
139,206,69240,1,0,0:0:0:0:
85,192,69597,1,8,0:0:0:0:
309,239,69954,1,8,0:0:0:0:
191,253,70311,1,8,0:0:0:0:
249,197,70490,1,0,0:0:0:0:
331,253,70668,1,8,0:0:0:0:
347,126,71026,1,8,0:0:0:0:
253,225,71204,1,0,0:0:0:0:
249,204,71383,1,8,0:0:0:0:
146,193,71740,1,8,0:0:0:0:
251,64,72097,1,4,0:0:0:0:
338,153,72811,1,8,0:0:0:0:
387,202,73168,1,8,0:0:0:0:
99,282,73347,1,0,0:0:0:0:
192,202,73526,1,8,0:0:0:0:
203,198,73883,1,8,0:0:0:0:
203,198,74061,1,0,0:0:0:0:
203,198,74240,1,8,0:0:0:0:
375,256,74597,1,8,0:0:0:0:
230,237,74954,1,4,0:0:0:0:
60,171,75311,1,8,0:0:0:0:
123,237,75668,1,8,0:0:0:0:
253,225,76026,1,0,0:0:0:0:
253,225,76204,1,8,0:0:0:0:
333,193,76561,1,8,0:0:0:0:
348,227,76740,1,8,0:0:0:0:
107,191,76918,1,4,0:0:0:0:
352,200,77811,1,4,0:0:0:0:
352,200,78168,1,8,0:0:0:0:
156,196,78525,1,8,0:0:0:0:
360,200,79061,1,0,0:0:0:0:
184,192,79418,1,8,0:0:0:0:
352,196,79597,1,0,0:0:0:0:
184,192,79953,1,8,0:0:0:0:
364,208,80311,1,8,0:0:0:0:
352,200,81025,1,8,0:0:0:0:
156,196,81382,1,0,0:0:0:0:
360,200,81918,1,8,0:0:0:0:
200,192,82275,1,0,0:0:0:0:
360,192,82454,1,8,0:0:0:0:
356,192,82811,1,0,0:0:0:0:
364,208,83168,1,8,0:0:0:0:
352,200,83525,1,4,0:0:0:0:
352,200,83882,1,8,0:0:0:0:
156,196,84239,1,8,0:0:0:0:
360,200,84775,1,0,0:0:0:0:
184,192,85132,1,8,0:0:0:0:
352,196,85311,1,0,0:0:0:0:
184,192,85667,1,8,0:0:0:0:
364,208,86025,1,8,0:0:0:0:
352,200,86739,1,8,0:0:0:0:
156,196,87096,1,0,0:0:0:0:
360,200,87632,1,8,0:0:0:0:
200,192,87989,1,0,0:0:0:0:
200,192,88167,1,0,0:0:0:0:
360,192,88346,1,8,0:0:0:0:
200,192,88703,1,8,0:0:0:0:
364,208,88882,1,8,0:0:0:0:
192,208,89239,1,4,0:0:0:0:
