osu file format v14

[General]
AudioFilename: audio.mp3
AudioLeadIn: 0
PreviewTime: 53972
Countdown: 0
SampleSet: Normal
StackLeniency: 0.7
Mode: 1
LetterboxInBreaks: 0
WidescreenStoryboard: 1

[Editor]
DistanceSpacing: 0.9
BeatDivisor: 4
GridSize: 4
TimelineZoom: 1

[Metadata]
Title:99.9 (TV Size)
TitleUnicode:99.9 (TV Size)
Artist:MOB CHOIR feat. sajou no hana
ArtistUnicode:MOB CHOIR feat. sajou no hana
Creator:A r M i N
Version:Kantan
Source:モブサイコ100 II
Tags:Mob Psycho 100 Season 2 II Two Opening Anime Japanese Armin A_r_M_i_N Charlotte Ron [R] キタニタツヤ Tatsuya Kitani j-rock rock
BeatmapID:2359076
BeatmapSetID:1129239

[Difficulty]
HPDrainRate:8
CircleSize:4
OverallDifficulty:3
ApproachRate:9.3
SliderMultiplier:1.4
SliderTickRate:1

[Events]
//Background and Video events
0,0,"BG.jpg",0,90
//Break Periods
2,51940,54400
//Storyboard Layer 0 (Background)
//Storyboard Layer 1 (Fail)
//Storyboard Layer 2 (Pass)
//Storyboard Layer 3 (Foreground)
//Storyboard Layer 4 (Overlay)
//Storyboard Sound Samples

[TimingPoints]
669,357.142857142857,4,1,0,50,1,0
3526,-100,4,1,0,65,0,0
14954,-100,4,1,0,55,0,0
26383,-100,4,1,0,60,0,0
37811,-100,4,1,0,65,0,0
54954,-100,4,1,0,75,0,1
66026,-100,4,1,0,75,0,0
66383,-100,4,1,0,85,0,1
77097,-100,4,1,0,65,0,1
77811,-100,4,1,0,65,0,0

[Colours]
Combo1 : 241,112,173
Combo2 : 3,220,155
Combo3 : 236,60,143
Combo4 : 2,168,118

[HitObjects]
225,190,669,5,12,0:0:0:0:
209,177,2097,1,8,0:0:0:0:
284,215,2633,1,0,0:0:0:0:
220,244,3526,1,4,0:0:0:0:
269,138,4240,1,8,0:0:0:0:
365,167,4776,1,0,0:0:0:0:
131,90,5668,1,8,0:0:0:0:
280,224,6026,1,8,0:0:0:0:
269,138,7097,1,0,0:0:0:0:
365,167,7633,1,8,0:0:0:0:
131,90,8526,1,0,0:0:0:0:
280,224,8883,1,0,0:0:0:0:
269,138,9954,1,8,0:0:0:0:
365,167,10490,1,0,0:0:0:0:
131,90,11382,1,8,0:0:0:0:
280,224,11740,1,8,0:0:0:0:
269,138,12811,1,0,0:0:0:0:
365,167,13347,1,8,0:0:0:0:
131,90,14061,1,0,0:0:0:0:
195,184,14954,1,4,0:0:0:0:
194,113,15847,1,0,0:0:0:0:
306,177,16204,1,8,0:0:0:0:
306,177,16918,1,8,0:0:0:0:
227,217,17633,1,8,0:0:0:0:
162,164,19240,1,0,0:0:0:0:
303,233,19597,1,8,0:0:0:0:
228,263,19955,1,0,0:0:0:0:
195,184,20668,1,0,0:0:0:0:
194,113,21561,1,0,0:0:0:0:
306,177,21918,1,8,0:0:0:0:
306,177,22632,1,8,0:0:0:0:
227,217,23347,1,8,0:0:0:0:
162,164,24953,1,0,0:0:0:0:
303,233,25310,1,8,0:0:0:0:
228,263,25668,1,0,0:0:0:0:
195,184,26383,1,4,0:0:0:0:
194,113,27276,1,0,0:0:0:0:
306,177,27633,1,8,0:0:0:0:
306,177,28347,1,8,0:0:0:0:
227,217,29061,1,8,0:0:0:0:
162,164,30668,1,8,0:0:0:0:
303,233,31026,1,0,0:0:0:0:
228,263,31383,1,8,0:0:0:0:
195,184,32097,1,8,0:0:0:0:
194,113,32990,1,0,0:0:0:0:
306,177,33347,1,8,0:0:0:0:
306,177,34061,1,8,0:0:0:0:
227,217,34954,1,0,0:0:0:0:
331,173,35668,1,0,0:0:0:0:
170,87,36383,1,8,0:0:0:0:
172,155,37097,1,8,0:0:0:0:
336,192,37454,1,0,0:0:0:0:
211,204,37811,1,12,0:0:0:0:
276,157,38525,1,0,0:0:0:0:
145,185,39240,1,8,0:0:0:0:
238,221,39954,1,0,0:0:0:0:
318,194,40311,1,0,0:0:0:0:
238,221,40668,1,8,0:0:0:0:
195,135,41740,1,0,0:0:0:0:
292,131,42454,1,8,0:0:0:0:
230,96,43168,1,0,0:0:0:0:
149,154,43526,1,8,0:0:0:0:
244,197,44240,1,0,0:0:0:0:
96,184,44954,1,0,0:0:0:0:
172,218,45668,1,8,0:0:0:0:
274,158,46561,1,8,0:0:0:0:
296,190,47097,1,0,0:0:0:0:
296,190,47633,1,0,0:0:0:0:
173,138,47990,1,8,0:0:0:0:
173,138,48526,1,8,0:0:0:0:
173,138,49061,1,0,0:0:0:0:
291,80,49597,1,8,0:0:0:0:
159,144,49953,1,0,0:0:0:0:
216,118,50489,1,8,0:0:0:0:
249,173,51383,1,8,0:0:0:0:
203,190,51740,1,8,0:0:0:0:
233,182,54954,5,4,0:0:0:0:
325,193,55668,1,8,0:0:0:0:
156,156,56204,1,8,0:0:0:0:
179,171,57097,1,8,0:0:0:0:
297,204,57633,1,0,0:0:0:0:
163,135,58168,1,0,0:0:0:0:
309,120,58526,1,8,0:0:0:0:
191,152,58883,1,8,0:0:0:0:
276,207,59954,1,8,0:0:0:0:
359,192,60490,1,0,0:0:0:0:
213,130,61383,1,8,0:0:0:0:
326,190,61918,1,0,0:0:0:0:
183,140,62811,1,0,0:0:0:0:
310,177,63347,1,8,0:0:0:0:
223,213,63883,1,8,0:0:0:0:
289,248,64240,1,0,0:0:0:0:
369,202,64776,1,12,0:0:0:0:
247,173,66383,1,12,0:0:0:0:
153,92,67097,1,8,0:0:0:0:
221,210,67454,1,0,0:0:0:0:
286,149,67811,1,8,0:0:0:0:
206,176,68526,1,8,0:0:0:0:
270,226,68883,1,0,0:0:0:0:
294,258,69240,1,0,0:0:0:0:
201,154,69954,1,8,0:0:0:0:
325,216,70490,1,0,0:0:0:0:
382,253,70847,1,0,0:0:0:0:
265,205,72097,1,4,0:0:0:0:
210,156,72811,1,8,0:0:0:0:
247,195,73168,1,0,0:0:0:0:
301,187,73526,1,12,0:0:0:0:
358,243,74240,1,8,0:0:0:0:
358,243,74597,1,8,0:0:0:0:
377,249,74954,1,4,0:0:0:0:
271,160,75668,1,8,0:0:0:0:
181,177,76204,1,0,0:0:0:0:
288,210,76561,1,0,0:0:0:0:
220,244,77811,1,4,0:0:0:0:
269,138,78525,1,8,0:0:0:0:
365,167,79061,1,0,0:0:0:0:
131,90,79953,1,8,0:0:0:0:
280,224,80311,1,8,0:0:0:0:
269,138,81382,1,0,0:0:0:0:
365,167,81918,1,8,0:0:0:0:
131,90,82810,1,0,0:0:0:0:
280,224,83168,1,0,0:0:0:0:
269,138,84239,1,8,0:0:0:0:
365,167,84775,1,0,0:0:0:0:
131,90,85667,1,8,0:0:0:0:
280,224,86025,1,8,0:0:0:0:
269,138,87096,1,0,0:0:0:0:
365,167,87632,1,8,0:0:0:0:
131,90,88346,1,0,0:0:0:0:
300,212,88883,1,8,0:0:0:0:
195,184,89239,1,4,0:0:0:0:
