osu file format v14

[General]
AudioFilename: audio.mp3
AudioLeadIn: 0
PreviewTime: 52838
Countdown: 0
SampleSet: Normal
StackLeniency: 0.7
Mode: 0
LetterboxInBreaks: 0
WidescreenStoryboard: 1

[Editor]
Bookmarks: 43232,52074,60600,65495,79863
DistanceSpacing: 3.1
BeatDivisor: 4
GridSize: 4
TimelineZoom: 1.4

[Metadata]
Title:99 (Tv Size)
TitleUnicode:99 (Tv Size)
Artist:MOB CHOIR
ArtistUnicode:MOB CHOIR
Creator:Breic
Version:Insane
Source:Mob Psycho 100
Tags:mob psycho 100 99 choir op opening
BeatmapID:1383972
BeatmapSetID:566084

[Difficulty]
HPDrainRate:6
CircleSize:3.5
OverallDifficulty:6
ApproachRate:9
SliderMultiplier:1.4
SliderTickRate:1

[Events]
//Background and Video events
0,0,"BG.png",0,0
//Break Periods
//Storyboard Layer 0 (Background)
//Storyboard Layer 1 (Fail)
//Storyboard Layer 2 (Pass)
//Storyboard Layer 3 (Foreground)
//Storyboard Sound Samples

[TimingPoints]
285,315.789473684211,4,1,0,60,1,0
2811,-133.333333333333,4,2,0,50,0,0
12285,-100,4,1,0,60,0,0
23021,-76.9230769230769,4,1,0,75,0,0
41021,-100,4,1,0,60,0,0
43232,-133.333333333333,4,2,0,50,0,0
48285,-100,4,1,0,60,0,0
53337,-76.9230769230769,4,1,0,75,0,1
58074,-76.9230769230769,4,1,0,60,0,1
60600,-76.9230769230769,4,1,0,75,0,1
63285,-76.9230769230769,4,1,0,75,0,1
68179,-76.9230769230769,4,1,0,75,0,1
73548,-76.9230769230769,4,1,0,75,0,1
78285,-76.9230769230769,4,1,0,80,0,1
83653,-200,4,1,0,60,0,0

[Colours]
Combo1 : 244,244,244
Combo2 : 230,0,255
Combo3 : 32,222,255

[HitObjects]
148,72,285,5,0,0:0:0:0:
76,208,442,2,0,L|52:249,2,35
204,292,758,5,0,0:0:0:0:
233,301,836,1,0,0:0:0:0:
265,302,915,1,0,0:0:0:0:
295,294,994,1,0,0:0:0:0:
322,279,1073,5,0,0:0:0:0:
344,256,1152,1,0,0:0:0:0:
359,228,1231,1,0,0:0:0:0:
366,198,1310,1,0,0:0:0:0:
364,166,1389,5,0,0:0:0:0:
353,137,1468,1,0,0:0:0:0:
335,111,1547,1,0,0:0:0:0:
199,48,1706,5,0,0:0:0:0:
199,48,1785,1,0,0:0:0:0:
199,48,1863,1,0,0:0:0:0:
242,187,2021,1,0,0:0:0:0:
198,47,2179,2,0,L|127:26,1,70
77,293,2811,5,0,0:0:0:0:
84,158,2969,2,0,L|29:158,1,52.5000020027161
166,210,3285,2,0,L|166:157,1,52.5000020027161
166,290,3600,2,0,L|218:290,1,52.5000020027161
346,290,3916,2,0,L|293:290,1,52.5000020027161
346,157,4232,2,0,L|346:210,1,52.5000020027161
346,76,4548,2,0,L|401:76,1,52.5000020027161
216,72,4863,5,0,0:0:0:0:
346,76,5021,1,0,0:0:0:0:
216,72,5179,6,0,L|168:109,1,52.5000020027161
261,225,5495,2,0,L|261:173,1,52.5000020027161
174,279,5811,2,0,L|216:312,1,52.5000020027161
69,196,6127,5,0,0:0:0:0:
174,279,6285,1,0,0:0:0:0:
69,196,6442,6,0,L|113:136,1,52.5000020027161
225,142,6758,2,0,L|193:184,1,52.5000020027161
185,57,7074,2,0,L|304:57,1,105.000004005432
360,229,7548,5,0,0:0:0:0:
360,229,7706,2,0,L|307:319,1,105.000004005432
202,150,8179,5,0,0:0:0:0:
202,150,8337,2,0,L|310:150,1,105.000004005432
204,319,8811,5,0,0:0:0:0:
204,319,8969,2,0,L|152:229,1,105.000004005432
360,229,9442,5,0,0:0:0:0:
360,229,9600,2,0,L|325:289,1,52.5000020027161
233,68,10074,5,0,0:0:0:0:
233,68,10232,2,0,L|446:68,1,210.000008010865
338,249,11021,2,0,L|285:158,1,105.000004005432
443,68,11495,1,0,0:0:0:0:
230,70,12285,6,0,P|152:81|118:154,1,140
305,276,12916,5,0,0:0:0:0:
305,127,13074,1,0,0:0:0:0:
176,202,13232,1,0,0:0:0:0:
434,202,13548,6,0,L|411:134,1,70
78,202,14179,6,0,L|101:134,1,70
291,51,14811,2,0,L|221:51,1,70
331,326,15442,5,0,0:0:0:0:
256,197,15600,1,0,0:0:0:0:
181,327,15758,1,0,0:0:0:0:
406,196,16074,6,0,L|366:129,1,70
168,141,16706,6,0,L|219:230,1,70
303,68,17021,2,0,L|210:68,1,70
312,229,17337,1,0,0:0:0:0:
406,68,17495,1,0,0:0:0:0:
312,229,17653,2,0,L|401:229,1,70
205,133,17969,5,0,0:0:0:0:
139,296,18127,2,0,L|228:296,1,70
373,88,18600,2,0,L|284:88,1,70
356,301,19232,5,0,0:0:0:0:
356,301,19390,2,0,L|391:239,1,70
121,240,19863,5,0,0:0:0:0:
121,240,20021,2,0,L|156:301,1,70
292,94,20495,5,0,0:0:0:0:
292,94,20653,2,0,L|215:94,1,70
256,315,21127,1,0,0:0:0:0:
256,315,21285,2,0,L|256:240,1,70
120,106,21758,6,0,L|80:175,1,70
256,175,22074,2,0,L|256:257,1,70
392,106,22390,2,0,L|432:175,1,70
331,36,22706,1,0,0:0:0:0:
293,36,22785,1,0,0:0:0:0:
255,36,22863,1,0,0:0:0:0:
217,36,22942,1,0,0:0:0:0:
167,36,23021,2,0,L|66:36,1,90.9999958343508
85,179,23337,5,0,0:0:0:0:
167,36,23495,1,0,0:0:0:0:
85,178,23653,2,0,L|130:257,1,90.9999958343508
339,157,23969,5,0,0:0:0:0:
173,157,24127,1,0,0:0:0:0:
381,257,24285,2,0,L|427:178,1,90.9999958343508
264,179,24600,5,0,2:0:0:0:
345,321,24758,1,0,2:0:0:0:
426,178,24916,2,0,L|380:100,1,90.9999958343508
217,100,25232,5,0,2:0:0:0:
298,242,25390,1,0,2:0:0:0:
379,99,25548,1,0,0:0:0:0:
187,224,25706,5,0,0:0:0:0:
409,224,25863,1,0,0:0:0:0:
299,32,26021,1,0,0:0:0:0:
336,256,26179,1,0,0:0:0:0:
379,32,26337,1,0,0:0:0:0:
164,107,26495,1,0,0:0:0:0:
379,180,26653,2,0,L|426:97,1,90.9999958343508
269,197,26969,2,0,L|328:299,1,90.9999958343508
204,83,27285,1,0,0:0:0:0:
94,275,27442,2,0,L|204:275,1,90.9999958343508
349,275,27758,5,0,0:0:0:0:
185,275,27916,1,0,0:0:0:0:
185,111,28074,2,0,L|288:111,1,90.9999958343508
128,168,28390,5,0,0:0:0:0:
229,30,28548,1,0,0:0:0:0:
322,173,28706,2,0,L|322:284,1,90.9999958343508
250,101,29021,5,0,0:0:0:0:
413,101,29179,1,0,0:0:0:0:
413,264,29337,2,0,L|308:264,1,90.9999958343508
465,182,29653,5,0,0:0:0:0:
322,264,29811,1,0,0:0:0:0:
323,100,29969,2,0,L|401:145,1,90.9999958343508
241,186,30285,5,0,0:0:0:0:
242,25,30443,2,0,L|337:25,1,90.9999958343508
187,249,30758,6,0,L|139:166,1,90.9999958343508
370,170,31074,2,0,L|325:249,1,90.9999958343508
212,53,31390,1,0,0:0:0:0:
438,53,31548,1,0,0:0:0:0:
325,249,31706,1,0,0:0:0:0:
291,25,31863,1,0,0:0:0:0:
502,108,32021,1,0,0:0:0:0:
285,176,32179,2,0,L|191:156,1,90.9999958343508
404,87,32495,2,0,L|431:173,1,90.9999958343508,0|0,2:0|2:0,0:0:0:0:
295,266,32811,5,0,0:0:0:0:
280,102,32969,1,0,0:0:0:0:
431,173,33127,2,0,L|470:263,1,90.9999958343508
240,188,33442,5,0,0:0:0:0:
375,93,33600,1,0,0:0:0:0:
389,259,33758,2,0,L|335:332,1,90.9999958343508
318,170,34074,5,0,0:0:0:0:
467,236,34232,1,0,0:0:0:0:
335,332,34390,2,0,L|242:253,1,90.9999958343508
400,177,34706,5,0,0:0:0:0:
265,273,34863,1,0,0:0:0:0:
242,110,35021,2,0,L|331:159,1,90.9999958343508
184,248,35337,5,0,0:0:0:0:
161,85,35495,1,0,0:0:0:0:
330,227,35653,6,0,L|254:315,1,90.9999958343508
161,85,35969,1,0,0:0:0:0:
397,192,36127,1,0,0:0:0:0:
191,290,36285,1,0,0:0:0:0:
348,127,36442,1,0,0:0:0:0:
266,339,36600,1,0,0:0:0:0:
243,105,36758,2,0,L|310:26,1,90.9999958343508
339,264,37074,1,0,0:0:0:0:
102,204,37232,2,0,L|70:100,1,90.9999958343508
365,177,37548,2,0,L|333:281,1,90.9999958343508
202,177,37863,5,0,0:0:0:0:
365,177,38021,1,0,0:0:0:0:
284,319,38179,2,0,L|186:272,1,90.9999958343508
284,156,38495,5,0,0:0:0:0:
284,319,38653,1,0,0:0:0:0:
142,238,38811,2,0,L|189:139,1,90.9999958343508
305,238,39127,5,0,0:0:0:0:
142,238,39285,1,0,0:0:0:0:
223,96,39443,2,0,L|321:143,1,90.9999958343508
223,259,39758,5,0,0:0:0:0:
223,96,39916,1,0,0:0:0:0:
365,177,40074,2,0,L|318:275,1,90.9999958343508
307,95,40390,5,0,0:0:0:0:
325,259,40548,2,0,L|231:272,1,90.9999958343508
307,95,41021,6,0,L|319:182,1,70
237,50,41337,2,0,P|303:11|361:29,1,140
303,201,41811,1,0,0:0:0:0:
237,50,41969,1,0,0:0:0:0:
377,140,42127,2,0,L|389:227,1,70
219,200,42442,1,0,0:0:0:0:
373,53,42600,2,0,P|443:83|462:140,1,140
346,312,43232,6,0,L|319:265,1,52.5000020027161
456,250,43548,1,0,0:0:0:0:
456,250,43706,1,0,0:0:0:0:
342,133,43863,2,8,L|324:164,2,26.2500010013581
170,133,44179,2,8,L|183:155,2,26.2500010013581
282,30,44495,6,0,L|210:30,1,52.5000020027161
363,30,44811,2,8,L|381:61,2,26.2500010013581
327,195,45127,1,0,0:0:0:0:
282,30,45285,1,0,0:0:0:0:
419,138,45442,1,0,0:0:0:0:
236,135,45599,1,0,0:0:0:0:
435,40,45758,5,0,0:0:0:0:
360,266,45916,2,0,L|326:301,2,26.2500010013581
256,98,46232,2,0,L|256:139,2,26.2500010013581
152,266,46548,2,0,L|186:301,2,26.2500010013581
354,133,46863,2,0,L|388:98,2,26.2500010013581
158,133,47179,2,0,L|124:98,2,26.2500010013581
260,315,47495,5,0,0:0:0:0:
405,182,47653,2,0,L|363:182,1,26.2500010013581
372,98,47811,2,0,L|337:122,1,26.2500010013581
297,48,47969,2,0,L|283:88,1,26.2500010013581
207,50,48127,2,0,L|218:91,1,26.2500010013581
135,103,48285,6,0,L|186:151,1,70
360,182,48600,2,0,L|311:125,1,70
306,277,48916,2,0,L|356:325,1,70
404,150,49232,5,0,0:0:0:0:
268,200,49390,1,0,0:0:0:0:
393,273,49548,1,0,0:0:0:0:
309,112,49706,1,0,0:0:0:0:
293,292,49863,1,0,0:0:0:0:
461,218,50021,5,0,0:0:0:0:
260,201,50179,1,0,0:0:0:0:
411,296,50337,1,0,0:0:0:0:
309,122,50495,1,0,0:0:0:0:
318,301,50653,1,0,0:0:0:0:
402,117,50811,5,0,0:0:0:0:
201,136,50969,1,0,0:0:0:0:
402,117,51127,2,0,L|344:44,1,70
340,264,51442,6,0,L|432:264,1,70
241,187,51758,1,0,0:0:0:0:
328,340,51916,1,0,0:0:0:0:
396,184,52074,1,0,0:0:0:0:
292,45,52232,5,0,0:0:0:0:
259,31,52311,1,0,0:0:0:0:
224,23,52390,1,0,0:0:0:0:
189,26,52469,1,0,0:0:0:0:
155,35,52548,1,0,0:0:0:0:
126,55,52627,1,0,0:0:0:0:
103,82,52706,2,0,L|56:153,1,70
352,80,53337,5,0,0:0:0:0:
144,216,53495,2,0,L|192:299,1,90.9999958343508
302,127,53811,2,0,L|211:127,1,90.9999958343508
322,294,54127,2,0,L|368:216,1,90.9999958343508
189,89,54442,2,0,L|144:168,1,90.9999958343508
368,168,54758,2,0,L|322:89,1,90.9999958343508
211,257,55074,2,0,L|302:257,1,90.9999958343508
256,144,55390,5,0,0:0:0:0:
211,257,55548,1,0,0:0:0:0:
256,144,55706,2,0,L|208:60,1,90.9999958343508
92,184,56021,2,0,L|192:184,1,90.9999958343508
48,108,56337,2,0,L|2:186,1,90.9999958343508
192,108,56653,5,0,0:0:0:0:
48,108,56811,1,0,0:0:0:0:
192,108,56969,2,0,L|147:29,1,90.9999958343508
160,184,57285,2,0,L|256:184,1,90.9999958343508
72,192,57600,2,0,L|165:354,1,181.999991668702
364,72,58074,5,0,0:0:0:0:
364,72,58232,2,0,L|180:72,1,181.999991668702
315,301,58706,5,0,0:0:0:0:
315,301,58864,2,0,L|407:141,1,181.999991668702
182,72,59337,5,0,0:0:0:0:
182,72,59495,2,0,L|182:256,1,181.999991668702
411,121,59969,5,0,0:0:0:0:
411,121,60127,2,0,L|253:29,1,181.999991668702
252,312,60600,5,0,0:0:0:0:
252,312,60758,2,0,L|252:108,1,181.999991668702
108,216,61232,2,0,L|160:306,1,90.9999958343508
252,130,61548,2,0,L|161:130,1,90.9999958343508
308,208,61863,1,0,0:0:0:0:
252,36,62021,2,0,L|161:36,1,90.9999958343508
332,128,62337,6,0,L|332:37,1,90.9999958343508
252,184,62652,1,0,0:0:0:0:
426,128,62811,2,0,L|426:37,1,90.9999958343508
347,183,63127,1,0,0:0:0:0:
492,272,63285,6,0,L|492:181,1,90.9999958343508
300,316,63600,2,0,L|404:316,1,90.9999958343508
199,181,63916,2,0,L|199:272,1,90.9999958343508
196,96,64232,2,0,L|92:96,1,90.9999958343508
284,240,64548,2,0,L|284:149,1,90.9999958343508
105,293,64863,2,0,L|217:293,1,90.9999958343508
105,120,65179,2,0,L|105:232,1,90.9999958343508
250,165,65495,5,0,0:0:0:0:
105,120,65653,1,0,0:0:0:0:
250,165,65811,2,0,L|250:49,1,90.9999958343508
172,236,66127,5,0,0:0:0:0:
328,236,66285,1,0,0:0:0:0:
250,74,66442,2,0,L|250:165,1,90.9999958343508
395,120,66758,5,0,0:0:0:0:
250,74,66916,1,0,0:0:0:0:
395,120,67074,2,0,L|395:29,1,90.9999958343508
352,200,67390,6,0,L|452:200,1,90.9999958343508
240,200,67706,2,0,L|334:362,1,181.999991668702
462,121,68179,5,0,0:0:0:0:
462,121,68337,2,0,L|274:121,1,181.999991668702
462,303,68811,5,0,0:0:0:0:
462,303,68969,2,0,L|462:121,1,181.999991668702
225,251,69442,5,0,0:0:0:0:
225,251,69600,2,0,L|383:343,1,181.999991668702
388,71,70074,5,0,0:0:0:0:
388,71,70232,2,0,L|229:161,1,181.999991668702
357,214,70706,5,0,0:0:0:0:
230,161,70863,2,0,L|229:251,1,90.9999958343508
335,121,71179,1,0,0:0:0:0:
178,61,71337,2,0,L|131:139,1,90.9999958343508
343,40,71653,2,0,L|252:40,1,90.9999958343508
343,176,71969,1,0,0:0:0:0:
343,40,72127,1,0,0:0:0:0:
343,176,72285,6,0,L|343:212,14,22.7499989585877
313,299,72916,6,0,L|282:351,2,60.6666638895672
313,85,73232,2,0,L|282:32,2,60.6666638895672
460,168,73548,6,0,L|414:247,1,90.9999958343508
240,108,73863,1,0,0:0:0:0:
384,108,74021,1,0,0:0:0:0:
221,246,74179,6,0,L|176:168,1,90.9999958343508
332,168,74495,1,0,0:0:0:0:
332,325,74653,1,0,0:0:0:0:
175,324,74811,6,0,L|221:246,1,90.9999958343508
384,244,75127,1,0,0:0:0:0:
221,245,75285,1,0,0:0:0:0:
301,103,75442,6,0,L|381:149,1,90.9999958343508
304,288,75758,1,0,0:0:0:0:
217,149,75916,1,0,0:0:0:0:
379,148,76074,6,0,L|379:244,1,90.9999958343508
288,80,76390,1,0,0:0:0:0:
470,80,76548,1,0,0:0:0:0:
470,239,76706,6,0,L|379:239,1,90.9999958343508
379,96,77021,1,0,0:0:0:0:
379,239,77179,1,0,0:0:0:0:
236,240,77337,6,0,L|157:194,1,90.9999958343508
307,111,77653,2,0,L|307:202,1,90.9999958343508
157,116,77969,2,0,L|235:70,1,90.9999958343508
156,248,78285,5,0,0:0:0:0:
157,116,78442,1,0,0:0:0:0:
156,248,78600,2,0,L|52:248,1,90.9999958343508
157,116,78916,5,0,0:0:0:0:
264,180,79073,1,0,0:0:0:0:
156,248,79232,2,0,L|59:180,1,90.9999958343508
240,112,79548,5,0,0:0:0:0:
240,260,79706,1,0,0:0:0:0:
240,112,79863,2,0,L|340:112,1,90.9999958343508
328,280,80179,5,0,0:0:0:0:
192,192,80336,1,0,0:0:0:0:
331,112,80495,2,0,L|408:176,1,90.9999958343508
252,264,80811,5,0,0:0:0:0:
252,82,80968,1,0,0:0:0:0:
252,264,81127,2,0,L|144:264,1,90.9999958343508
252,82,81442,5,0,0:0:0:0:
410,173,81599,1,0,0:0:0:0:
252,264,81758,2,0,L|184:196,1,90.9999958343508
339,63,82074,5,0,0:0:0:0:
382,263,82232,1,0,0:0:0:0:
187,199,82390,2,0,L|192:102,1,90.9999958343508
417,131,82706,5,0,0:0:0:0:
283,315,82863,1,0,0:0:0:0:
191,108,83021,2,0,L|265:47,1,90.9999958343508
409,253,83337,1,0,0:0:0:0:
160,279,83495,1,0,0:0:0:0:
256,192,83653,12,0,88548,0:0:0:0:
