osu file format v14

[General]
AudioFilename: audio.mp3
AudioLeadIn: 0
PreviewTime: 52838
Countdown: 0
SampleSet: Soft
StackLeniency: 0.7
Mode: 0
LetterboxInBreaks: 0
WidescreenStoryboard: 1

[Editor]
Bookmarks: 32811,43232,52074,60600,65495,79863
DistanceSpacing: 2.3
BeatDivisor: 4
GridSize: 4
TimelineZoom: 1.4

[Metadata]
Title:99 (Tv Size)
TitleUnicode:99 (Tv Size)
Artist:MOB CHOIR
ArtistUnicode:MOB CHOIR
Creator:Breic
Version:Extra
Source:Mob Psycho 100
Tags:mob psycho 100 99 choir op opening
BeatmapID:1199192
BeatmapSetID:566084

[Difficulty]
HPDrainRate:6
CircleSize:3.5
OverallDifficulty:8.5
ApproachRate:9.4
SliderMultiplier:1.4
SliderTickRate:1

[Events]
//Background and Video events
0,0,"BG.png",0,0
//Break Periods
//Storyboard Layer 0 (Background)
//Storyboard Layer 1 (Fail)
//Storyboard Layer 2 (Pass)
//Storyboard Layer 3 (Foreground)
//Storyboard Sound Samples

[TimingPoints]
285,315.789473684211,4,1,0,60,1,0
2811,-133.333333333333,4,2,0,50,0,0
12285,-100,4,1,0,60,0,0
23021,-76.9230769230769,4,1,0,75,0,0
41021,-100,4,1,0,60,0,0
43232,-133.333333333333,4,2,0,50,0,0
48285,-100,4,1,0,60,0,0
53337,-76.9230769230769,4,1,0,75,0,1
58074,-76.9230769230769,4,1,0,60,0,1
60600,-76.9230769230769,4,1,0,75,0,1
63285,-76.9230769230769,4,1,0,75,0,1
68179,-76.9230769230769,4,1,0,75,0,1
73548,-76.9230769230769,4,1,0,75,0,1
78285,-76.9230769230769,4,1,0,80,0,1
83653,-200,4,1,0,60,0,0

[Colours]
Combo1 : 244,244,244
Combo2 : 230,0,255
Combo3 : 32,222,255

[HitObjects]
200,205,285,5,0,0:0:0:0:
96,88,442,1,0,0:0:0:0:
96,88,521,1,0,0:0:0:0:
96,88,600,2,0,L|156:27,1,70
315,17,916,5,0,0:0:0:0:
336,15,994,1,0,0:0:0:0:
357,17,1073,1,0,0:0:0:0:
377,22,1152,1,0,0:0:0:0:
396,32,1231,5,0,0:0:0:0:
413,44,1310,1,0,0:0:0:0:
428,59,1389,1,0,0:0:0:0:
439,77,1468,1,0,0:0:0:0:
448,96,1547,5,0,0:0:0:0:
447,254,1706,1,0,0:0:0:0:
447,254,1785,1,0,0:0:0:0:
447,254,1863,1,0,0:0:0:0:
354,117,2021,1,0,0:0:0:0:
447,254,2179,2,0,L|384:304,1,70
307,314,2811,5,0,0:0:0:0:
237,145,2969,2,0,L|191:171,1,52.5000020027161
312,236,3285,2,0,L|312:183,1,52.5000020027161
194,252,3600,2,0,L|239:278,1,52.5000020027161
364,183,3916,2,0,L|308:183,1,52.5000020027161
437,278,4232,2,0,L|482:251,1,52.5000020027161
450,118,4548,2,0,L|450:170,1,52.5000020027161
450,33,4863,2,0,L|450:7,2,26.2500010013581
450,170,5179,6,0,L|450:117,1,52.5000020027161
311,118,5495,2,0,L|311:190,1,52.5000020027161
380,52,5811,2,0,L|334:26,1,52.5000020027161
456,93,6127,2,0,L|486:110,2,26.2500010013581
334,26,6442,6,0,L|380:52,1,52.5000020027161
248,76,6758,2,0,L|247:15,1,52.5000020027161
323,134,7074,2,0,P|277:165|221:166,1,105.000004005432
381,59,7548,5,0,0:0:0:0:
381,59,7706,2,0,P|412:104|414:161,1,105.000004005432
228,199,8179,5,0,0:0:0:0:
228,199,8337,2,0,P|196:153|195:97,1,105.000004005432
303,257,8811,5,0,0:0:0:0:
303,257,8969,2,0,P|257:288|200:290,1,105.000004005432
361,181,9442,5,0,0:0:0:0:
361,181,9600,2,0,P|392:226|394:283,1,105.000004005432
287,123,10074,5,0,0:0:0:0:
287,123,10232,2,0,P|332:91|454:162,1,210.000008010865
230,198,11021,2,0,P|198:152|197:95,1,105.000004005432
313,340,11495,1,0,0:0:0:0:
418,216,12285,6,0,P|417:302|303:335,1,210
258,185,12916,1,0,0:0:0:0:
312,339,13074,1,0,0:0:0:0:
418,216,13232,1,0,0:0:0:0:
110,209,13548,6,0,L|147:273,2,70
291,64,14179,6,0,L|217:64,2,70
256,289,14811,6,0,L|256:219,2,70
254,113,15285,5,0,0:0:0:0:
254,113,15363,1,0,0:0:0:0:
254,113,15442,1,0,0:0:0:0:
256,289,15600,1,0,0:0:0:0:
408,200,15758,1,0,0:0:0:0:
119,227,16074,6,0,L|118:297,2,70
358,73,16706,5,0,0:0:0:0:
256,289,16863,1,0,0:0:0:0:
154,73,17021,2,0,L|213:107,1,70
104,225,17337,1,0,0:0:0:0:
58,71,17495,1,0,0:0:0:0:
219,204,17653,2,0,L|219:288,1,70
219,101,17969,6,0,L|279:135,1,70
137,153,18285,1,0,0:0:0:0:
377,142,18600,6,0,L|342:202,1,70
325,60,18916,1,0,0:0:0:0:
335,301,19232,6,0,L|274:266,1,70
417,249,19548,1,0,0:0:0:0:
177,260,19863,6,0,L|212:199,1,70
229,342,20179,1,0,0:0:0:0:
113,94,20495,5,0,0:0:0:0:
93,127,20573,1,0,0:0:0:0:
84,165,20652,1,0,0:0:0:0:
84,204,20731,1,0,0:0:0:0:
95,242,20811,5,0,0:0:0:0:
116,275,20889,1,0,0:0:0:0:
144,302,20968,1,0,0:0:0:0:
179,320,21047,1,0,0:0:0:0:
217,328,21126,5,0,0:0:0:0:
256,326,21205,1,0,0:0:0:0:
293,314,21284,1,0,0:0:0:0:
326,293,21363,1,0,0:0:0:0:
351,263,21442,6,0,L|386:173,1,70
287,6,21758,1,0,0:0:0:0:
264,250,21916,1,0,0:0:0:0:
387,76,22074,1,0,0:0:0:0:
164,180,22232,1,0,0:0:0:0:
376,198,22390,1,0,0:0:0:0:
176,56,22548,1,0,0:0:0:0:
128,60,22626,1,0,0:0:0:0:
87,81,22705,1,0,0:0:0:0:
56,115,22784,1,0,0:0:0:0:
39,158,22863,1,0,0:0:0:0:
38,205,22942,1,0,0:0:0:0:
51,248,23021,6,0,L|96:328,1,90.9999958343508
208,108,23337,5,0,0:0:0:0:
148,260,23495,1,0,0:0:0:0:
87,81,23653,2,0,L|188:12,1,90.9999958343508
234,211,23969,5,0,0:0:0:0:
70,206,24127,1,0,0:0:0:0:
217,88,24285,2,0,L|316:159,1,90.9999958343508
275,322,24600,5,0,0:0:0:0:
290,141,24758,1,0,0:0:0:0:
275,322,24916,2,0,L|246:221,1,90.9999958343508
439,181,25232,5,0,0:0:0:0:
363,326,25390,1,0,0:0:0:0:
290,141,25548,2,0,L|383:109,1,90.9999958343508
440,312,25863,5,0,0:0:0:0:
376,111,26021,1,0,0:0:0:0:
508,261,26179,1,0,0:0:0:0:
307,250,26337,1,0,0:0:0:0:
448,166,26495,1,0,0:0:0:0:
345,337,26653,2,0,L|252:326,1,90.9999958343508
344,80,26969,6,0,L|359:169,1,90.9999958343508
216,52,27285,1,0,0:0:0:0:
448,166,27442,2,0,L|392:264,1,90.9999958343508
228,252,27758,5,0,0:0:0:0:
322,54,27916,1,0,0:0:0:0:
402,245,28074,2,0,L|311:210,1,90.9999958343508
435,38,28390,5,0,0:0:0:0:
483,251,28548,1,0,0:0:0:0:
310,132,28706,2,0,L|421:132,1,90.9999958343508
189,209,29021,5,0,0:0:0:0:
343,38,29179,1,0,0:0:0:0:
397,240,29337,2,0,L|304:269,1,90.9999958343508
282,84,29653,5,0,0:0:0:0:
397,240,29811,1,0,0:0:0:0:
189,209,29969,2,0,L|210:113,1,90.9999958343508
310,267,30285,5,0,0:0:0:0:
104,298,30442,2,0,L|51:215,1,90.9999958343508
355,40,30758,6,0,L|355:131,1,90.9999958343508
138,66,31074,2,0,L|234:53,1,90.9999958343508
310,267,31390,1,0,0:0:0:0:
112,155,31548,1,0,0:0:0:0:
279,160,31706,1,0,0:0:0:0:
101,299,31863,1,0,0:0:0:0:
204,95,32021,1,0,0:0:0:0:
225,321,32179,2,0,L|172:231,1,90.9999958343508
279,69,32495,2,0,L|279:166,1,90.9999958343508
424,291,32811,5,0,0:0:0:0:
407,63,32969,1,0,0:0:0:0:
252,265,33127,2,0,L|368:265,1,90.9999958343508
190,75,33442,5,0,0:0:0:0:
132,260,33600,1,0,0:0:0:0:
190,75,33758,2,0,L|92:97,1,90.9999958343508
360,105,34074,5,0,0:0:0:0:
190,75,34232,1,0,0:0:0:0:
256,256,34390,2,0,L|345:240,1,90.9999958343508
274,82,34706,5,0,0:0:0:0:
256,256,34863,1,0,0:0:0:0:
429,110,35021,2,0,L|348:56,1,90.9999958343508
256,256,35337,5,0,0:0:0:0:
435,239,35495,1,0,0:0:0:0:
354,60,35653,6,0,L|253:77,1,90.9999958343508
463,45,35969,1,0,0:0:0:0:
264,75,36127,1,0,0:0:0:0:
469,148,36285,1,0,0:0:0:0:
235,174,36442,1,0,0:0:0:0:
477,251,36600,1,0,0:0:0:0:
264,75,36758,6,0,L|165:92,1,90.9999958343508
296,238,37074,1,0,0:0:0:0:
96,158,37232,2,0,L|61:251,1,90.9999958343508
395,190,37548,2,0,L|330:113,1,90.9999958343508
336,329,37863,5,0,0:0:0:0:
336,120,38021,1,0,0:0:0:0:
336,329,38179,2,0,L|336:238,1,90.9999958343508,0|0,0:0|0:0,3:0:0:0:
336,36,38495,5,0,0:0:0:0:
195,178,38653,1,0,0:0:0:0:
398,186,38811,2,0,L|311:94,1,90.9999958343508
249,269,39127,5,0,0:0:0:0:
260,62,39285,1,0,0:0:0:0:
249,269,39442,2,0,L|337:247,1,90.9999958343508
187,180,39758,5,0,0:0:0:0:
314,334,39916,1,0,0:0:0:0:
378,144,40074,2,0,L|289:165,1,90.9999958343508
450,285,40390,5,0,0:0:0:0:
466,54,40548,2,0,L|461:145,1,90.9999958343508
236,36,41021,6,0,L|303:54,1,70
72,145,41337,2,0,L|109:10,1,140
136,233,41811,1,0,0:0:0:0:
7,80,41969,1,0,0:0:0:0:
236,36,42127,2,0,L|219:104,1,70
119,297,42442,1,0,0:0:0:0:
7,80,42600,2,0,P|70:85|96:170,1,140
275,114,43232,6,0,L|345:108,1,52.5000020027161,0|0,0:0|0:0,0:0:0:0:
422,273,43548,1,0,0:0:0:0:
422,273,43706,1,0,0:0:0:0:
242,306,43863,2,0,L|212:278,2,26.2500010013581,0|0|0,0:0|0:0|0:0,0:0:0:0:
361,164,44179,2,0,L|380:181,2,26.2500010013581,0|0|0,0:0|0:0|0:0,0:0:0:0:
194,220,44495,6,0,P|179:194|174:161,1,52.5000020027161
291,35,44811,2,0,L|330:39,2,26.2500010013581
283,237,45127,1,0,0:0:0:0:
173,71,45285,1,0,0:0:0:0:
397,174,45442,1,0,0:0:0:0:
174,172,45600,1,0,0:0:0:0:
402,73,45758,5,0,0:0:0:0:
420,246,45916,2,0,L|434:277,2,26.2500010013581,0|0|0,0:0|0:0|0:0,0:0:0:0:
256,343,46232,1,0,0:0:0:0:
256,343,46311,1,0,0:0:0:0:
256,343,46390,1,0,0:0:0:0:
92,246,46548,2,0,L|78:277,2,26.2500010013581,0|0|0,0:0|0:0|0:0,0:0:0:0:
232,118,46863,1,0,0:0:0:0:
232,118,46942,1,0,0:0:0:0:
232,118,47021,5,0,0:0:0:0:
420,138,47179,2,0,L|430:114,2,26.2500010013581,0|0|0,0:0|0:0|0:0,0:0:0:0:
314,339,47495,1,0,0:0:0:0:
108,245,47653,2,0,L|73:251,1,26.2500010013581,0|0,0:0|0:0,0:0:0:0:
104,150,47811,2,0,L|72:135,1,26.2500010013581,0|0,0:0|0:0,0:0:0:0:
155,71,47969,2,0,L|138:40,1,26.2500010013581,0|0,0:0|0:0,0:0:0:0:
243,35,48127,2,0,L|246:0,1,26.2500010013581,0|0,0:0|0:0,0:0:0:0:
335,56,48285,6,0,P|374:87|391:115,1,70,0|0,0:0|0:0,0:0:0:0:
220,233,48600,2,0,L|146:198,1,70,0|0,0:0|0:0,0:0:0:0:
333,203,48916,2,0,P|341:259|328:295,1,70,0|0,0:0|0:0,0:0:0:0:
138,287,49232,5,0,0:0:0:0:
179,134,49390,1,0,0:0:0:0:
251,244,49548,1,0,0:0:0:0:
74,197,49706,1,0,0:0:0:0:
272,150,49863,1,0,0:0:0:0:
223,333,50021,5,0,0:0:0:0:
100,121,50179,1,0,0:0:0:0:
344,140,50337,1,0,0:0:0:0:
116,275,50495,1,0,0:0:0:0:
184,22,50653,1,0,0:0:0:0:
421,59,50811,6,0,P|447:98|444:150,1,70,0|0,0:0|0:0,0:0:0:0:
190,239,51127,2,0,P|168:211|160:177,1,70,0|0,0:0|0:0,0:0:0:0:
425,272,51442,6,0,P|417:306|396:334,1,70,0|0,0:0|0:0,0:0:0:0:
118,330,51758,1,0,0:0:0:0:
182,87,51916,1,0,0:0:0:0:
343,271,52074,1,0,0:0:0:0:
62,265,52232,5,0,0:0:0:0:
23,234,52311,1,0,0:0:0:0:
8,187,52390,1,0,0:0:0:0:
11,138,52469,1,0,0:0:0:0:
36,96,52548,1,0,0:0:0:0:
75,67,52627,1,0,0:0:0:0:
122,56,52706,2,0,L|219:44,1,70,0|0,0:0|0:0,0:0:0:0:
294,35,53337,5,0,0:0:0:0:
446,173,53495,2,0,L|353:183,1,90.9999958343508,0|0,0:0|0:0,0:0:0:0:
56,147,53811,2,0,L|150:134,1,90.9999958343508,0|0,0:0|0:0,0:0:0:0:
422,308,54127,2,0,L|331:320,1,90.9999958343508,0|0,0:0|0:0,0:0:0:0:
294,35,54442,2,0,L|307:130,1,90.9999958343508,0|0,0:0|0:0,0:0:0:0:
89,310,54758,2,0,L|74:220,1,90.9999958343508,0|0,0:0|0:0,0:0:0:0:
444,220,55074,2,0,L|429:310,1,90.9999958343508,0|0,0:0|0:0,0:0:0:0:
186,80,55390,5,0,0:0:0:0:
186,336,55548,1,0,0:0:0:0:
186,336,55627,1,0,0:0:0:0:
186,336,55706,2,0,L|281:326,1,90.9999958343508,0|0,0:0|0:0,0:0:0:0:
405,138,56021,2,0,L|298:125,1,90.9999958343508
82,260,56337,2,0,L|170:210,1,90.9999958343508
82,66,56653,5,0,0:0:0:0:
82,353,56811,1,0,0:0:0:0:
82,353,56890,1,0,0:0:0:0:
82,353,56969,2,0,L|177:340,1,90.9999958343508,0|0,0:0|0:0,0:0:0:0:
197,45,57285,2,0,L|189:145,1,90.9999958343508,0|0,0:0|0:0,0:0:0:0:
431,336,57600,2,0,P|482:291|457:189,1,181.999991668702,0|0,0:0|0:0,0:0:0:0:
258,84,58074,5,0,0:0:0:0:
404,256,58232,2,0,P|311:269|251:197,1,181.999991668702,0|0,0:0|0:0,0:0:0:0:
227,14,58706,5,0,0:0:0:0:
445,44,58863,2,0,P|416:134|313:183,1,181.999991668702,0|0,0:0|0:0,0:0:0:0:
128,199,59337,5,0,0:0:0:0:
189,24,59495,2,0,P|257:65|253:168,1,181.999991668702,0|0,0:0|0:0,0:0:0:0:
131,328,59969,5,0,0:0:0:0:
44,185,60127,2,0,P|113:108|217:137,1,181.999991668702
393,224,60600,5,0,0:0:0:0:
263,352,60758,2,0,P|182:315|142:236,1,181.999991668702
342,108,61232,2,0,P|399:126|426:170,1,90.9999958343508,0|0,0:0|0:0,0:0:0:0:
184,171,61548,6,0,P|154:142|243:59,1,181.999991668702
383,265,62021,2,0,L|287:306,1,90.9999958343508
184,171,62337,2,0,L|279:171,1,90.9999958343508
159,301,62653,1,0,0:0:0:0:
76,77,62811,2,0,L|171:35,1,90.9999958343508
284,175,63127,1,0,0:0:0:0:
159,301,63285,6,0,L|76:265,1,90.9999958343508
393,219,63600,2,0,L|356:302,1,90.9999958343508
288,32,63916,2,0,L|371:68,1,90.9999958343508
168,224,64232,2,0,L|157:134,1,90.9999958343508
393,219,64548,2,0,L|319:273,1,90.9999958343508
197,41,64863,2,0,L|288:31,1,90.9999958343508
168,224,65179,2,0,L|84:186,1,90.9999958343508
264,98,65495,5,0,0:0:0:0:
421,214,65653,1,0,0:0:0:0:
255,302,65811,2,0,L|255:189,1,90.9999958343508,0|0,0:0|0:0,0:0:0:0:
343,114,66127,5,0,0:0:0:0:
394,304,66285,1,0,0:0:0:0:
186,270,66443,2,0,L|276:192,1,90.9999958343508,0|0,0:0|0:0,0:0:0:0:
394,178,66758,5,0,0:0:0:0:
325,361,66916,1,0,0:0:0:0:
165,195,67074,2,0,L|278:213,1,90.9999958343508,0|0,0:0|0:0,0:0:0:0:
107,128,67390,6,0,P|79:169|82:230,1,90.9999958343508,0|0,0:0|0:0,0:0:0:0:
165,195,67706,2,0,P|193:105|140:46,1,181.999991668702,0|0,0:0|0:0,0:0:0:0:
4,154,68179,5,0,0:0:0:0:
105,281,68337,2,0,P|184:298|264:230,1,181.999991668702,0|0,0:0|0:0,0:0:0:0:
188,110,68811,5,0,0:0:0:0:
46,214,68969,2,0,P|18:303|85:369,1,181.999991668702,0|0,0:0|0:0,0:0:0:0:
288,324,69442,5,0,0:0:0:0:
400,193,69600,2,0,P|397:117|310:59,1,181.999991668702,0|0,0:0|0:0,0:0:0:0:
236,164,70074,5,0,0:0:0:0:
356,272,70232,2,0,P|446:271|490:196,1,181.999991668702,0|0,0:0|0:0,0:0:0:0:
257,91,70706,5,0,0:0:0:0:
46,288,70863,2,0,L|131:322,1,90.9999958343508
321,184,71179,1,0,0:0:0:0:
133,39,71337,2,0,L|37:77,1,90.9999958343508,0|0,0:0|0:0,0:0:0:0:
202,265,71653,2,0,P|237:184|196:106,1,181.999991668702
46,288,72127,2,0,L|131:322,1,90.9999958343508
243,349,72442,6,0,L|266:349,8,22.7499989585877,0|0|0|0|0|0|0|0|0,0:0|0:0|0:0|0:0|0:0|0:0|0:0|0:0|0:0,0:0:0:0:
235,144,72916,6,0,L|235:207,2,60.6666638895672
361,114,73232,2,0,L|361:51,2,60.6666638895672
431,211,73548,6,0,L|357:274,1,90.9999958343508
139,179,73863,1,0,0:0:0:0:
334,64,74021,1,0,0:0:0:0:
110,283,74179,6,0,L|19:258,1,90.9999958343508,0|0,0:0|0:0,0:0:0:0:
261,164,74494,1,0,0:0:0:0:
146,368,74652,1,0,0:0:0:0:
164,57,74811,6,0,L|175:152,1,90.9999958343508,0|0,0:0|0:0,0:0:0:0:
191,306,75126,1,0,0:0:0:0:
59,108,75284,1,0,0:0:0:0:
348,285,75442,6,0,L|253:248,1,90.9999958343508,0|0,0:0|0:0,0:0:0:0:
114,93,75757,1,0,0:0:0:0:
339,93,75915,1,0,0:0:0:0:
127,303,76074,6,0,L|201:230,1,90.9999958343508,0|0,0:0|0:0,0:0:0:0:
339,93,76389,1,0,0:0:0:0:
385,313,76547,1,0,0:0:0:0:
114,93,76706,6,0,L|220:93,1,90.9999958343508,0|0,0:0|0:0,0:0:0:0:
411,93,77021,1,0,0:0:0:0:
252,302,77179,1,0,0:0:0:0:
59,149,77337,6,0,L|157:155,1,90.9999958343508,0|0,0:0|0:0,0:0:0:0:
198,252,77574,1,0,0:0:0:0:
198,252,77653,2,0,P|153:262|109:254,1,90.9999958343508
306,140,77969,2,0,P|356:162|385:217,1,90.9999958343508
266,290,78285,5,0,0:0:0:0:
282,53,78442,1,0,0:0:0:0:
422,250,78600,1,0,0:0:0:0:
422,250,78679,1,0,0:0:0:0:
422,250,78758,1,0,0:0:0:0:
195,322,78916,5,0,0:0:0:0:
131,102,79074,1,0,0:0:0:0:
353,156,79232,1,0,0:0:0:0:
353,156,79311,1,0,0:0:0:0:
353,156,79390,1,0,0:0:0:0:
137,228,79548,5,0,0:0:0:0:
295,64,79706,1,0,0:0:0:0:
359,282,79864,1,0,0:0:0:0:
359,282,79943,1,0,0:0:0:0:
359,282,80021,1,0,0:0:0:0:
199,119,80179,5,0,0:0:0:0:
424,150,80337,1,0,0:0:0:0:
209,251,80495,1,0,0:0:0:0:
209,251,80574,1,0,0:0:0:0:
209,251,80653,1,0,0:0:0:0:
332,52,80811,5,0,0:0:0:0:
328,297,80969,1,0,0:0:0:0:
117,169,81127,1,0,0:0:0:0:
117,169,81206,1,0,0:0:0:0:
117,169,81285,1,0,0:0:0:0:
357,198,81442,5,0,0:0:0:0:
100,262,81600,1,0,0:0:0:0:
319,114,81758,1,0,0:0:0:0:
319,114,81837,1,0,0:0:0:0:
319,114,81916,1,0,0:0:0:0:
197,348,82074,5,0,0:0:0:0:
123,84,82232,1,0,0:0:0:0:
387,154,82390,1,0,0:0:0:0:
387,154,82469,1,0,0:0:0:0:
387,154,82548,1,0,0:0:0:0:
58,245,82706,5,0,0:0:0:0:
281,31,82864,1,0,0:0:0:0:
367,328,83021,1,0,0:0:0:0:
367,328,83100,1,0,0:0:0:0:
367,328,83179,1,0,0:0:0:0:
59,149,83337,5,0,0:0:0:0:
415,244,83495,1,0,0:0:0:0:
256,192,83653,12,0,88548,0:0:0:0:
