osu file format v14

[General]
AudioFilename: audio.mp3
AudioLeadIn: 0
PreviewTime: 52696
Countdown: 1
SampleSet: Soft
StackLeniency: 0.7
Mode: 0
LetterboxInBreaks: 0
WidescreenStoryboard: 1

[Editor]
DistanceSpacing: 1.8
BeatDivisor: 4
GridSize: 4
TimelineZoom: 2

[Metadata]
Title:99 (TV Size)
TitleUnicode:99 (TV Size)
Artist:MOB CHOIR
ArtistUnicode:MOB CHOIR
Creator:Trost
Version:80% (old)
Source:Mob Psycho 100
Tags:mob psycho 100 opening 99 mob choir op
BeatmapID:1062672
BeatmapSetID:494641

[Difficulty]
HPDrainRate:5
CircleSize:4
OverallDifficulty:8
ApproachRate:9
SliderMultiplier:1.6
SliderTickRate:1

[Events]
//Background and Video events
Video,-394,"daddy.mp4"
0,0,"Mob 4.png",0,0
//Break Periods
//Storyboard Layer 0 (Background)
//Storyboard Layer 1 (Fail)
//Storyboard Layer 2 (Pass)
//Storyboard Layer 3 (Foreground)
//Storyboard Layer 4 (Overlay)
//Storyboard Sound Samples

[TimingPoints]
65,315.789473684211,4,2,1,80,1,0
65,-166.666666666667,4,2,1,80,0,0
2591,-200,4,2,1,20,0,0
11275,-100,4,2,1,80,0,0
17748,-83.3333333333333,4,2,1,80,0,0
21538,-100,4,2,1,80,0,0
25327,-100,4,1,1,80,0,0
27538,-100,4,2,1,80,0,0
35432,-100,4,1,1,80,0,0
37643,-100,4,2,1,80,0,0
43011,-100,4,1,1,80,0,0
53117,-83.3333333333333,4,2,1,100,0,1
72065,-125,4,2,1,80,0,0
73327,-83.3333333333333,4,2,1,80,0,0

[HitObjects]
208,108,65,6,0,L|200:80,7,23.9999992675781
344,196,696,2,0,L|376:176,7,23.9999992675781
212,264,1328,2,0,L|188:300,6,23.9999992675781
296,152,1959,1,0,0:0:0:0:
308,44,2591,6,0,P|376:84|400:168,2,160,4|2|2,0:0|0:0|0:0,0:0:0:0:
336,268,4486,1,2,0:0:0:0:
116,232,5117,2,0,B|80:168|80:168|80:68,2,160,2|2|2,0:0|0:0|0:0,0:0:0:0:
292,92,7012,1,2,0:0:0:0:
212,240,7643,2,0,P|172:312|84:324,2,160,2|2|2,0:0|0:0|0:0,0:0:0:0:
368,76,9538,1,2,0:0:0:0:
454,142,10170,6,0,P|327:173|264:60,1,280,2|4,0:0|0:0,0:0:0:0:
124,288,12696,5,8,0:0:0:0:
124,288,12854,1,8,0:0:0:0:
124,288,13012,2,0,P|108:232|44:152,1,160,8|0,0:0|0:0,0:0:0:0:
184,152,13486,2,0,P|244:140|312:64,1,160
356,188,13959,6,0,L|412:248,1,80
324,316,14275,1,0,0:0:0:0:
152,196,14433,1,0,0:0:0:0:
284,196,14591,2,0,L|284:112,1,80
356,188,14907,2,0,L|356:272,1,80
184,160,15222,5,8,0:0:0:0:
184,160,15380,1,8,0:0:0:0:
184,160,15538,2,0,B|112:124|112:124|52:60,1,160,8|0,0:0|0:0,0:0:0:0:
56,112,16012,2,0,P|72:168|48:272,1,160
180,280,16486,2,0,P|220:312|236:340,1,80
320,240,16801,2,0,L|384:184,1,80
324,72,17117,2,0,L|388:16,1,80
172,56,17433,1,0,0:0:0:0:
172,56,17591,1,0,0:0:0:0:
320,252,17749,6,8,L|384:328,1,95.9999970703126
192,132,18380,6,8,L|128:56,1,95.9999970703126
372,192,19012,6,8,L|468:192,1,95.9999970703126
140,192,19643,6,8,L|40:192,1,95.9999970703126
384,104,20275,6,8,L|448:32,1,95.9999970703126
128,280,20907,6,8,L|60:356,1,95.9999970703126
408,324,21538,6,8,L|328:236,1,80
384,232,21854,2,0,P|356:196|380:112,1,120,8|0,0:0|0:0,0:0:0:0:
316,132,22170,2,0,L|208:80,1,120,8|0,0:0|0:0,0:0:0:0:
204,96,22486,1,8,0:0:0:0:
199,115,22565,1,8,0:0:0:0:
195,135,22643,1,8,0:0:0:0:
196,152,22722,1,8,0:0:0:0:
196,172,22801,6,8,L|116:136,1,80
108,280,23117,2,8,L|80:336,2,40
244,236,23433,2,0,P|308:212|332:192,1,80,8|0,0:0|0:0,0:0:0:0:
236,88,23749,2,8,L|221:50,2,40
376,56,24065,2,0,L|444:4,1,80,8|0,0:0|0:0,0:0:0:0:
480,148,24380,2,8,L|508:184,2,40
348,208,24696,2,0,L|264:208,1,80,8|0,0:0|0:0,0:0:0:0:
224,344,25012,2,8,L|204:392,2,40
192,204,25328,5,8,0:0:0:0:
284,92,25486,1,0,0:0:0:0:
340,224,25643,1,8,0:0:0:0:
224,136,25801,1,0,0:0:0:0:
248,28,25959,1,8,0:0:0:0:
192,228,26117,1,0,0:0:0:0:
152,92,26275,1,8,0:0:0:0:
296,92,26433,1,0,0:0:0:0:
420,16,26591,6,0,P|440:88|396:192,1,160,8|0,0:0|0:0,0:0:0:0:
444,308,27065,1,0,0:0:0:0:
444,308,27222,2,0,L|500:368,1,80,8|0,0:0|0:0,0:0:0:0:
328,256,27538,2,8,L|288:236,2,40
292,116,27854,2,0,P|292:68|264:24,1,80,8|0,0:0|0:0,0:0:0:0:
204,164,28170,2,8,L|160:216,2,40
108,56,28486,2,0,L|40:-4,1,80,8|0,0:0|0:0,0:0:0:0:
68,148,28801,2,8,L|40:204,2,40
164,256,29117,6,0,L|224:320,1,80,8|0,0:0|0:0,0:0:0:0:
76,308,29433,2,8,L|24:352,2,40
32,168,29749,2,8,P|12:116|28:12,1,160
152,88,30222,1,0,0:0:0:0:
256,188,30380,6,0,L|336:232,1,80,8|0,0:0|0:0,0:0:0:0:
396,356,30696,2,0,P|452:304|464:220,1,160
472,80,31170,1,0,0:0:0:0:
472,80,31328,2,0,P|436:44|416:0,1,80,8|0,0:0|0:0,0:0:0:0:
336,136,31643,2,0,L|260:192,1,80,8|0,0:0|0:0,0:0:0:0:
160,92,31959,2,0,P|124:48|116:0,1,80,8|0,0:0|0:0,0:0:0:0:
132,168,32275,6,0,L|88:244,1,80,8|0,0:0|0:0,0:0:0:0:
224,300,32591,2,8,L|268:300,2,40
276,164,32907,2,0,L|304:88,1,80,8|0,0:0|0:0,0:0:0:0:
356,224,33222,2,8,L|396:280,2,40
436,104,33538,2,0,L|472:24,1,80,8|0,0:0|0:0,0:0:0:0:
336,84,33854,2,8,L|312:124,2,40
292,224,34170,6,0,P|256:196|208:180,1,80,8|0,0:0|0:0,0:0:0:0:
168,48,34486,2,8,L|144:0,2,40
124,188,34801,2,0,P|104:248|72:272,1,80,8|0,0:0|0:0,0:0:0:0:
220,332,35117,2,8,L|252:368,2,40
328,240,35433,5,8,0:0:0:0:
388,108,35591,1,0,0:0:0:0:
248,136,35749,1,8,0:0:0:0:
384,184,35907,1,0,0:0:0:0:
332,320,36065,1,8,0:0:0:0:
312,176,36222,1,0,0:0:0:0:
196,92,36380,1,8,0:0:0:0:
196,92,36538,1,0,0:0:0:0:
156,232,36696,6,0,L|96:304,1,80,8|0,0:0|0:0,0:0:0:0:
240,248,37012,2,0,P|228:188|200:156,1,80,8|0,0:0|0:0,0:0:0:0:
316,280,37328,2,0,P|372:240|472:240,1,160,8|8,0:0|0:0,0:0:0:0:
480,220,37722,1,8,0:0:0:0:
500,208,37801,1,8,0:0:0:0:
376,136,37959,6,0,L|332:68,1,80,8|0,0:0|0:0,0:0:0:0:
320,212,38275,2,8,L|312:256,2,40
220,108,38591,2,0,L|112:108,1,80,8|0,0:0|0:0,0:0:0:0:
216,232,38907,2,8,L|260:288,2,40
84,292,39222,2,0,L|20:364,1,80,8|0,0:0|0:0,0:0:0:0:
36,208,39538,2,8,L|4:168,2,40
140,108,39854,2,0,L|196:32,1,80,8|0,0:0|0:0,0:0:0:0:
200,188,40170,2,0,P|208:248|192:292,1,80,8|0,0:0|0:0,0:0:0:0:
348,280,40486,5,0,0:0:0:0:
348,280,40643,1,0,0:0:0:0:
348,280,40801,2,0,P|360:188|340:104,1,160
220,56,41275,1,0,0:0:0:0:
220,56,41433,2,0,L|140:112,1,80
100,236,41749,2,0,P|56:204|40:164,1,80
184,200,42065,1,0,0:0:0:0:
184,200,42222,1,0,0:0:0:0:
184,200,42380,2,0,P|244:216|288:316,1,160
428,112,43012,5,8,0:0:0:0:
428,112,43170,1,8,0:0:0:0:
428,112,43328,2,0,B|380:136|380:136|252:136,1,160
176,236,43801,1,0,0:0:0:0:
176,236,43959,2,0,P|140:176|56:136,1,160,8|0,0:0|0:0,0:0:0:0:
208,136,44433,5,0,0:0:0:0:
208,136,44591,2,0,P|260:100|276:8,1,160,8|0,0:0|0:0,0:0:0:0:
364,128,45065,1,0,0:0:0:0:
364,128,45222,2,0,L|424:192,1,80,8|0,0:0|0:0,0:0:0:0:
276,220,45538,2,0,L|200:280,1,80,8|0,0:0|0:0,0:0:0:0:
172,132,45854,6,8,P|144:92|104:72,2,80
144,276,46328,1,0,0:0:0:0:
144,276,46486,1,0,0:0:0:0:
264,188,46643,2,0,P|342:192|396:136,1,160
272,28,47117,6,0,L|308:104,1,80,8|0,0:0|0:0,0:0:0:0:
388,264,47433,1,8,0:0:0:0:
388,264,47591,1,8,0:0:0:0:
268,184,47749,1,8,0:0:0:0:
268,184,47907,1,8,0:0:0:0:
160,276,48065,5,0,0:0:0:0:
160,276,48222,1,0,0:0:0:0:
92,148,48380,1,0,0:0:0:0:
92,148,48538,1,0,0:0:0:0:
224,204,48696,2,0,L|320:204,1,80
180,132,49012,2,0,L|88:132,1,80
220,52,49328,5,0,0:0:0:0:
220,196,49486,1,0,0:0:0:0:
328,100,49643,1,0,0:0:0:0:
328,244,49801,1,0,0:0:0:0:
252,120,49959,1,0,0:0:0:0:
204,256,50117,1,0,0:0:0:0:
204,256,50275,1,0,0:0:0:0:
316,164,50433,5,0,0:0:0:0:
316,164,50591,2,0,L|404:164,1,80
272,236,50907,2,0,P|240:196|232:160,1,80
160,292,51222,2,0,L|104:356,1,80
96,164,51538,1,0,0:0:0:0:
96,164,51696,1,0,0:0:0:0:
236,140,51854,5,0,0:0:0:0:
262,130,51932,1,0,0:0:0:0:
285,114,52011,1,0,0:0:0:0:
302,92,52090,1,0,0:0:0:0:
312,68,52170,2,0,L|320:16,4,40
392,328,53117,6,0,B|288:328|288:328|192:280,1,191.999994140625,8|0,0:0|0:0,0:0:0:0:
312,152,53591,1,0,0:0:0:0:
148,212,53749,2,0,L|64:276,2,95.9999970703126,8|0|8,0:0|0:0|0:0,0:0:0:0:
320,204,54222,1,0,0:0:0:0:
200,80,54380,2,0,L|104:20,1,95.9999970703126,8|0,0:0|0:0,0:0:0:0:
280,96,54696,2,0,L|396:96,1,95.9999970703126,8|0,0:0|0:0,0:0:0:0:
348,268,55012,5,8,0:0:0:0:
348,268,55170,1,0,0:0:0:0:
444,124,55328,1,8,0:0:0:0:
284,192,55486,2,0,P|188:212|96:192,1,191.999994140625,8|8,0:0|0:0,0:0:0:0:
188,44,55959,2,0,L|188:160,1,95.9999970703126,8|0,0:0|0:0,0:0:0:0:
188,312,56275,5,8,0:0:0:0:
188,312,56433,1,0,0:0:0:0:
360,304,56591,2,0,P|400:260|432:244,2,95.9999970703126,8|0|8,0:0|0:0|0:0,0:0:0:0:
296,144,57065,1,0,0:0:0:0:
296,144,57222,2,0,L|220:64,1,95.9999970703126,8|0,0:0|0:0,0:0:0:0:
104,196,57538,5,8,0:0:0:0:
220,324,57696,1,0,0:0:0:0:
48,324,57854,1,8,0:0:0:0:
48,324,58012,2,0,P|64:252|36:132,1,191.999994140625,8|8,0:0|0:0,0:0:0:0:
204,192,58486,1,8,0:0:0:0:
204,192,58643,2,0,B|248:156|292:68|292:68|304:112,1,191.999994140625,8|8,0:0|0:0,0:0:0:0:
348,272,59117,5,8,0:0:0:0:
348,272,59275,2,0,P|420:196|508:196,1,191.999994140625,8|8,0:0|0:0,0:0:0:0:
352,104,59749,2,0,L|292:29,1,95.9999970703126,8|0,0:0|0:0,0:0:0:0:
244,196,60065,5,8,0:0:0:0:
300,360,60222,1,0,0:0:0:0:
300,360,60380,1,8,0:0:0:0:
452,280,60538,2,0,B|452:216|408:180|408:180|424:136|400:84,1,191.999994140625,8|8,0:0|0:0,0:0:0:0:
252,176,61012,5,8,0:0:0:0:
116,284,61170,1,0,0:0:0:0:
252,176,61328,1,8,0:0:0:0:
92,240,61486,1,0,0:0:0:0:
252,176,61643,1,8,0:0:0:0:
80,196,61801,1,0,0:0:0:0:
208,80,61959,6,8,L|228:16,4,47.9999985351563
316,216,62433,1,0,0:0:0:0:
156,156,62591,2,8,L|88:156,4,47.9999985351563
320,212,63065,5,0,0:0:0:0:
156,264,63222,2,0,L|80:332,1,95.9999970703126,8|0,0:0|0:0,0:0:0:0:
356,120,63538,2,0,L|427:55,1,95.9999970703126,8|0,0:0|0:0,0:0:0:0:
156,264,63854,2,0,L|80:332,1,95.9999970703126,8|0,0:0|0:0,0:0:0:0:
356,120,64170,2,0,L|427:55,1,95.9999970703126,8|0,0:0|0:0,0:0:0:0:
260,176,64486,5,8,0:0:0:0:
432,196,64643,1,0,0:0:0:0:
260,176,64801,1,8,0:0:0:0:
420,240,64959,1,0,0:0:0:0:
260,176,65117,1,8,0:0:0:0:
396,284,65275,1,0,0:0:0:0:
260,176,65433,1,8,0:0:0:0:
124,284,65591,6,0,P|100:176|116:88,1,191.999994140625,8|8,0:0|0:0,0:0:0:0:
280,184,66065,2,0,L|180:184,1,95.9999970703126,8|0,0:0|0:0,0:0:0:0:
292,300,66380,1,8,0:0:0:0:
292,300,66538,1,0,0:0:0:0:
416,180,66696,2,0,L|456:72,1,95.9999970703126,8|0,0:0|0:0,0:0:0:0:
276,100,67012,6,0,L|176:100,1,95.9999970703126,8|0,0:0|0:0,0:0:0:0:
236,284,67328,2,0,L|332:284,1,95.9999970703126,8|0,0:0|0:0,0:0:0:0:
276,100,67643,2,0,L|176:100,1,95.9999970703126,8|0,0:0|0:0,0:0:0:0:
236,284,67959,1,8,0:0:0:0:
400,224,68117,2,0,P|368:136|248:80,1,191.999994140625,8|8,0:0|0:0,0:0:0:0:
460,68,68591,1,8,0:0:0:0:
284,204,68749,2,0,B|200:204|200:204|120:276,1,191.999994140625,8|8,0:0|0:0,0:0:0:0:
104,104,69222,6,0,L|36:20,2,95.9999970703126,8|0|8,0:0|0:0|0:0,0:0:0:0:
276,116,69696,1,0,0:0:0:0:
276,116,69854,2,0,L|384:116,1,95.9999970703126,8|0,0:0|0:0,0:0:0:0:
232,220,70170,2,8,L|204:264,2,47.9999985351563
172,56,70486,1,8,0:0:0:0:
44,176,70643,2,0,B|24:224|60:276|60:276|44:316|48:364,1,191.999994140625,8|8,0:0|0:0,0:0:0:0:
128,208,71117,6,0,L|224:176,1,95.9999970703126,8|0,0:0|0:0,0:0:0:0:
392,188,71433,2,0,L|296:220,1,95.9999970703126,8|0,0:0|0:0,0:0:0:0:
288,44,71749,2,0,P|336:76|352:136,1,95.9999970703126,8|0,0:0|0:0,0:0:0:0:
468,24,72065,2,8,L|424:64,2,42.6666666666667
320,120,72380,2,8,L|360:168,2,42.6666666666667
468,216,72696,2,8,L|432:256,2,42.6666666666667
320,312,73012,2,8,L|360:356,2,42.6666666666667
196,256,73328,6,0,L|84:256,1,95.9999970703126,8|0,0:0|0:0,0:0:0:0:
180,100,73643,2,8,L|148:56,2,47.9999985351563
320,204,73959,2,0,L|428:204,1,95.9999970703126,8|0,0:0|0:0,0:0:0:0:
476,44,74275,2,8,L|520:16,2,47.9999985351563
352,160,74591,2,0,P|360:204|352:268,1,95.9999970703126,8|0,0:0|0:0,0:0:0:0:
268,104,74907,2,8,L|240:36,2,47.9999985351563
284,276,75222,2,0,P|316:316|364:328,1,95.9999970703126,8|0,0:0|0:0,0:0:0:0:
204,244,75538,6,8,L|144:200,2,47.9999985351563
340,136,75854,2,0,L|436:136,1,95.9999970703126,8|0,0:0|0:0,0:0:0:0:
280,212,76170,2,8,L|232:272,2,47.9999985351563
136,116,76486,2,0,P|96:84|72:32,1,95.9999970703126,8|0,0:0|0:0,0:0:0:0:
56,216,76801,2,8,L|36:268,2,47.9999985351563
172,344,77117,6,0,L|276:344,1,95.9999970703126,8|0,0:0|0:0,0:0:0:0:
116,260,77433,2,0,L|8:260,1,95.9999970703126,8|0,0:0|0:0,0:0:0:0:
172,176,77749,2,0,L|280:176,1,95.9999970703126,8|0,0:0|0:0,0:0:0:0:
100,128,78065,2,8,P|88:176|100:232,1,95.9999970703126,8|8,0:0|0:0,0:0:0:0:
232,112,78380,5,8,0:0:0:0:
259,102,78459,1,0,0:0:0:0:
283,88,78538,1,8,0:0:0:0:
304,68,78617,1,0,0:0:0:0:
308,92,78696,1,8,0:0:0:0:
317,119,78775,1,0,0:0:0:0:
326,146,78854,1,8,0:0:0:0:
336,173,78933,1,0,0:0:0:0:
344,200,79012,6,0,L|400:284,1,95.9999970703126,8|0,0:0|0:0,0:0:0:0:
232,224,79328,2,0,L|124:224,1,95.9999970703126,8|0,0:0|0:0,0:0:0:0:
276,120,79643,2,0,L|312:80,7,47.9999985351563,8|0|8|0|8|0|8|0,0:0|0:0|0:0|0:0|0:0|0:0|0:0|0:0,0:0:0:0:
380,128,80275,2,0,P|384:64|368:28,1,95.9999970703126,8|0,0:0|0:0,0:0:0:0:
468,180,80591,2,0,L|468:288,1,95.9999970703126,8|0,0:0|0:0,0:0:0:0:
300,236,80907,5,8,0:0:0:0:
271,236,80986,1,0,0:0:0:0:
243,229,81065,1,8,0:0:0:0:
218,215,81143,1,0,0:0:0:0:
197,195,81222,1,8,0:0:0:0:
182,171,81301,1,0,0:0:0:0:
173,144,81380,1,8,0:0:0:0:
182,171,81459,5,0,0:0:0:0:
189,203,81538,1,8,0:0:0:0:
192,237,81617,1,0,0:0:0:0:
189,270,81696,1,8,0:0:0:0:
181,303,81775,1,0,0:0:0:0:
168,332,81854,2,0,P|136:320|104:320,6,47.9999985351563,8|0|8|0|8|0|8,0:0|0:0|0:0|0:0|0:0|0:0|0:0,0:0:0:0:
224,264,82407,2,0,L|256:204,6,47.9999985351563,0|8|0|8|0|8|0,0:0|0:0|0:0|0:0|0:0|0:0|0:0,0:0:0:0:
224,264,82959,5,8,0:0:0:0:
252,260,83038,1,0,0:0:0:0:
281,264,83117,1,8,0:0:0:0:
308,273,83196,1,0,0:0:0:0:
332,289,83275,1,8,0:0:0:0:
352,309,83354,1,0,0:0:0:0:
256,192,83433,12,4,88328,0:0:0:0:
