osu file format v14

[General]
AudioFilename: audio.mp3
AudioLeadIn: 0
PreviewTime: 52696
Countdown: 1
SampleSet: Soft
StackLeniency: 0.7
Mode: 0
LetterboxInBreaks: 0
WidescreenStoryboard: 1

[Editor]
Bookmarks: 78380
DistanceSpacing: 1.6
BeatDivisor: 6
GridSize: 4
TimelineZoom: 2

[Metadata]
Title:99 (TV Size)
TitleUnicode:99 (TV Size)
Artist:MOB CHOIR
ArtistUnicode:MOB CHOIR
Creator:Trost
Version:60% (old)
Source:Mob Psycho 100
Tags:mob psycho 100 opening 99 mob choir op
BeatmapID:1054084
BeatmapSetID:494641

[Difficulty]
HPDrainRate:5
CircleSize:3.7
OverallDifficulty:7
ApproachRate:8
SliderMultiplier:1.4
SliderTickRate:1

[Events]
//Background and Video events
Video,-394,"daddy.mp4"
0,0,"Mob 3.png",0,0
//Break Periods
//Storyboard Layer 0 (Background)
//Storyboard Layer 1 (Fail)
//Storyboard Layer 2 (Pass)
//Storyboard Layer 3 (Foreground)
//Storyboard Layer 4 (Overlay)
//Storyboard Sound Samples

[TimingPoints]
65,315.789473684211,4,2,1,80,1,0
65,-166.666666666667,4,2,1,80,0,0
2591,-200,4,2,1,20,0,0
11275,-100,4,2,1,60,0,0
53117,-83.3333333333333,4,2,1,100,0,1
72065,-125,4,2,1,80,0,0
73327,-83.3333333333333,4,2,1,100,0,0

[HitObjects]
84,212,65,6,0,P|128:240|168:344,2,167.999994873047
220,212,1643,2,0,L|300:144,1,83.9999974365235
480,48,2591,2,0,B|456:128|456:128|484:160|484:200,1,140
272,252,3854,2,0,B|228:192|228:192|228:120,1,140
384,272,5117,6,0,P|348:336|264:368,2,140
416,48,7012,1,0,0:0:0:0:
212,140,7643,6,0,B|148:172|148:172|104:148|68:152,1,140
300,216,8907,2,0,B|364:248|364:248|408:224|428:227,1,140
224,316,10170,6,0,B|196:240|224:156|224:156|184:196|124:208,1,245,0|12,0:0|0:0,0:0:0:0:
136,280,12696,5,0,0:0:0:0:
136,280,12854,1,0,0:0:0:0:
136,280,13012,2,0,P|152:208|152:132,1,140
252,92,13486,2,0,P|304:48|384:40,1,140
152,80,13959,2,0,L|104:16,1,70
88,132,14275,1,0,0:0:0:0:
88,132,14433,2,0,L|130:188,1,70
204,272,14749,2,0,L|280:272,1,70
216,176,15065,1,0,0:0:0:0:
324,148,15222,5,0,0:0:0:0:
324,148,15380,1,0,0:0:0:0:
324,148,15538,2,0,P|336:68|324:4,1,140
424,148,16012,2,0,P|440:216|492:272,1,140
356,236,16643,2,0,B|296:276|296:276|248:336,1,140
180,244,17117,2,0,L|112:192,1,70
232,168,17433,2,0,L|328:168,1,70
356,80,17749,6,0,L|276:80,1,70
288,192,18380,6,0,L|204:192,1,70
132,300,19012,6,0,L|132:216,1,70
244,228,19643,6,0,L|244:144,1,70
176,68,20275,5,0,0:0:0:0:
176,68,20433,1,0,0:0:0:0:
160,184,20907,5,0,0:0:0:0:
160,184,21065,1,0,0:0:0:0:
184,316,21538,6,0,P|232:252|296:228,2,140
176,156,22486,2,0,L|128:76,1,70
244,48,22801,1,0,0:0:0:0:
244,48,22959,1,0,0:0:0:0:
312,136,23117,2,0,L|312:200,2,35
412,84,23433,2,0,L|468:24,1,70
480,144,23749,2,0,L|420:208,1,70
356,276,24065,5,0,0:0:0:0:
356,276,24222,1,0,0:0:0:0:
292,184,24380,2,0,L|264:136,2,35
204,252,24696,2,0,L|128:252,1,70
52,328,25012,2,0,P|36:240|52:184,1,140
100,92,25486,5,0,0:0:0:0:
168,184,25643,2,0,L|256:184,1,70
280,80,25959,2,0,L|376:80,1,70
424,164,26275,1,0,0:0:0:0:
424,164,26433,1,0,0:0:0:0:
472,264,26591,2,0,L|508:324,2,70
364,232,27065,1,0,0:0:0:0:
276,304,27222,6,0,P|256:237|269:169,1,140
269,169,27696,1,0,0:0:0:0:
188,96,27854,2,0,P|144:64|132:36,1,70
112,160,28170,5,0,0:0:0:0:
112,160,28328,1,0,0:0:0:0:
216,204,28486,2,0,L|316:204,1,70
372,276,28801,2,0,P|388:192|372:132,1,140
448,56,29275,1,0,0:0:0:0:
448,56,29433,2,0,L|504:12,1,70
336,72,29749,6,0,L|256:72,1,70
184,152,30065,2,0,P|160:108|160:60,1,70
80,172,30380,6,0,B|124:236|124:236|124:320,2,140
188,136,31170,1,0,0:0:0:0:
188,136,31328,2,0,L|248:84,1,70
304,184,31643,2,0,L|352:256,2,70
400,124,32117,1,0,0:0:0:0:
400,124,32275,2,0,P|368:104|344:56,1,70
204,136,32591,6,0,L|156:136,2,35
360,232,32907,2,0,L|456:232,1,70
324,344,33222,1,0,0:0:0:0:
324,344,33380,1,0,0:0:0:0:
252,260,33538,2,0,P|220:216|184:188,1,70
296,136,33854,6,0,L|352:80,1,70
236,60,34170,2,0,L|152:60,1,70
52,56,34486,2,0,L|16:0,2,35
88,164,34801,2,0,P|100:224|88:312,1,140
188,248,35275,5,0,0:0:0:0:
260,160,35433,1,0,0:0:0:0:
260,160,35591,1,0,0:0:0:0:
356,312,35749,1,0,0:0:0:0:
356,312,35907,1,0,0:0:0:0:
416,184,36065,2,0,P|404:128|428:28,1,140
320,148,36538,5,0,0:0:0:0:
320,148,36696,2,0,P|248:132|168:148,1,140
96,72,37170,1,0,0:0:0:0:
96,72,37328,2,0,L|40:8,1,70
48,176,37643,6,0,L|48:244,2,35
156,140,37959,2,0,P|180:108|188:60,1,70
248,176,38275,2,0,L|328:176,1,70
216,272,38591,1,0,0:0:0:0:
216,272,38749,1,0,0:0:0:0:
328,268,38907,2,0,P|396:220|460:220,1,140
460,300,39380,5,0,0:0:0:0:
460,300,39538,2,0,L|508:368,1,70
360,344,39854,2,0,L|276:344,1,70
160,288,40170,2,0,B|204:236|204:236|204:160,1,140
88,88,40643,1,0,0:0:0:0:
228,72,40801,2,0,P|276:104|288:200,1,140
392,80,41275,5,0,0:0:0:0:
392,80,41433,2,0,L|448:144,1,70
388,232,41749,6,0,P|381:269|388:308,2,70
292,172,42222,1,0,0:0:0:0:
292,172,42380,2,0,P|216:184|136:172,1,140
104,308,42854,1,0,0:0:0:0:
72,200,43012,6,0,P|76:148|164:92,1,140
316,236,43643,2,0,B|352:192|352:192|352:84,1,140
312,328,44275,2,0,P|244:292|228:220,1,140
160,144,44749,1,0,0:0:0:0:
112,244,44907,2,0,L|60:328,1,70
188,288,45222,2,0,L|272:288,1,70
340,368,45538,5,0,0:0:0:0:
340,368,45696,1,0,0:0:0:0:
340,368,45854,2,0,P|356:288|340:212,1,140
248,180,46328,2,0,L|248:92,1,70
160,252,46643,2,0,L|160:164,1,70
72,336,46959,2,0,L|72:248,1,70
112,160,47275,6,0,L|112:72,1,70
252,228,47591,2,0,L|332:228,1,70
436,228,47907,5,0,0:0:0:0:
384,128,48065,1,0,0:0:0:0:
328,28,48222,1,0,0:0:0:0:
296,136,48380,2,0,L|208:136,1,70
308,216,48696,2,0,P|348:200|372:168,1,70
404,288,49012,6,0,L|444:352,1,70
328,332,49328,2,0,L|240:332,1,70
312,232,49643,2,0,L|352:168,1,70
456,132,49959,2,0,L|496:68,1,70
380,84,50275,2,0,P|344:88|292:84,1,70
188,172,50591,5,0,0:0:0:0:
188,172,50749,1,0,0:0:0:0:
188,172,50907,2,0,P|148:120|72:104,1,140
172,40,51380,1,0,0:0:0:0:
276,76,51538,2,0,L|360:76,1,70
304,180,51854,2,0,L|344:228,3,35
256,244,52170,2,0,L|212:288,4,35
56,84,53117,6,0,B|160:96|160:96|224:72,1,167.999994873047
328,152,53591,1,0,0:0:0:0:
240,252,53749,2,0,L|152:288,1,83.9999974365235
292,316,54065,2,0,L|380:316,1,83.9999974365235
456,208,54380,2,0,P|384:184|360:88,1,167.999994873047
280,212,54854,1,0,0:0:0:0:
280,212,55012,2,0,L|224:136,1,83.9999974365235
184,272,55328,5,0,0:0:0:0:
184,272,55486,2,0,B|152:232|104:244|104:244|92:192|32:184,1,167.999994873047
172,124,55959,2,0,P|200:80|208:44,2,83.9999974365235
64,44,56433,1,0,0:0:0:0:
20,172,56591,2,0,P|28:216|20:260,1,83.9999974365235
152,292,56907,2,0,L|224:348,2,83.9999974365235
212,172,57380,1,0,0:0:0:0:
296,276,57538,2,0,L|396:276,1,83.9999974365235
452,164,57854,5,0,0:0:0:0:
384,48,58012,2,0,B|336:80|336:80|216:80,1,167.999994873047
148,192,58486,1,0,0:0:0:0:
148,192,58643,2,0,P|132:108|60:72,1,167.999994873047
216,96,59117,5,0,0:0:0:0:
216,96,59275,2,0,P|288:92|360:24,1,167.999994873047
388,180,59749,2,0,L|420:264,1,83.9999974365235
276,200,60065,2,0,L|188:200,1,83.9999974365235
72,292,60380,5,0,0:0:0:0:
72,292,60538,2,0,P|56:204|72:120,1,167.999994873047
212,76,61012,2,0,L|296:24,1,83.9999974365235
224,172,61328,2,0,L|152:216,1,83.9999974365235
304,216,61643,2,0,L|375:260,1,83.9999974365235
452,148,61959,5,0,0:0:0:0:
484,280,62117,1,0,0:0:0:0:
364,344,62275,2,0,L|284:296,1,83.9999974365235
336,172,62591,1,0,0:0:0:0:
248,72,62749,1,0,0:0:0:0:
188,192,62907,2,0,L|104:252,1,83.9999974365235
324,228,63222,6,0,L|420:228,1,83.9999974365235
200,112,63538,2,0,L|108:112,1,83.9999974365235
208,248,63854,2,0,L|148:328,1,83.9999974365235
304,136,64170,2,0,L|354:68,1,83.9999974365235
292,224,64486,2,0,P|240:196|216:160,1,83.9999974365235
328,308,64801,2,0,P|360:280|376:236,1,83.9999974365235
312,84,65117,2,0,L|216:84,1,83.9999974365235
124,216,65433,5,0,0:0:0:0:
124,216,65591,2,0,P|212:196|296:216,1,167.999994873047
188,120,66065,2,0,P|144:76|124:40,1,83.9999974365235
324,264,66380,2,0,P|355:291|379:326,1,83.9999974365235
384,192,66696,6,0,L|296:192,1,83.9999974365235
116,152,67012,2,0,L|200:152,1,83.9999974365235
320,56,67328,2,0,L|264:132,1,83.9999974365235
192,296,67643,2,0,L|232:220,1,83.9999974365235
344,296,67959,5,0,0:0:0:0:
344,296,68117,2,0,P|392:228|480:216,1,167.999994873047
352,148,68591,2,0,L|304:72,1,83.9999974365235
192,148,68907,2,0,L|92:148,1,83.9999974365235
252,224,69222,2,0,L|340:224,1,83.9999974365235
220,296,69538,2,0,P|180:252|176:216,1,83.9999974365235
276,140,69854,2,0,L|331:76,1,83.9999974365235
196,96,70170,2,0,L|112:96,1,83.9999974365235
188,208,70486,5,0,0:0:0:0:
192,208,70643,2,0,P|280:236|320:316,1,167.999994873047
308,164,71117,2,0,L|356:88,1,83.9999974365235
216,304,71433,2,0,L|168:376,1,83.9999974365235
136,244,71749,2,0,P|108:184|88:164,1,83.9999974365235
176,132,72065,6,0,L|228:68,2,74.6666666666667
288,168,72696,2,0,L|340:240,2,74.6666666666667
440,72,73328,6,0,L|476:16,2,41.9999987182618
312,32,73643,2,0,L|208:32,1,83.9999974365235
172,156,73959,2,0,L|152:212,2,41.9999987182618
68,72,74275,2,0,L|0:4,1,83.9999974365235
28,148,74591,2,0,L|28:208,2,41.9999987182618
104,260,74907,2,0,L|156:352,1,83.9999974365235
228,224,75222,2,0,P|236:172|228:124,1,83.9999974365235
324,240,75538,6,0,L|384:328,1,83.9999974365235
440,192,75854,2,0,L|488:108,1,83.9999974365235
348,116,76170,2,0,L|312:32,1,83.9999974365235
284,172,76486,2,0,P|328:196|368:196,1,83.9999974365235
280,308,76801,6,0,L|252:360,2,41.9999987182618
176,220,77117,2,0,P|136:152|48:124,1,167.999994873047
176,64,77591,1,0,0:0:0:0:
264,164,77749,2,0,L|368:164,1,83.9999974365235
192,300,78065,2,0,L|104:300,1,83.9999974365235
180,112,78380,6,0,L|152:72,6,41.9999987182618
300,172,79012,2,0,P|308:124|300:88,1,83.9999974365235
380,200,79328,2,0,L|440:276,1,83.9999974365235
312,324,79643,2,0,L|260:324,6,41.9999987182618
244,208,80275,2,0,L|204:128,1,83.9999974365235
340,120,80591,2,0,P|380:92|404:52,1,83.9999974365235
432,196,80907,6,0,L|468:252,6,41.9999987182618
304,236,81538,2,0,P|280:184|248:164,1,83.9999974365235
176,272,81854,2,0,L|112:336,1,83.9999974365235
144,140,82170,2,0,P|152:88|144:48,1,83.9999974365235
268,120,82486,2,0,L|344:164,1,83.9999974365235
272,280,82801,2,0,L|236:328,6,41.9999987182618
256,192,83433,12,4,88328,0:0:0:0:
