osu file format v14

[General]
AudioFilename: audio.mp3
AudioLeadIn: 0
PreviewTime: 52696
Countdown: 1
SampleSet: Soft
StackLeniency: 0.7
Mode: 0
LetterboxInBreaks: 0
WidescreenStoryboard: 1

[Editor]
Bookmarks: 43011,48064
DistanceSpacing: 1.3
BeatDivisor: 4
GridSize: 4
TimelineZoom: 2

[Metadata]
Title:99 (TV Size)
TitleUnicode:99 (TV Size)
Artist:MOB CHOIR
ArtistUnicode:MOB CHOIR
Creator:Trost
Version:40% (old)
Source:Mob Psycho 100
Tags:mob psycho 100 opening 99 mob choir op
BeatmapID:1054895
BeatmapSetID:494641

[Difficulty]
HPDrainRate:5
CircleSize:3
OverallDifficulty:6
ApproachRate:7
SliderMultiplier:1.2
SliderTickRate:1

[Events]
//Background and Video events
Video,-394,"daddy.mp4"
0,0,"Mob 2.png",0,0
//Break Periods
//Storyboard Layer 0 (Background)
//Storyboard Layer 1 (Fail)
//Storyboard Layer 2 (Pass)
//Storyboard Layer 3 (Foreground)
//Storyboard Layer 4 (Overlay)
//Storyboard Sound Samples

[TimingPoints]
65,315.789473684211,4,2,1,60,1,0
65,-181.818181818182,4,2,1,60,0,0
2591,-200,4,2,1,30,0,0
11275,-100,4,2,1,50,0,0
53117,-90.9090909090909,4,2,1,75,0,1
72065,-125,4,2,1,60,0,0
78380,-90.9090909090909,4,2,1,75,0,0
80906,-117.647058823529,4,2,1,75,0,0

[HitObjects]
72,188,65,6,0,P|128:136|148:68,1,132.00000402832
228,192,1328,2,0,L|356:272,1,132.00000402832
356,148,2591,6,0,P|384:108|464:84,2,120
256,212,4486,1,0,0:0:0:0:
155,147,5117,6,0,P|119:101|63:83,2,120
104,256,7012,1,0,0:0:0:0:
224,256,7643,6,0,B|300:256|300:256|348:276,1,120
396,168,8907,2,0,P|408:100|396:40,1,120
292,112,10170,6,0,P|256:128|208:0,1,210,0|4,0:0|0:0,0:0:0:0:
232,260,12696,6,0,L|356:260,1,120
428,168,13328,2,0,P|376:160|328:100,1,120
172,292,13959,2,0,L|40:292,1,120
244,148,14591,2,0,L|368:148,1,120
132,216,15222,2,0,P|122:149|132:84,1,120
224,264,15854,2,0,P|176:312|120:324,1,120
316,296,16486,1,0,0:0:0:0:
388,200,16801,1,0,0:0:0:0:
284,140,17117,1,0,0:0:0:0:
164,140,17433,1,0,0:0:0:0:
264,52,17749,6,0,L|324:52,1,60
452,72,18380,2,0,L|452:148,1,60
372,228,19012,2,0,L|328:296,1,60
256,184,19643,2,0,L|208:120,1,60
348,132,20275,2,0,L|348:64,1,60
236,132,20907,2,0,L|236:200,1,60
132,124,21538,1,0,0:0:0:0:
92,196,21854,1,0,0:0:0:0:
112,276,22170,1,0,0:0:0:0:
188,312,22486,1,0,0:0:0:0:
240,248,22801,6,0,P|280:188|328:172,1,120
384,116,23433,2,0,L|476:24,1,120
304,68,24065,2,0,L|176:68,1,120
72,196,24696,2,0,P|80:256|72:328,1,120
204,208,25328,2,0,L|336:208,1,120
464,300,25959,6,0,P|440:184|464:56,1,240
296,96,26907,2,0,L|176:96,1,120
104,312,27538,6,0,P|76:252|24:228,1,120
192,276,28170,2,0,L|316:276,1,120
176,176,28801,2,0,P|140:112|140:52,1,120
96,228,29433,2,0,L|24:336,1,120
196,304,30065,2,0,P|260:292|320:304,1,120
480,336,30696,6,0,B|456:256|480:176|480:176|444:212|392:212,1,240
412,128,31643,1,0,0:0:0:0:
344,80,31959,2,0,B|288:116|288:116|216:116,1,120
152,264,32591,6,0,B|152:188|152:188|112:132,1,120
280,224,33222,2,0,P|336:252|364:304,1,120
420,144,33854,2,0,P|440:80|480:32,1,120
328,128,34486,2,0,L|200:128,1,120
352,212,35117,2,0,P|392:264|472:296,1,120
280,340,35749,5,0,0:0:0:0:
160,220,36065,2,0,P|116:164|120:88,1,120
96,284,36696,2,0,L|-8:364,2,120
204,136,37643,6,0,B|280:136|280:136|324:100,1,120
384,260,38275,2,0,L|508:260,1,120
412,120,38907,1,0,0:0:0:0:
244,120,39222,1,0,0:0:0:0:
136,248,39538,2,0,P|144:176|136:120,1,120
244,260,40170,2,0,L|332:348,1,120
476,260,40801,6,0,B|452:184|476:132|476:132|420:132|388:64,1,240
248,160,41749,2,0,P|184:148|116:160,1,120
260,264,42380,2,0,B|332:256|352:176|352:176|428:160|441:82,1,240
264,92,43328,6,0,L|152:12,1,120
252,168,43959,2,0,L|349:237,1,120
440,160,44591,5,0,0:0:0:0:
380,56,44907,1,0,0:0:0:0:
260,56,45222,1,0,0:0:0:0:
204,164,45538,6,0,P|152:96|84:88,1,120
140,228,46170,2,0,P|200:252|256:232,1,120
392,268,46801,6,0,L|496:332,2,120
332,136,47749,2,0,L|304:68,1,60
240,132,48065,2,0,L|116:176,1,120
20,304,48696,6,0,B|64:344|104:344|104:344|152:344,1,120
248,224,49328,2,0,P|264:152|328:112,2,120
108,128,50275,2,0,B|68:92|68:92|52:28,1,120
88,216,50907,6,0,P|148:204|188:160,1,120
356,164,51538,2,0,L|476:164,2,120
240,80,52486,1,0,0:0:0:0:
80,80,53117,6,0,P|88:144|80:224,1,132.00000402832
184,272,53749,2,0,L|256:312,2,66.0000020141602
276,196,54380,2,0,P|332:148|412:148,1,132.00000402832
296,68,55012,2,0,L|248:8,2,66.0000020141602
224,116,55486,2,0,L|80:116,1,132.00000402832
140,240,55959,6,0,P|196:288|208:348,1,132.00000402832
264,228,56433,2,0,L|310:181,1,66.0000020141602
196,116,56907,6,0,P|128:80|104:28,1,132.00000402832
184,200,57538,2,0,P|256:176|280:124,1,132.00000402832
316,256,58012,2,0,L|428:336,1,132.00000402832
423,332,58486,1,0,0:0:0:0:
408,200,58801,6,0,L|408:56,1,132.00000402832
304,148,59433,2,0,P|252:168|224:168,2,66.0000020141602
244,84,60065,2,0,B|188:56|188:56|132:-12,1,132.00000402832
132,60,60538,2,0,P|106:118|56:180,1,132.00000402832
0,248,61012,2,0,P|55:258|110:311,2,132.00000402832
216,284,61959,6,0,B|280:312|348:280|348:280|424:312|475:287,1,264.000008056641
420,200,62907,1,0,0:0:0:0:
324,156,63222,6,0,P|312:84|324:24,1,132.00000402832
188,156,63854,2,0,P|200:91|189:26,1,132.00000402832
200,252,64486,6,0,L|140:372,1,132.00000402832
312,252,65117,2,0,L|371:370,1,132.00000402832
132,260,66065,6,0,P|144:184|132:128,1,132.00000402832
260,172,66696,2,0,P|316:120|368:100,1,132.00000402832
456,196,67328,2,0,L|480:264,2,66.0000020141602
344,268,68117,6,0,P|244:252|144:268,1,198.000006042481
204,148,68907,5,0,0:0:0:0:
336,148,69222,1,0,0:0:0:0:
252,44,69538,1,0,0:0:0:0:
120,44,69854,1,0,0:0:0:0:
120,176,70170,1,0,0:0:0:0:
36,280,70486,1,0,0:0:0:0:
36,280,70643,6,0,B|116:332|188:284|188:284|244:284,1,198.000006042481
308,220,71433,2,0,L|384:112,1,132.00000402832
268,104,72065,6,0,P|224:84|196:48,2,64
180,168,72696,2,0,L|120:236,2,64
236,248,73328,6,0,P|284:288|300:332,1,96
376,196,73959,2,0,P|412:136|468:96,1,96
288,120,74591,2,0,L|184:120,1,96
128,248,75222,2,0,P|136:296|128:348,1,96
100,164,75854,2,0,L|60:76,1,96
196,200,76486,2,0,P|244:220|304:216,1,96
360,284,77117,2,0,L|424:364,1,96
460,232,77749,2,0,P|452:176|460:136,1,96
328,144,78380,6,0,L|280:72,2,66.0000020141602
228,228,79012,2,0,P|176:280|156:352,1,132.00000402832
116,208,79643,2,0,L|84:132,2,66.0000020141602
224,128,80275,2,0,L|364:128,1,132.00000402832
456,216,80907,2,0,P|376:224|296:320,2,204.000003890991
292,152,82486,2,0,P|224:112|204:52,2,102.000001945496
256,192,83433,12,4,88328,0:0:0:0:
