osu file format v14

[General]
AudioFilename: audio.mp3
AudioLeadIn: 0
PreviewTime: 52696
Countdown: 1
SampleSet: Soft
StackLeniency: 0.7
Mode: 0
LetterboxInBreaks: 0
WidescreenStoryboard: 1

[Editor]
DistanceSpacing: 0.8
BeatDivisor: 4
GridSize: 4
TimelineZoom: 2

[Metadata]
Title:99 (TV Size)
TitleUnicode:99 (TV Size)
Artist:MOB CHOIR
ArtistUnicode:MOB CHOIR
Creator:Trost
Version:20% (old)
Source:Mob Psycho 100
Tags:mob psycho 100 opening 99 mob choir op
BeatmapID:1055012
BeatmapSetID:494641

[Difficulty]
HPDrainRate:5
CircleSize:2.6
OverallDifficulty:4
ApproachRate:6
SliderMultiplier:1
SliderTickRate:1

[Events]
//Background and Video events
Video,-394,"daddy.mp4"
0,0,"Mob 1.png",0,0
//Break Periods
//Storyboard Layer 0 (Background)
//Storyboard Layer 1 (Fail)
//Storyboard Layer 2 (Pass)
//Storyboard Layer 3 (Foreground)
//Storyboard Layer 4 (Overlay)
//Storyboard Sound Samples

[TimingPoints]
65,315.789473684211,4,2,1,60,1,0
65,-166.666666666667,4,2,1,60,0,0
2591,-200,4,2,1,30,0,0
11275,-100,4,2,1,50,0,0
53117,-95.2380952380952,4,2,1,75,0,1
72065,-125,4,2,1,60,0,0

[HitObjects]
108,144,65,6,0,L|236:144,1,119.999996337891
280,224,1328,2,0,P|320:164|308:84,2,119.999996337891
188,272,3222,6,0,B|80:272|80:272|4:336,1,200
24,196,5117,6,0,P|52:100|24:-8,1,200
144,64,7012,1,0,0:0:0:0:
224,200,7643,6,0,B|280:144|280:144|408:144,2,200
140,336,10801,2,0,L|84:280,1,75,0|4,0:0|0:0,0:0:0:0:
240,172,12696,6,8,L|452:172,1,200
272,280,13959,6,8,L|72:280,1,200
140,180,15222,2,8,P|180:92|140:-8,1,200
296,132,16486,2,8,B|384:192|384:192|488:192,1,200
292,268,17749,6,8,L|220:268,1,50
148,192,18380,2,8,L|88:192,1,50
248,108,19012,2,8,L|248:44,1,50
344,172,19643,2,8,L|344:108,1,50
264,248,20275,2,8,L|192:248,1,50
136,156,20907,2,8,L|60:156,1,50
152,256,21538,6,8,P|220:212|208:84,2,200
288,292,23433,2,8,B|356:336|356:336|480:336,1,200
432,200,24696,2,8,P|408:92|324:64,1,200
336,164,25959,6,0,P|240:236|152:224,1,200,2|0,0:0|0:0,0:0:0:0:
220,124,26907,2,0,L|116:36,1,100,2|0,0:0|0:0,0:0:0:0:
152,300,27854,6,8,P|256:288|360:300,1,200
456,244,29117,2,8,P|404:148|432:68,1,200
500,152,30380,2,8,L|300:220,1,200
272,328,31643,2,8,P|216:276|216:148,2,200
424,232,33538,6,8,B|488:156|488:156|488:56,1,200
364,124,34801,2,8,L|152:124,1,200
144,224,35749,2,0,L|48:324,1,100,2|0,0:0|0:0,0:0:0:0:
56,144,36696,2,8,P|80:56|204:20,1,200
252,104,37959,6,8,L|468:104,1,200
328,204,39222,2,8,L|128:204,1,200
156,300,40170,2,0,L|236:376,1,100,2|0,0:0|0:0,0:0:0:0:
384,244,41117,6,8,B|328:92|328:92|312:116|296:128,1,200
236,196,42380,1,8,0:0:0:0:
144,156,43012,5,2,0:0:0:0:
112,252,43643,2,0,B|160:308|160:308|296:308,1,200,2|2,0:0|0:0,0:0:0:0:
376,268,44907,6,0,B|340:160|340:160|376:56,1,200,2|2,0:0|0:0,0:0:0:0:
252,108,46170,2,0,L|48:108,1,200,2|2,0:0|0:0,0:0:0:0:
88,200,47117,2,0,L|140:296,2,100,2|8|8,0:0|0:0|0:0,0:0:0:0:
220,196,48065,6,8,P|304:128|320:24,1,200
384,188,49328,2,8,P|428:284|516:308,1,200
312,296,50591,6,8,L|100:296,1,200
160,184,51538,1,8,0:0:0:0:
40,200,51854,2,8,P|52:128|84:92,2,100
292,200,53117,6,0,P|392:244|400:340,1,209.999993591309
484,140,54380,2,0,B|424:100|424:100|280:100,1,209.999993591309
200,136,55486,2,0,P|216:236|208:316,1,157.499995193482
328,292,56275,2,0,L|396:212,1,104.999996795654
296,156,56907,6,0,L|260:100,2,52.4999983978272
196,216,57538,2,0,B|144:124|144:124|48:64,1,209.999993591309
64,204,58486,2,0,L|64:332,1,104.999996795654
196,264,59117,2,0,P|308:252|416:264,1,209.999993591309
348,136,60065,1,0,0:0:0:0:
256,192,60696,12,0,62591,0:0:0:0:
220,104,63222,6,0,L|88:104,1,104.999996795654
212,200,63854,2,0,L|332:200,1,104.999996795654
220,296,64486,2,0,L|112:296,1,104.999996795654
48,216,65117,1,0,0:0:0:0:
184,140,65591,6,0,P|196:76|112:24,1,157.499995193482
312,140,66380,2,0,L|432:140,1,104.999996795654
332,232,67012,2,0,L|224:232,1,104.999996795654
312,324,67643,2,0,L|420:324,1,104.999996795654
468,240,68117,6,0,P|448:136|464:40,1,157.499995193482
336,128,68907,2,0,L|212:128,1,104.999996795654
240,264,69538,2,0,P|184:304|160:356,2,104.999996795654
140,160,70486,6,0,B|224:120|232:44|232:44|292:100|384:72,1,314.999990386963
284,196,71749,1,0,0:0:0:0:
396,236,72065,6,0,L|468:236,2,53.3333333333333
332,316,72696,2,0,L|278:316,2,53.3333333333333
424,340,73328,6,0,P|436:252|424:164,1,160
312,72,74591,2,0,L|144:72,1,160
40,188,75854,2,0,L|208:188,1,160
216,300,77117,6,0,P|276:272|312:184,1,160
416,116,78380,2,0,L|492:60,2,80
288,92,79643,2,0,L|200:92,2,80
332,236,80907,6,0,B|384:192|384:192|384:96,1,160
180,236,82170,6,0,B|128:192|128:192|128:96,1,160
256,192,83433,12,4,88328,0:0:0:0:
