osu file format v14

[General]
AudioFilename: audio.mp3
AudioLeadIn: 0
PreviewTime: 52696
Countdown: 1
SampleSet: None
StackLeniency: 0.7
Mode: 0
LetterboxInBreaks: 0
WidescreenStoryboard: 1

[Editor]
Bookmarks: 43327,63222,66064,68590,71117,73327,78380,80906,83432
DistanceSpacing: 1.6
BeatDivisor: 4
GridSize: 4
TimelineZoom: 2

[Metadata]
Title:99 (TV Size)
TitleUnicode:99 (TV Size)
Artist:MOB CHOIR
ArtistUnicode:MOB CHOIR
Creator:Trost
Version:100% (old)
Source:Mob Psycho 100
Tags:mob psycho 100 opening 99 mob choir op
BeatmapID:1053935
BeatmapSetID:494641

[Difficulty]
HPDrainRate:6
CircleSize:4
OverallDifficulty:8.4
ApproachRate:9.3
SliderMultiplier:1.9
SliderTickRate:1

[Events]
//Background and Video events
Video,-429,"Daddy.wmv"
0,0,"Mob 5.png",0,0
//Break Periods
//Storyboard Layer 0 (Background)
//Storyboard Layer 1 (Fail)
//Storyboard Layer 2 (Pass)
//Storyboard Layer 3 (Foreground)
//Storyboard Layer 4 (Overlay)
//Storyboard Sound Samples

[TimingPoints]
65,315.789473684211,4,1,0,80,1,0
65,-163.934426229508,4,1,0,60,0,0
2591,-200,4,1,0,20,0,0
11275,-100,4,1,0,80,0,0
17748,-90.9090909090909,4,1,0,100,0,0
22801,-100,4,1,0,80,0,0
43011,-100,4,1,0,40,0,0
47432,-100,4,1,0,50,0,0
48064,-100,4,1,0,80,0,0
53117,-83.3333333333333,4,1,0,100,0,1
55485,-100,4,1,0,100,0,1
55801,-83.3333333333333,4,1,0,100,0,1
72065,-125,4,1,0,80,0,0
73327,-83.3333333333333,4,1,0,100,0,0

[HitObjects]
432,144,65,6,0,L|380:144,7,28.9749988062668
240,220,696,2,0,L|212:220,7,28.9749988062668
420,328,1328,2,0,L|400:296,6,28.9749988062668
256,192,1959,1,0,0:0:0:0:
416,252,2591,6,0,P|376:200|420:88,1,190,2|0,0:0|0:0,0:0:0:0:
256,160,3854,2,0,B|212:212|212:212|80:212,1,190,2|0,0:0|0:0,0:0:0:0:
208,88,5117,2,0,P|300:88|336:184,2,190,2|0|2,0:0|0:0|0:0,0:0:0:0:
40,52,7012,1,2,0:0:0:0:
64,216,7643,6,0,B|168:212|184:84,1,190,2|0,0:0|0:0,0:0:0:0:
448,216,8907,6,0,B|344:212|328:84,1,190,2|0,0:0|0:0,0:0:0:0:
144,292,10170,6,0,P|88:304|112:132,1,332.5,2|6,0:0|0:0,0:0:0:0:
420,256,12696,5,8,0:0:0:0:
420,256,12854,1,0,0:0:0:0:
420,256,13012,2,0,P|404:192|444:64,1,190,8|0,0:0|0:0,0:0:0:0:
316,132,13486,2,0,P|216:144|116:132,1,190
188,256,13959,2,0,L|232:344,1,95
116,276,14275,2,0,L|73:191,1,95
180,112,14591,1,0,0:0:0:0:
64,48,14749,1,0,0:0:0:0:
196,40,14907,1,0,0:0:0:0:
196,40,15065,5,0,0:0:0:0:
196,40,15143,1,0,0:0:0:0:
196,40,15222,2,0,B|256:56|256:56|312:40,1,95,8|0,0:0|0:0,0:0:0:0:
364,156,15538,2,0,B|408:204|408:204|440:264|408:348,1,190,8|0,0:0|0:0,0:0:0:0:
180,268,16012,6,0,L|72:268,1,95
232,176,16328,2,0,L|348:176,1,95
124,124,16643,2,0,L|48:48,1,95
220,108,16959,1,0,0:0:0:0:
220,108,17038,1,0,0:0:0:0:
220,108,17117,1,8,0:0:0:0:
440,220,17275,1,0,0:0:0:0:
296,336,17433,1,8,0:0:0:0:
324,212,17591,1,0,0:0:0:0:
200,92,17749,6,0,L|96:92,1,104.500003189087,8|0,0:0|0:0,0:0:0:0:
312,292,18380,6,0,L|416:292,1,104.500003189087,8|0,0:0|0:0,0:0:0:0:
160,284,19012,5,8,0:0:0:0:
352,100,19170,1,0,0:0:0:0:
352,100,19643,5,8,0:0:0:0:
160,284,19801,1,0,0:0:0:0:
416,292,20275,6,0,L|312:292,1,104.500003189087,8|0,0:0|0:0,0:0:0:0:
96,92,20907,6,0,L|200:92,1,104.500003189087,8|0,0:0|0:0,0:0:0:0:
80,264,21380,5,0,0:0:0:0:
80,264,21459,1,0,0:0:0:0:
80,264,21538,2,0,P|76:204|56:152,1,104.500003189087,8|0,0:0|0:0,0:0:0:0:
180,96,21854,2,0,L|264:32,1,104.500003189087,8|0,0:0|0:0,0:0:0:0:
232,168,22170,2,0,L|312:236,1,104.500003189087,8|0,0:0|0:0,0:0:0:0:
311,235,22408,1,0,0:0:0:0:
311,235,22487,1,0,0:0:0:0:
311,235,22565,1,0,0:0:0:0:
324,248,22643,1,0,0:0:0:0:
236,80,22801,6,0,L|136:80,1,95,8|0,0:0|0:0,0:0:0:0:
56,196,23117,1,0,0:0:0:0:
56,196,23196,1,0,0:0:0:0:
56,196,23275,1,0,0:0:0:0:
172,280,23433,2,0,L|272:280,1,95,8|0,0:0|0:0,0:0:0:0:
192,160,23749,5,0,0:0:0:0:
192,160,23828,1,0,0:0:0:0:
192,160,23907,1,0,0:0:0:0:
328,112,24065,2,0,P|372:84|400:32,1,95,8|0,0:0|0:0,0:0:0:0:
424,188,24380,2,0,L|452:232,2,47.5
304,268,24696,2,0,L|208:268,1,95,8|0,0:0|0:0,0:0:0:0:
124,208,25012,5,0,0:0:0:0:
135,176,25091,1,0,0:0:0:0:
139,143,25170,1,0,0:0:0:0:
138,110,25249,1,0,0:0:0:0:
130,78,25328,1,0,0:0:0:0:
248,176,25486,5,0,0:0:0:0:
404,40,25643,1,8,0:0:0:0:
408,192,25801,1,0,0:0:0:0:
308,296,25959,1,8,0:0:0:0:
308,104,26117,1,0,0:0:0:0:
180,184,26275,6,0,P|128:144|112:104,1,95,8|0,0:0|0:0,0:0:0:0:
248,328,26591,1,0,0:0:0:0:
248,328,26670,1,0,0:0:0:0:
248,328,26749,1,0,0:0:0:0:
292,140,26907,2,0,L|292:40,2,95
188,260,27380,1,0,0:0:0:0:
96,132,27538,6,0,L|40:132,2,47.5
272,56,27854,2,0,P|324:48|380:56,1,95,8|0,0:0|0:0,0:0:0:0:
296,176,28170,1,0,0:0:0:0:
296,176,28249,1,0,0:0:0:0:
296,176,28328,1,0,0:0:0:0:
176,100,28486,6,0,L|76:100,1,95,8|0,0:0|0:0,0:0:0:0:
172,212,28801,2,0,L|232:236,2,47.5
64,308,29117,6,0,P|36:248|36:212,1,95,8|0,0:0|0:0,0:0:0:0:
136,120,29433,1,0,0:0:0:0:
136,120,29512,1,0,0:0:0:0:
136,120,29591,1,0,0:0:0:0:
252,200,29749,2,0,B|300:188|352:200,1,95,8|0,0:0|0:0,0:0:0:0:
392,96,30065,2,0,L|468:20,1,95,8|0,0:0|0:0,0:0:0:0:
268,88,30380,6,0,L|168:88,1,95,8|0,0:0|0:0,0:0:0:0:
60,232,30696,1,8,0:0:0:0:
132,40,30854,1,8,0:0:0:0:
240,232,31012,1,0,0:0:0:0:
139,191,31170,1,0,0:0:0:0:
139,191,31249,1,0,0:0:0:0:
139,191,31328,1,0,0:0:0:0:
242,79,31486,1,0,0:0:0:0:
96,296,31643,6,0,P|48:264|28:231,1,95,8|0,0:0|0:0,0:0:0:0:
164,160,31959,6,0,P|215:134|254:133,1,95,8|0,0:0|0:0,0:0:0:0:
352,188,32275,2,0,L|456:188,1,95,8|0,0:0|0:0,0:0:0:0:
447,188,32512,1,0,0:0:0:0:
438,160,32591,1,8,0:0:0:0:
430,133,32670,1,0,0:0:0:0:
422,106,32749,1,0,0:0:0:0:
280,52,32907,6,0,P|272:96|280:152,1,95,8|0,0:0|0:0,0:0:0:0:
164,248,33222,2,0,L|154:300,2,47.5
92,116,33538,2,0,P|64:64|36:36,1,95,8|0,0:0|0:0,0:0:0:0:
220,100,33854,6,0,L|272:100,2,47.5
140,252,34170,2,0,B|104:288|104:288|60:304,1,95,8|0,0:0|0:0,0:0:0:0:
228,256,34486,2,0,L|276:256,2,47.5
352,100,34801,2,0,L|352:0,1,95,8|0,0:0|0:0,0:0:0:0:
240,96,35117,1,0,0:0:0:0:
240,96,35275,1,0,0:0:0:0:
132,264,35433,5,8,0:0:0:0:
364,212,35591,1,0,0:0:0:0:
148,108,35749,1,8,0:0:0:0:
256,320,35907,1,0,0:0:0:0:
256,167,36065,1,8,0:0:0:0:
400,220,36222,1,0,0:0:0:0:
400,220,36301,1,0,0:0:0:0:
400,220,36380,1,0,0:0:0:0:
352,68,36538,6,0,B|308:112|308:112|164:112,1,190
84,240,37012,2,0,L|16:320,1,95,8|0,0:0|0:0,0:0:0:0:
180,272,37328,2,0,B|224:224|224:224|356:224,1,190
364,216,37722,1,0,0:0:0:0:
380,204,37801,1,0,0:0:0:0:
272,112,37959,6,0,L|196:48,1,95,8|0,0:0|0:0,0:0:0:0:
416,60,38275,1,0,0:0:0:0:
416,60,38354,1,0,0:0:0:0:
416,60,38433,1,0,0:0:0:0:
352,220,38591,2,0,P|344:268|352:320,1,95,8|0,0:0|0:0,0:0:0:0:
268,160,38907,6,0,L|236:116,2,47.5
176,308,39222,2,0,L|72:308,1,95,8|0,0:0|0:0,0:0:0:0:
12,160,39538,1,0,0:0:0:0:
12,160,39617,1,0,0:0:0:0:
12,160,39696,1,0,0:0:0:0:
192,96,39854,2,0,P|232:60|244:16,1,95,8|0,0:0|0:0,0:0:0:0:
180,200,40170,6,8,P|128:180|96:52,1,190,0|0,0:0|0:0,0:0:0:0:
52,296,40643,5,0,0:0:0:0:
248,260,40801,2,0,L|360:260,1,95,8|0,0:0|0:0,0:0:0:0:
260,76,41117,1,0,0:0:0:0:
260,76,41275,2,0,L|156:76,1,95
392,180,41591,1,0,0:0:0:0:
392,180,41670,1,0,0:0:0:0:
392,180,41749,2,0,P|400:128|392:76,1,95,8|0,0:0|0:0,0:0:0:0:
296,236,42222,5,0,0:0:0:0:
296,236,42380,2,8,P|200:264|104:236,1,190
114,242,42775,1,0,0:0:0:0:
106,215,42853,1,0,0:0:0:0:
103,187,42932,1,0,0:0:0:0:
105,158,43011,1,0,0:0:0:0:
304,48,43170,5,0,0:0:0:0:
360,160,43328,2,0,L|464:160,1,95
312,256,43643,2,0,L|208:256,1,95
108,352,43959,2,0,P|80:260|108:164,1,190
52,40,44433,1,0,0:0:0:0:
83,51,44512,1,0,0:0:0:0:
116,55,44591,1,0,0:0:0:0:
149,53,44670,1,0,0:0:0:0:
181,44,44749,1,0,0:0:0:0:
292,176,44907,6,0,L|360:264,1,95
180,224,45222,2,0,L|84:224,1,95
184,40,45538,1,0,0:0:0:0:
200,68,45617,1,0,0:0:0:0:
226,89,45696,1,0,0:0:0:0:
257,99,45775,1,0,0:0:0:0:
290,97,45854,1,0,0:0:0:0:
460,40,46012,5,0,0:0:0:0:
460,40,46170,2,0,P|452:92|460:136,1,95
388,300,46486,1,0,0:0:0:0:
388,300,46643,2,0,P|288:284|184:300,1,190
112,196,47117,5,8,0:0:0:0:
112,196,47275,1,0,0:0:0:0:
304,92,47433,2,0,L|416:92,1,95,8|0,0:0|0:0,0:0:0:0:
207,196,47749,2,0,L|95:196,1,95,8|0,0:0|0:0,0:0:0:0:
332,312,48065,5,8,0:0:0:0:
428,268,48222,1,0,0:0:0:0:
328,232,48380,1,8,0:0:0:0:
444,188,48538,1,0,0:0:0:0:
344,116,48696,2,0,P|292:106|240:116,1,95,8|0,0:0|0:0,0:0:0:0:
164,200,49012,2,0,P|136:156|132:108,1,95,8|0,0:0|0:0,0:0:0:0:
80,288,49328,5,0,0:0:0:0:
80,288,49486,1,0,0:0:0:0:
188,348,49643,1,8,0:0:0:0:
220,248,49801,1,0,0:0:0:0:
268,344,49959,1,8,0:0:0:0:
304,228,50117,1,0,0:0:0:0:
408,296,50275,2,0,L|508:296,1,95,8|0,0:0|0:0,0:0:0:0:
460,180,50591,5,8,0:0:0:0:
372,92,50749,1,0,0:0:0:0:
384,216,50907,1,8,0:0:0:0:
288,112,51065,1,0,0:0:0:0:
296,256,51222,2,0,L|180:256,1,95,8|0,0:0|0:0,0:0:0:0:
104,148,51538,2,0,P|92:96|104:48,1,95,8|0,0:0|0:0,0:0:0:0:
212,220,51854,5,8,0:0:0:0:
252,195,51933,1,0,0:0:0:0:
279,157,52012,1,0,0:0:0:0:
288,110,52091,1,0,0:0:0:0:
316,132,52170,1,8,0:0:0:0:
342,152,52249,1,0,0:0:0:0:
372,165,52328,1,0,0:0:0:0:
405,170,52407,1,0,0:0:0:0:
438,166,52486,1,8,0:0:0:0:
196,296,53117,6,0,P|160:240|160:176,1,113.999996520996,8|0,0:0|0:0,0:0:0:0:
276,104,53433,1,0,0:0:0:0:
160,52,53591,1,0,0:0:0:0:
276,208,53749,2,0,L|392:208,1,113.999996520996,8|0,0:0|0:0,0:0:0:0:
488,76,54065,1,0,0:0:0:0:
488,76,54222,1,0,0:0:0:0:
304,124,54380,6,0,L|188:124,1,113.999996520996,8|0,0:0|0:0,0:0:0:0:
80,256,54696,1,8,0:0:0:0:
244,216,54854,1,0,0:0:0:0:
128,340,55012,1,8,0:0:0:0:
312,272,55170,2,0,L|436:272,1,113.999996520996
424,180,55486,2,8,P|368:96|424:44,1,190,8|0,0:0|0:0,0:0:0:0:
268,184,55959,6,0,P|240:244|248:304,1,113.999996520996,8|0,0:0|0:0,0:0:0:0:
164,100,56275,1,0,0:0:0:0:
164,100,56433,1,0,0:0:0:0:
360,44,56591,2,0,L|488:44,1,113.999996520996,8|0,0:0|0:0,0:0:0:0:
356,168,56907,5,8,0:0:0:0:
464,208,57065,1,0,0:0:0:0:
356,248,57222,1,8,0:0:0:0:
452,308,57380,1,0,0:0:0:0:
268,308,57538,1,0,0:0:0:0:
268,308,57696,1,0,0:0:0:0:
112,216,57854,5,8,0:0:0:0:
112,216,58012,2,0,P|192:176|204:44,1,227.999993041992,8|0,0:0|0:0,0:0:0:0:
364,144,58486,1,8,0:0:0:0:
364,144,58643,2,0,B|364:252|364:252|460:348,1,227.999993041992,8|0,0:0|0:0,0:0:0:0:
300,336,59117,5,8,0:0:0:0:
236,204,59275,1,0,0:0:0:0:
111,290,59433,2,0,P|116:224|100:168,1,113.999996520996,8|0,0:0|0:0,0:0:0:0:
276,200,59749,2,0,L|372:132,1,113.999996520996,8|0,0:0|0:0,0:0:0:0:
172,116,60065,5,8,0:0:0:0:
138,94,60143,1,0,0:0:0:0:
99,87,60222,1,0,0:0:0:0:
61,97,60301,1,0,0:0:0:0:
29,120,60380,1,8,0:0:0:0:
144,232,60538,6,0,P|220:224|288:80,1,227.999993041992,8|0,0:0|0:0,0:0:0:0:
404,160,61012,2,0,L|520:200,1,113.999996520996,8|0,0:0|0:0,0:0:0:0:
408,268,61328,2,0,L|300:305,1,113.999996520996,8|0,0:0|0:0,0:0:0:0:
204,224,61643,2,0,L|80:224,1,113.999996520996,8|0,0:0|0:0,0:0:0:0:
72,124,61959,5,8,0:0:0:0:
105,116,62038,1,0,0:0:0:0:
132,96,62117,1,0,0:0:0:0:
148,66,62196,1,0,0:0:0:0:
152,96,62275,1,8,0:0:0:0:
160,134,62354,1,0,0:0:0:0:
181,168,62433,1,0,0:0:0:0:
211,194,62512,1,0,0:0:0:0:
248,209,62591,1,8,0:0:0:0:
348,84,62749,5,0,0:0:0:0:
464,192,62907,2,0,L|464:316,1,113.999996520996,8|0,0:0|0:0,0:0:0:0:
372,172,63222,5,8,0:0:0:0:
352,296,63380,1,0,0:0:0:0:
308,120,63538,5,8,0:0:0:0:
276,300,63696,1,0,0:0:0:0:
240,64,63854,5,8,0:0:0:0:
196,300,64012,1,0,0:0:0:0:
144,172,64170,2,0,L|24:172,1,113.999996520996,8|0,0:0|0:0,0:0:0:0:
212,76,64486,5,8,0:0:0:0:
344,76,64643,1,0,0:0:0:0:
260,136,64801,5,8,0:0:0:0:
442,134,64959,1,0,0:0:0:0:
312,200,65117,5,8,0:0:0:0:
494,200,65275,1,0,0:0:0:0:
284,324,65433,1,8,0:0:0:0:
284,324,65591,2,0,P|192:264|104:324,1,227.999993041992,8|0,0:0|0:0,0:0:0:0:
132,188,66065,5,8,0:0:0:0:
104,100,66222,1,0,0:0:0:0:
224,204,66380,5,8,0:0:0:0:
176,52,66538,1,0,0:0:0:0:
312,112,66696,6,0,L|408:40,1,113.999996520996,8|0,0:0|0:0,0:0:0:0:
208,276,67012,2,0,L|116:344,1,113.999996520996,8|0,0:0|0:0,0:0:0:0:
344,192,67328,6,0,L|480:192,1,113.999996520996,8|0,0:0|0:0,0:0:0:0:
168,192,67643,2,0,L|54:192,1,113.999996520996,8|0,0:0|0:0,0:0:0:0:
208,92,67959,1,8,0:0:0:0:
208,92,68117,2,0,P|252:192|204:304,1,227.999993041992,8|0,0:0|0:0,0:0:0:0:
356,260,68591,5,8,0:0:0:0:
356,260,68749,2,0,B|348:180|392:148|392:148|364:88|392:32,1,227.999993041992,8|0,0:0|0:0,0:0:0:0:
200,112,69222,2,0,L|72:112,1,113.999996520996,8|0,0:0|0:0,0:0:0:0:
296,208,69538,2,0,L|416:208,1,113.999996520996,8|0,0:0|0:0,0:0:0:0:
228,300,69854,2,0,P|188:248|188:196,1,113.999996520996,8|0,0:0|0:0,0:0:0:0:
116,96,70170,2,0,L|20:20,2,113.999996520996
92,268,70643,6,0,B|136:224|200:224|200:224|244:180|244:112,1,227.999993041992,8|0,0:0|0:0,0:0:0:0:
316,296,71117,1,8,0:0:0:0:
348,188,71275,1,0,0:0:0:0:
384,332,71433,1,8,0:0:0:0:
424,192,71591,1,0,0:0:0:0:
456,360,71749,1,8,0:0:0:0:
500,196,71907,1,0,0:0:0:0:
388,100,72065,5,0,0:0:0:0:
363,115,72170,1,0,0:0:0:0:
337,125,72275,1,0,0:0:0:0:
309,130,72380,1,0,0:0:0:0:
281,130,72486,1,0,0:0:0:0:
253,124,72591,1,0,0:0:0:0:
132,200,72696,6,0,L|100:252,1,50.6666666666667,8|0,0:0|0:0,0:0:0:0:
200,268,72907,2,0,L|220:328,1,50.6666666666667,8|0,0:0|0:0,0:0:0:0:
120,324,73117,2,0,L|100:384,1,50.6666666666667,8|0,0:0|0:0,0:0:0:0:
48,204,73328,5,0,0:0:0:0:
48,204,73407,1,0,0:0:0:0:
48,204,73486,1,0,0:0:0:0:
136,88,73643,2,0,B|208:88|208:88|244:52,1,113.999996520996,8|0,0:0|0:0,0:0:0:0:
344,192,73959,2,0,L|404:192,2,56.9999982604981
256,168,74275,2,0,P|296:116|340:104,1,113.999996520996
292,248,74591,6,0,L|172:248,1,113.999996520996,8|0,0:0|0:0,0:0:0:0:
96,96,74907,1,0,0:0:0:0:
96,96,74986,1,0,0:0:0:0:
96,96,75065,1,0,0:0:0:0:
252,164,75222,2,0,P|284:112|284:56,1,113.999996520996,8|0,0:0|0:0,0:0:0:0:
152,168,75538,2,0,L|100:189,2,56.9999982604981
248,248,75854,2,0,L|368:248,1,113.999996520996,8|0,0:0|0:0,0:0:0:0:
460,92,76170,2,0,L|471:37,2,56.9999982604981
446,197,76486,6,0,P|455:253|440:308,1,113.999996520996,8|0,0:0|0:0,0:0:0:0:
340,128,76801,1,0,0:0:0:0:
340,128,76880,1,0,0:0:0:0:
340,128,76959,1,0,0:0:0:0:
252,272,77117,6,0,P|192:264|120:272,1,113.999996520996,8|0,0:0|0:0,0:0:0:0:
64,116,77433,1,0,0:0:0:0:
64,116,77512,1,0,0:0:0:0:
64,116,77591,1,0,0:0:0:0:
176,176,77749,6,0,P|188:112|176:56,1,113.999996520996,8|0,0:0|0:0,0:0:0:0:
336,144,78065,2,0,L|452:188,1,113.999996520996,8|0,0:0|0:0,0:0:0:0:
336,288,78380,6,0,L|328:344,7,56.9999982604981,8|0|0|0|0|0|0|0,0:0|0:0|0:0|0:0|0:0|0:0|0:0|0:0,0:0:0:0:
244,260,79012,2,0,L|180:236,1,56.9999982604981,8|0,0:0|0:0,0:0:0:0:
292,172,79170,2,0,L|328:100,1,56.9999982604981,8|0,0:0|0:0,0:0:0:0:
200,88,79328,2,0,L|160:36,1,56.9999982604981,8|0,0:0|0:0,0:0:0:0:
148,164,79486,2,0,L|68:180,1,56.9999982604981,8|0,0:0|0:0,0:0:0:0:
212,284,79643,6,0,L|196:352,7,56.9999982604981,8|0|0|0|0|0|0|0,0:0|0:0|0:0|0:0|0:0|0:0|0:0|0:0,0:0:0:0:
116,220,80275,6,0,P|80:212|36:216,1,56.9999982604981
196,164,80433,2,0,P|222:152|250:147,1,56.9999982604981
108,124,80591,2,0,P|72:116|28:120,1,56.9999982604981
188,68,80749,2,0,P|214:56|242:51,1,56.9999982604981
260,52,80907,5,0,0:0:0:0:
294,52,80985,1,0,0:0:0:0:
327,61,81064,1,0,0:0:0:0:
356,78,81143,1,0,0:0:0:0:
376,108,81222,2,0,L|404:164,3,56.9999982604981
412,192,81538,5,0,0:0:0:0:
379,201,81616,1,0,0:0:0:0:
349,218,81695,1,0,0:0:0:0:
326,243,81774,1,0,0:0:0:0:
308,272,81854,1,0,0:0:0:0:
282,248,81932,1,0,0:0:0:0:
251,234,82011,1,0,0:0:0:0:
218,230,82090,1,0,0:0:0:0:
184,228,82170,2,0,L|176:164,7,56.9999982604981
176,148,82801,5,0,0:0:0:0:
163,116,82879,1,0,0:0:0:0:
140,91,82958,1,0,0:0:0:0:
110,76,83037,1,0,0:0:0:0:
76,74,83116,1,0,0:0:0:0:
43,84,83195,1,0,0:0:0:0:
17,106,83274,1,0,0:0:0:0:
1,136,83353,1,0,0:0:0:0:
256,192,83433,12,12,88328,0:0:0:0:
