osu file format v14

[General]
AudioFilename: audio.mp3
AudioLeadIn: 0
PreviewTime: 52696
Countdown: 1
SampleSet: Normal
StackLeniency: 0.7
Mode: 0
LetterboxInBreaks: 0
WidescreenStoryboard: 1

[Editor]
DistanceSpacing: 0.7
BeatDivisor: 4
GridSize: 4
TimelineZoom: 2

[Metadata]
Title:99 (TV Size)
TitleUnicode:99 (TV Size)
Artist:MOB CHOIR
ArtistUnicode:MOB CHOIR
Creator:Trost
Version:???
Source:Mob Psycho 100
Tags:mob psycho 100 opening 99 mob choir op
BeatmapID:2878298
BeatmapSetID:494641

[Difficulty]
HPDrainRate:6
CircleSize:4
OverallDifficulty:8.5
ApproachRate:9.5
SliderMultiplier:1.9
SliderTickRate:1

[Events]
//Background and Video events
0,0,"Mob 6.png",0,0
Video,-394,"daddy.mp4"
//Break Periods
//Storyboard Layer 0 (Background)
//Storyboard Layer 1 (Fail)
//Storyboard Layer 2 (Pass)
//Storyboard Layer 3 (Foreground)
//Storyboard Layer 4 (Overlay)
//Storyboard Sound Samples

[TimingPoints]
65,315.789473684211,4,1,0,80,1,0
65,-163.934426229508,4,1,0,60,0,0
2591,-200,4,1,0,20,0,0
11275,-200,4,1,0,80,0,0
12696,-100,4,1,0,80,0,0
17748,-90.9090909090909,4,1,0,80,0,0
22801,-111.111111111111,4,1,0,80,0,0
43011,-100,4,1,0,40,0,0
53117,-86.2068965517241,4,1,0,100,0,1
70643,-121.951219512195,4,1,0,40,0,1
71117,-86.2068965517241,4,1,0,100,0,1
72065,-121.951219512195,4,1,0,40,0,0
73327,-81.9672131147541,4,1,0,100,0,0
78380,-100,4,1,0,100,0,0

[HitObjects]
304,88,65,6,0,P|286:76|267:54,7,28.9749988062668
426,215,696,2,0,P|436:204|443:192,7,28.9749988062668
402,199,1328,5,0,0:0:0:0:
380,180,1407,1,0,0:0:0:0:
355,165,1486,1,0,0:0:0:0:
328,155,1565,1,0,0:0:0:0:
299,150,1643,1,0,0:0:0:0:
270,151,1722,1,0,0:0:0:0:
242,157,1801,1,0,0:0:0:0:
116,63,1959,1,0,0:0:0:0:
424,292,2591,5,2,0:0:0:0:
424,292,2749,2,0,P|370:281|312:293,1,95
451,189,3222,2,0,P|460:131|454:94,1,95
372,59,3696,1,2,0:0:0:0:
291,102,3854,2,0,L|219:102,1,47.5
247,178,4171,2,0,L|219:222,1,47.5
163,157,4486,2,0,L|119:129,1,47.5
65,84,4801,1,0,0:0:0:0:
186,81,4959,1,0,0:0:0:0:
65,84,5117,6,0,P|49:148|90:218,1,142.5,2|0,0:0|0:0,0:0:0:0:
148,300,5749,2,0,B|220:288|272:320|272:320|336:304,1,190,2|0,0:0|0:0,0:0:0:0:
412,200,6538,1,0,0:0:0:0:
412,200,6617,1,0,0:0:0:0:
412,200,6696,1,0,0:0:0:0:
308,116,6854,2,0,L|252:72,1,47.5
404,64,7170,2,0,L|440:24,1,47.5
229,167,7486,1,0,0:0:0:0:
444,204,7643,6,0,P|400:214|344:204,1,95
444,204,8117,6,0,P|363:210|298:167,1,142.5
160,97,8749,5,0,0:0:0:0:
160,97,8828,1,0,0:0:0:0:
160,97,8907,1,0,0:0:0:0:
79,237,9065,6,0,L|145:237,1,47.5
244,174,9380,2,0,L|274:115,1,47.5
348,242,9696,2,0,L|413:265,1,47.5
411,127,10012,1,0,0:0:0:0:
255,204,10170,2,0,P|217:117|256:35,1,190
76,253,11275,5,6,0:0:0:0:
95,308,12696,5,8,0:0:0:0:
95,308,12775,1,0,0:0:0:0:
95,308,12854,1,8,0:0:0:0:
230,215,13012,1,8,0:3:0:0:
90,123,13170,1,0,0:0:0:0:
247,84,13328,2,0,P|295:76|346:84,1,95
437,317,13643,2,0,L|429:222,1,95
470,131,13959,2,0,P|421:121|355:135,1,95
107,69,14275,5,0,0:0:0:0:
107,69,14433,1,0,0:0:0:0:
256,180,14591,1,0,0:0:0:0:
66,234,14749,1,0,0:0:0:0:
178,185,14907,2,0,P|189:232|178:285,1,95
177,286,15143,1,0,0:0:0:0:
171,298,15222,1,0,0:0:0:0:
222,111,15380,5,8,0:0:0:0:
367,268,15538,1,8,0:0:0:0:
118,205,15696,2,0,L|103:99,1,95
361,281,16012,2,0,L|376:175,1,95
69,145,16328,2,0,L|167:158,1,95
443,239,16643,2,0,L|345:226,1,95
145,152,16959,6,0,L|201:164,1,47.5
373,237,17117,2,0,L|317:225,1,47.5
159,124,17275,2,0,L|210:151,1,47.5
357,266,17433,2,0,L|306:239,1,47.5
180,101,17591,1,0,0:0:0:0:
357,84,17749,5,8,0:0:0:0:
135,288,17907,1,8,0:0:0:0:
186,55,18380,5,8,0:0:0:0:
328,308,18538,1,8,0:0:0:0:
433,176,19012,5,8,0:0:0:0:
122,224,19170,1,8,0:0:0:0:
310,70,19643,5,8,0:0:0:0:
272,336,19801,1,8,0:0:0:0:
97,99,20275,6,0,L|191:153,1,104.500003189087,8|0,0:0|0:0,0:0:0:0:
415,285,20907,6,0,L|321:231,1,104.500003189087,8|0,0:0|0:0,0:0:0:0:
36,152,21538,1,0,0:0:0:0:
69,137,21616,1,0,0:0:0:0:
105,131,21695,1,0,0:0:0:0:
142,134,21774,1,0,0:0:0:0:
177,144,21854,2,0,P|226:172|265:217,1,104.500003189087
421,84,22170,6,0,P|385:121|339:147,1,104.500003189087
305,159,22407,1,0,0:0:0:0:
269,166,22485,1,0,0:0:0:0:
232,167,22564,1,0,0:0:0:0:
196,164,22643,1,0,0:0:0:0:
160,156,22722,1,0,0:0:0:0:
132,144,22801,2,0,P|102:107|88:67,1,85.4999973907472,8|0,0:0|0:0,0:0:0:0:
297,245,23117,5,0,0:0:0:0:
297,245,23196,1,0,0:0:0:0:
297,245,23275,1,0,0:0:0:0:
212,98,23433,2,0,P|160:90|108:102,1,85.4999973907472,8|0,0:0|0:0,0:0:0:0:
102,240,23749,1,0,0:0:0:0:
102,240,23828,1,0,0:0:0:0:
102,240,23907,1,0,0:0:0:0:
367,187,24065,6,0,P|377:136|367:87,1,85.4999973907472,8|0,0:0|0:0,0:0:0:0:
207,191,24380,1,0,0:0:0:0:
207,191,24459,1,0,0:0:0:0:
207,191,24538,1,0,0:0:0:0:
336,322,24696,2,0,P|381:330|440:322,1,85.4999973907472,8|0,0:0|0:0,0:0:0:0:
284,224,25012,5,0,0:0:0:0:
284,224,25091,1,0,0:0:0:0:
284,224,25170,1,0,0:0:0:0:
442,97,25328,2,0,P|410:136|367:162,1,85.4999973907472
104,195,25643,5,0,0:0:0:0:
261,64,25801,1,0,0:0:0:0:
295,287,25959,1,0,0:0:0:0:
166,164,26117,1,0,0:0:0:0:
351,134,26275,1,0,0:0:0:0:
191,251,26433,2,0,L|130:311,1,85.4999973907472
426,303,26749,2,0,P|432:260|426:217,1,85.4999973907472
307,162,27065,5,0,0:0:0:0:
279,152,27143,1,0,0:0:0:0:
250,143,27222,1,0,0:0:0:0:
221,136,27301,1,0,0:0:0:0:
191,131,27380,1,0,0:0:0:0:
87,227,27538,2,0,P|81:275|93:328,1,85.4999973907472,8|0,0:0|0:0,0:0:0:0:
252,228,27854,6,0,P|226:181|196:154,1,85.4999973907472
112,95,28170,5,0,0:0:0:0:
112,95,28249,1,0,0:0:0:0:
112,95,28328,1,0,0:0:0:0:
200,305,28486,2,0,P|252:310|300:305,1,85.4999973907472
382,210,28801,1,0,0:0:0:0:
382,210,28880,1,0,0:0:0:0:
382,210,28959,1,0,0:0:0:0:
405,63,29117,6,0,P|351:91|330:120,1,85.4999973907472
286,233,29433,1,0,0:0:0:0:
286,233,29512,1,0,0:0:0:0:
286,233,29591,1,0,0:0:0:0:
464,263,29749,2,0,P|472:216|464:171,1,85.4999973907472
277,258,30065,2,0,L|241:338,1,85.4999973907472,8|0,0:0|0:0,0:0:0:0:
97,138,30380,5,0,0:0:0:0:
165,281,30538,1,0,0:0:0:0:
279,136,30696,2,0,P|325:130|369:137,1,85.4999973907472,8|0,0:0|0:0,0:0:0:0:
487,257,31012,2,0,P|433:266|385:255,1,85.4999973907472,8|0,0:0|0:0,0:0:0:0:
308,151,31328,5,0,0:0:0:0:
225,239,31486,1,0,0:0:0:0:
115,117,31643,2,0,P|71:109|19:117,2,85.4999973907472
309,225,32117,1,0,0:0:0:0:
160,305,32275,2,0,P|116:312|64:305,1,85.4999973907472
232,176,32591,5,0,0:0:0:0:
232,176,32670,1,0,0:0:0:0:
232,176,32749,1,0,0:0:0:0:
274,65,32907,6,0,P|326:76|364:97,1,85.4999973907472
446,190,33222,1,0,0:0:0:0:
446,190,33301,1,0,0:0:0:0:
446,190,33380,1,0,0:0:0:0:
245,308,33538,2,0,P|236:250|240:208,1,85.4999973907472
266,111,33854,5,0,0:0:0:0:
266,111,33933,1,0,0:0:0:0:
266,111,34012,1,0,0:0:0:0:
411,254,34170,2,0,P|353:262|311:257,1,85.4999973907472
184,184,34486,5,0,0:0:0:0:
184,184,34565,1,0,0:0:0:0:
184,184,34643,1,0,0:0:0:0:
49,67,34801,2,0,P|96:82|133:106,1,85.4999973907472,8|0,0:0|0:0,0:0:0:0:
254,241,35117,1,0,0:0:0:0:
254,241,35196,1,0,0:0:0:0:
254,241,35275,1,0,0:0:0:0:
352,103,35433,5,0,0:0:0:0:
374,275,35591,1,0,0:0:0:0:
248,217,35749,1,0,0:0:0:0:
433,139,35907,1,0,0:0:0:0:
267,76,36065,1,0,0:0:0:0:
335,275,36222,1,0,0:0:0:0:
172,116,36380,6,0,P|165:160|172:204,1,85.4999973907472
62,289,36696,2,0,P|118:301|167:298,1,85.4999973907472
370,187,37012,2,0,P|326:179|284:184,1,85.4999973907472
258,198,37249,1,0,0:0:0:0:
230,209,37327,1,0,0:0:0:0:
201,216,37406,1,0,0:0:0:0:
171,217,37485,1,0,0:0:0:0:
142,213,37564,1,0,0:0:0:0:
113,205,37643,2,0,P|76:168|59:127,1,85.4999973907472
219,87,37959,6,0,P|262:80|304:87,1,85.4999973907472,8|0,0:0|0:0,0:0:0:0:
439,194,38275,2,0,P|449:224|454:247,2,42.7499986953736
327,272,38591,2,0,P|285:277|241:272,1,85.4999973907472,8|0,0:0|0:0,0:0:0:0:
156,190,38907,1,0,0:0:0:0:
156,190,38986,1,0,0:0:0:0:
156,190,39065,1,0,0:0:0:0:
333,65,39222,6,0,P|320:112|296:144,1,85.4999973907472
176,298,39538,2,0,P|168:314|148:340,2,42.7499986953736
31,138,39854,2,0,P|72:132|119:140,1,85.4999973907472
354,239,40170,2,0,L|333:332,1,85.4999973907472,8|0,0:0|0:0,0:0:0:0:
157,128,40486,5,0,0:0:0:0:
186,120,40564,1,0,0:0:0:0:
215,117,40643,1,0,0:0:0:0:
245,117,40722,1,0,0:0:0:0:
275,120,40801,1,0,0:0:0:0:
418,135,40959,5,0,0:0:0:0:
418,135,41117,2,0,P|438:217|417:299,1,170.999994781494
251,313,41591,6,0,P|210:316|165:313,2,85.4999973907472
391,217,42065,1,0,0:0:0:0:
391,217,42143,1,0,0:0:0:0:
391,217,42222,1,0,0:0:0:0:
191,134,42380,1,0,0:0:0:0:
350,187,42538,1,0,0:0:0:0:
225,271,42696,1,0,0:0:0:0:
436,95,42854,1,0,0:0:0:0:
436,95,43012,6,0,P|468:191|436:287,1,190
270,175,43486,1,0,0:0:0:0:
270,175,43565,1,0,0:0:0:0:
270,175,43643,1,0,0:0:0:0:
272,336,43801,2,0,P|220:332|168:320,1,95
364,316,44117,2,0,P|260:336|156:316,1,190
304,176,44591,5,0,0:0:0:0:
304,176,44670,1,0,0:0:0:0:
304,176,44749,1,0,0:0:0:0:
153,118,44907,2,0,P|121:74|113:14,1,95
87,240,45222,2,0,L|39:336,1,95
212,168,45538,5,0,0:0:0:0:
212,168,45696,1,0,0:0:0:0:
212,168,45854,2,0,P|292:164|368:80,1,190
106,106,46328,2,0,P|91:171|104:222,1,95
386,291,46643,2,0,P|402:247|395:201,1,95
361,77,46959,2,0,P|303:97|271:124,1,95
171,266,47275,6,0,P|191:248|205:228,1,47.5
341,118,47433,2,0,P|321:136|307:156,1,47.5
193,285,47591,2,0,P|207:262|216:239,1,47.5
318,98,47749,2,0,P|304:121|295:144,1,47.5
219,298,47907,1,0,0:0:0:0:
205,128,48065,5,0,0:0:0:0:
345,320,48222,1,0,0:0:0:0:
447,166,48380,1,8,0:0:0:0:
311,230,48538,1,0,0:0:0:0:
362,43,48696,1,8,0:0:0:0:
273,159,48854,1,0,0:0:0:0:
211,47,49012,1,8,0:0:0:0:
152,234,49170,1,0,0:0:0:0:
64,101,49328,5,0,0:0:0:0:
64,101,49407,1,0,0:0:0:0:
64,101,49486,1,0,0:0:0:0:
232,135,49643,1,8,0:0:0:0:
115,233,49801,1,0,0:0:0:0:
146,63,49959,1,8,0:0:0:0:
229,296,50117,1,0,0:0:0:0:
396,214,50275,1,8,0:0:0:0:
249,122,50433,1,0,0:0:0:0:
288,290,50591,5,8,0:0:0:0:
414,126,50749,1,0,0:0:0:0:
230,99,50907,1,8,0:0:0:0:
318,208,51065,1,0,0:0:0:0:
357,39,51222,1,8,0:0:0:0:
115,102,51380,1,0,0:0:0:0:
278,210,51538,1,8,0:0:0:0:
280,45,51696,1,0,0:0:0:0:
155,116,51854,5,8,0:0:0:0:
162,147,51933,1,0,0:0:0:0:
169,179,52012,2,0,L|179:238,1,47.5
366,188,52170,5,8,0:0:0:0:
358,219,52249,1,0,0:0:0:0:
351,251,52328,2,0,L|340:310,1,47.5
382,104,52486,1,0,0:0:0:0:
444,78,53117,6,8,B|364:102|364:102|212:68,1,220.400006726074
67,53,53591,1,0,0:0:0:0:
67,53,53749,1,0,0:0:0:0:
216,189,53907,1,0,0:0:0:0:
30,293,54065,2,0,P|90:300|146:293,1,110.200003363037,8|0,0:0|0:0,0:0:0:0:
417,142,54380,5,0,0:0:0:0:
417,142,54538,1,0,0:0:0:0:
273,134,54696,2,0,P|245:90|237:26,1,115.899995225067,8|0,0:0|0:0,0:0:0:0:
192,234,55012,2,0,P|164:278|156:342,1,115.899995225067,8|0,0:0|0:0,0:0:0:0:
297,123,55328,1,0,0:0:0:0:
31,182,55486,6,0,P|135:210|247:182,1,220.400006726074
407,149,55959,6,0,P|436:88|441:41,1,110.200003363037,8|0,0:0|0:0,0:0:0:0:
290,148,56275,2,0,P|296:199|328:251,1,110.200003363037
208,84,56591,2,0,P|146:76|88:86,2,110.200003363037,8|0|0,0:0|0:0|0:0,0:0:0:0:
318,203,57065,1,0,0:0:0:0:
152,255,57222,1,8,0:0:0:0:
213,87,57380,1,0,0:0:0:0:
426,181,57538,2,0,P|424:240|394:300,1,110.200003363037
144,101,57854,5,0,0:0:0:0:
144,101,58012,2,0,B|136:140|156:176|156:176|144:204|144:204|160:256|144:332,1,220.400006726074,8|0,0:0|0:0,0:0:0:0:
51,162,58486,1,8,0:0:0:0:
274,212,58643,1,0,0:0:0:0:
90,63,58801,6,0,P|149:55|206:63,1,110.200003363037
376,263,59117,1,8,0:0:0:0:
376,263,59275,2,0,P|279:314|160:262,1,220.400006726074
42,215,59749,2,0,P|75:168|122:134,1,115.899995225067,8|0,0:0|0:0,0:0:0:0:
271,71,60065,1,0,0:0:0:0:
307,269,60222,1,0,0:0:0:0:
139,167,60380,1,0,0:0:0:0:
463,159,60538,6,0,P|351:196|247:151,1,220.400006726074,8|0,0:0|0:0,0:0:0:0:
80,162,61012,2,0,P|68:102|80:46,1,110.200003363037,8|0,0:0|0:0,0:0:0:0:
363,206,61328,2,0,P|375:270|363:325,1,110.200003363037,8|0,0:0|0:0,0:0:0:0:
180,102,61643,2,0,P|242:92|291:100,1,110.200003363037,8|0,0:0|0:0,0:0:0:0:
130,297,61959,5,8,0:0:0:0:
97,275,62037,1,0,0:0:0:0:
75,245,62116,1,0,0:0:0:0:
64,208,62195,1,0,0:0:0:0:
67,169,62275,1,8,0:0:0:0:
83,135,62353,1,0,0:0:0:0:
110,108,62432,1,0,0:0:0:0:
145,92,62511,1,0,0:0:0:0:
184,84,62591,6,0,P|243:76|304:84,1,110.200003363037,8|0,0:3|0:3,0:3:0:0:
481,224,62907,2,0,P|429:236|353:224,1,110.200003363037
157,67,63222,5,8,0:0:0:0:
242,288,63380,1,8,0:0:0:0:
359,104,63538,5,8,0:0:0:0:
104,233,63696,1,8,0:0:0:0:
385,272,63854,5,8,0:0:0:0:
132,107,64012,1,8,0:0:0:0:
400,65,64170,6,0,L|387:187,1,110.200003363037,8|0,0:0|0:0,0:0:0:0:
112,319,64486,2,0,L|123:209,1,110.200003363037,8|0,0:0|0:0,0:0:0:0:
444,154,64801,6,0,L|371:253,1,110.200003363037,8|0,0:0|0:0,0:0:0:0:
67,229,65117,2,0,L|132:140,1,110.200003363037,8|0,0:0|0:0,0:0:0:0:
331,64,65433,1,0,0:0:0:0:
438,136,65591,6,0,P|335:176|218:136,1,220.400006726074
156,57,66065,5,8,0:0:0:0:
307,305,66222,1,8,0:0:0:0:
75,206,66380,5,8,0:0:0:0:
352,91,66538,1,8,0:0:0:0:
219,300,66696,5,8,0:0:0:0:
214,47,66854,1,8,0:0:0:0:
355,270,67012,5,8,0:0:0:0:
116,150,67170,1,8,0:0:0:0:
450,244,67328,6,0,P|395:256|318:244,1,110.200003363037,8|0,0:0|0:0,0:0:0:0:
43,152,67643,6,0,P|100:139|175:152,1,110.200003363037,8|0,0:0|0:0,0:0:0:0:
324,252,67959,1,8,0:0:0:0:
112,327,68117,6,0,P|78:198|113:104,1,220.400006726074
340,51,68591,5,8,0:0:0:0:
228,273,68749,1,8,0:0:0:0:
128,87,68907,5,8,0:0:0:0:
381,233,69065,1,8,0:0:0:0:
103,240,69222,5,8,0:0:0:0:
362,92,69380,1,8,0:0:0:0:
284,318,69538,5,8,0:0:0:0:
139,73,69696,1,8,0:0:0:0:
428,207,69854,6,0,P|419:268|388:313,1,110.200003363037,8|0,0:0|0:0,0:0:0:0:
84,177,70170,6,0,P|93:116|124:71,1,110.200003363037,8|0,0:0|0:0,0:0:0:0:
281,38,70486,1,8,0:0:0:0:
470,191,70643,2,0,P|392:212|298:191,1,155.800002377319,4|0,0:0|0:0,0:0:0:0:
159,96,71117,1,8,0:0:0:0:
216,297,71275,1,0,0:0:0:0:
415,88,71433,6,0,P|406:155|367:204,1,110.200003363037,8|0,0:0|0:0,0:0:0:0:
55,116,71749,2,0,P|115:108|166:116,1,110.200003363037,8|0,0:0|0:0,0:0:0:0:
448,248,72065,1,8,0:0:0:0:
402,271,72170,1,8,0:0:0:0:
351,283,72275,1,8,0:0:0:0:
299,281,72380,1,8,0:0:0:0:
250,266,72486,1,8,0:0:0:0:
206,239,72591,1,8,0:0:0:0:
181,193,72696,5,8,0:0:0:0:
178,157,72801,1,8,0:0:0:0:
188,122,72906,1,8,0:0:0:0:
208,92,73011,1,8,0:0:0:0:
237,71,73117,1,8,0:0:0:0:
272,60,73222,1,8,0:0:0:0:
310,60,73328,6,0,P|326:124|310:192,1,115.899995225067
228,299,73643,1,0,0:0:0:0:
228,299,73722,1,0,0:0:0:0:
228,299,73801,1,0,0:0:0:0:
47,102,73959,2,0,P|116:90|186:105,1,115.899995225067
306,226,74275,5,0,0:0:0:0:
306,226,74354,1,0,0:0:0:0:
310,230,74433,1,0,0:0:0:0:
103,326,74591,2,0,P|78:274|78:213,1,115.899995225067
246,73,74907,5,0,0:0:0:0:
246,73,74986,1,0,0:0:0:0:
246,73,75065,1,0,0:0:0:0:
478,226,75222,2,0,P|433:238|354:226,1,115.899995225067
199,106,75538,5,0,0:0:0:0:
199,106,75617,1,0,0:0:0:0:
199,106,75696,1,0,0:0:0:0:
427,36,75854,2,0,P|436:90|412:163,1,115.899995225067
314,314,76170,5,0,0:0:0:0:
314,314,76249,1,0,0:0:0:0:
314,314,76328,1,0,0:0:0:0:
57,109,76486,2,0,P|109:96|181:109,1,115.899995225067
349,158,76801,5,0,0:0:0:0:
349,158,76880,1,0,0:0:0:0:
349,158,76959,1,0,0:0:0:0:
86,327,77117,2,0,P|72:260|88:204,1,115.899995225067
261,61,77433,5,0,0:0:0:0:
261,61,77512,1,0,0:0:0:0:
261,61,77591,1,0,0:0:0:0:
449,235,77749,2,0,P|399:277|343:292,1,115.899995225067
76,143,78065,2,0,P|126:101|182:86,1,115.899995225067
437,205,78380,5,0,0:0:0:0:
429,237,78458,1,0,0:0:0:0:
414,266,78537,1,0,0:0:0:0:
392,291,78616,1,0,0:0:0:0:
364,309,78695,1,0,0:0:0:0:
333,320,78774,1,0,0:0:0:0:
300,323,78853,1,0,0:0:0:0:
267,317,78932,1,0,0:0:0:0:
237,303,79012,6,0,P|221:281|212:253,1,47.5
303,133,79170,2,0,P|316:160|322:187,1,47.5
399,247,79328,2,0,P|381:261|354:270,1,47.5
169,190,79486,2,0,P|197:171|216:167,1,47.5
378,118,79643,6,0,P|377:141|370:164,7,47.5
367,68,80275,1,0,0:0:0:0:
338,54,80353,1,0,0:0:0:0:
306,43,80432,1,0,0:0:0:0:
273,38,80511,1,0,0:0:0:0:
240,36,80590,1,0,0:0:0:0:
207,40,80669,1,0,0:0:0:0:
175,48,80748,1,0,0:0:0:0:
144,61,80827,1,0,0:0:0:0:
118,82,80907,6,0,P|99:60|70:44,3,47.5
141,105,81222,1,0,0:0:0:0:
151,136,81300,1,0,0:0:0:0:
153,170,81379,1,0,0:0:0:0:
146,202,81458,1,0,0:0:0:0:
131,232,81538,2,0,P|98:238|71:259,3,47.5
164,226,81854,1,0,0:0:0:0:
196,217,81932,1,0,0:0:0:0:
229,213,82011,1,0,0:0:0:0:
262,215,82090,1,0,0:0:0:0:
294,221,82170,6,0,P|316:226|343:228,3,47.5
300,188,82486,1,0,0:0:0:0:
301,154,82564,1,0,0:0:0:0:
312,123,82643,1,0,0:0:0:0:
330,95,82722,1,0,0:0:0:0:
355,73,82801,1,0,0:0:0:0:
384,58,82880,1,0,0:0:0:0:
419,52,82959,6,0,P|440:49|472:60,1,47.5
360,175,83117,2,0,P|326:180|290:175,1,47.5
145,99,83275,2,4,P|180:96|204:99,1,47.5
256,192,83433,12,4,88328,0:0:0:0:
