osu file format v14

[General]
AudioFilename: audio.mp3
AudioLeadIn: 0
PreviewTime: 52696
Countdown: 1
SampleSet: Normal
StackLeniency: 0.7
Mode: 0
LetterboxInBreaks: 0
WidescreenStoryboard: 1

[Editor]
Bookmarks: 63222,69538,72064,73327,78380
DistanceSpacing: 2.8
BeatDivisor: 4
GridSize: 4
TimelineZoom: 2

[Metadata]
Title:99 (TV Size)
TitleUnicode:99 (TV Size)
Artist:MOB CHOIR
ArtistUnicode:MOB CHOIR
Creator:Trost
Version:???% (old)
Source:Mob Psycho 100
Tags:mob psycho 100 opening 99 mob choir op
BeatmapID:1053190
BeatmapSetID:494641

[Difficulty]
HPDrainRate:6
CircleSize:4.5
OverallDifficulty:8.7
ApproachRate:9.5
SliderMultiplier:1.9
SliderTickRate:1

[Events]
//Background and Video events
0,0,"mob 6.png",0,0
Video,-394,"daddy.mp4"
//Break Periods
//Storyboard Layer 0 (Background)
//Storyboard Layer 1 (Fail)
//Storyboard Layer 2 (Pass)
//Storyboard Layer 3 (Foreground)
//Storyboard Layer 4 (Overlay)
//Storyboard Sound Samples

[TimingPoints]
65,315.789473684211,4,1,0,80,1,0
65,-163.934426229508,4,1,0,60,0,0
2591,-200,4,1,0,20,0,0
11275,-200,4,1,0,80,0,0
12696,-100,4,1,0,80,0,0
17748,-90.9090909090909,4,1,0,80,0,0
22801,-111.111111111111,4,1,0,80,0,0
43011,-100,4,1,0,40,0,0
53117,-81.9672131147541,4,1,0,100,0,1
70643,-121.951219512195,4,1,0,40,0,1
71117,-81.9672131147541,4,1,0,100,0,1
72065,-121.951219512195,4,1,0,40,0,0
73327,-81.9672131147541,4,1,0,100,0,0
78380,-100,4,1,0,100,0,0

[HitObjects]
304,88,65,6,0,L|280:44,7,28.9749988062668
400,244,696,2,0,L|417:221,7,28.9749988062668
376,228,1328,5,0,0:0:0:0:
354,209,1407,1,0,0:0:0:0:
329,194,1486,1,0,0:0:0:0:
302,184,1565,1,0,0:0:0:0:
273,179,1643,1,0,0:0:0:0:
244,180,1722,1,0,0:0:0:0:
216,186,1801,1,0,0:0:0:0:
112,60,1959,1,0,0:0:0:0:
424,292,2591,5,2,0:0:0:0:
424,292,2749,2,0,L|304:292,1,95
408,164,3380,2,0,L|460:76,1,95
456,82,3854,1,2,0:0:0:0:
360,92,4012,2,0,L|288:92,1,47.5
328,188,4328,2,0,L|300:232,1,47.5
236,144,4643,2,0,L|192:116,1,47.5
116,68,4959,6,0,P|100:132|196:212,1,190,2|0,0:0|0:0,0:0:0:0:
148,300,5749,2,0,B|220:288|272:320|272:320|336:304,1,190,2|0,0:0|0:0,0:0:0:0:
412,200,6538,1,0,0:0:0:0:
412,200,6617,1,0,0:0:0:0:
412,200,6696,1,0,0:0:0:0:
308,116,6854,2,0,L|252:72,1,47.5
404,64,7170,2,0,L|440:24,1,47.5
412,160,7486,6,0,P|332:124|312:68,1,142.5,2|0,0:0|0:0,0:0:0:0:
200,148,8117,6,0,P|120:112|100:56,1,142.5,2|0,0:0|0:0,0:0:0:0:
56,220,8749,5,0,0:0:0:0:
56,220,8828,1,0,0:0:0:0:
56,220,8907,1,0,0:0:0:0:
192,304,9065,2,0,L|268:304,1,47.5
336,176,9380,2,0,L|364:120,1,47.5
364,296,9696,2,0,L|436:296,1,47.5
316,196,10012,6,0,P|248:172|220:16,1,237.5,2|0,0:0|0:0,0:0:0:0:
144,264,11275,5,6,0:0:0:0:
80,296,12696,5,8,0:0:0:0:
80,296,12775,1,0,0:0:0:0:
80,296,12854,1,8,0:0:0:0:
216,224,13012,1,8,0:3:0:0:
124,104,13170,1,0,0:0:0:0:
268,152,13328,2,0,L|372:152,1,95
436,328,13643,2,0,L|380:248,1,95
256,260,13959,2,0,L|200:180,1,95
88,80,14275,5,0,0:0:0:0:
88,80,14354,1,0,0:0:0:0:
88,80,14433,1,0,0:0:0:0:
248,164,14591,1,0,0:0:0:0:
68,196,14749,1,0,0:0:0:0:
188,248,14907,2,0,P|196:300|188:348,1,95
380,252,15222,5,8,0:0:0:0:
380,252,15380,1,8,0:0:0:0:
240,100,15538,1,8,0:0:0:0:
348,20,15696,2,0,L|348:116,1,95
480,88,16012,2,0,L|480:184,1,95
337,247,16328,6,0,P|342:292|380:280,1,95
174,136,16643,6,0,P|169:91|136:108,1,95
200,308,16959,1,0,0:0:0:0:
200,308,17038,1,0,0:0:0:0:
200,308,17117,1,8,0:0:0:0:
316,136,17275,1,0,0:0:0:0:
172,64,17433,2,0,L|72:64,1,95,8|0,0:0|0:0,0:0:0:0:
196,236,17749,5,8,0:0:0:0:
364,112,17907,1,8,0:0:0:0:
220,48,18380,5,8,0:0:0:0:
332,260,18538,1,8,0:0:0:0:
432,184,19012,5,8,0:0:0:0:
172,184,19170,1,8,0:0:0:0:
244,336,19643,5,8,0:0:0:0:
300,104,19801,1,8,0:0:0:0:
112,88,20275,6,0,L|228:88,1,104.500003189087,8|0,0:0|0:0,0:0:0:0:
400,296,20907,6,0,L|295:296,1,104.500003189087,8|0,0:0|0:0,0:0:0:0:
116,320,21538,1,0,0:0:0:0:
122,289,21617,1,0,0:0:0:0:
123,258,21696,1,0,0:0:0:0:
119,227,21775,1,0,0:0:0:0:
112,200,21854,2,0,P|168:168|192:120,1,104.500003189087
288,268,22170,6,0,L|372:340,1,104.500003189087
376,320,22407,1,0,0:0:0:0:
370,289,22486,1,0,0:0:0:0:
370,257,22565,1,0,0:0:0:0:
377,227,22643,1,0,0:0:0:0:
389,198,22722,1,0,0:0:0:0:
407,172,22801,2,0,L|392:88,1,85.4999973907472,8|0,0:0|0:0,0:0:0:0:
268,228,23117,5,0,0:0:0:0:
268,228,23196,1,0,0:0:0:0:
268,228,23275,1,0,0:0:0:0:
160,76,23433,2,0,P|108:68|56:80,1,85.4999973907472,8|0,0:0|0:0,0:0:0:0:
160,248,23749,1,0,0:0:0:0:
160,248,23828,1,0,0:0:0:0:
160,248,23907,1,0,0:0:0:0:
332,152,24065,6,0,P|356:108|356:56,1,85.4999973907472,8|0,0:0|0:0,0:0:0:0:
444,232,24380,1,0,0:0:0:0:
444,232,24459,1,0,0:0:0:0:
444,232,24538,1,0,0:0:0:0:
336,344,24696,2,0,L|440:344,1,85.4999973907472,8|0,0:0|0:0,0:0:0:0:
284,224,25012,5,0,0:0:0:0:
284,224,25091,1,0,0:0:0:0:
284,224,25170,1,0,0:0:0:0:
140,120,25328,2,0,P|100:64|100:28,1,85.4999973907472,8|0,0:0|0:0,0:0:0:0:
88,240,25643,5,0,0:0:0:0:
260,120,25801,1,0,0:0:0:0:
260,328,25959,1,0,0:0:0:0:
192,188,26117,1,0,0:0:0:0:
192,188,26275,1,0,0:0:0:0:
376,92,26433,2,0,L|440:28,1,85.4999973907472
440,228,26749,2,0,L|440:320,1,85.4999973907472
288,220,27065,5,0,0:0:0:0:
258,198,27143,1,0,0:0:0:0:
229,176,27222,1,0,0:0:0:0:
199,154,27301,1,0,0:0:0:0:
170,133,27380,1,0,0:0:0:0:
120,260,27538,2,0,L|48:344,1,85.4999973907472,8|0,0:0|0:0,0:0:0:0:
200,268,27854,2,0,P|180:208|144:180,1,85.4999973907472,8|0,0:0|0:0,0:0:0:0:
284,56,28170,5,0,0:0:0:0:
284,56,28249,1,0,0:0:0:0:
284,56,28328,1,0,0:0:0:0:
416,192,28486,2,0,L|472:288,1,85.4999973907472,8|0,0:0|0:0,0:0:0:0:
308,200,28801,1,0,0:0:0:0:
308,200,28880,1,0,0:0:0:0:
308,200,28959,1,0,0:0:0:0:
200,60,29117,6,0,B|180:48|180:48|104:48,1,85.4999973907472,8|0,0:0|0:0,0:0:0:0:
32,220,29433,1,0,0:0:0:0:
32,220,29512,1,0,0:0:0:0:
32,220,29591,1,0,0:0:0:0:
232,208,29749,6,0,B|244:220|244:220|324:220,1,85.4999973907472,8|0,0:0|0:0,0:0:0:0:
180,292,30065,2,0,L|144:372,1,85.4999973907472,8|0,0:0|0:0,0:0:0:0:
148,188,30380,5,0,0:0:0:0:
148,188,30538,1,0,0:0:0:0:
296,88,30696,2,0,P|360:72|384:40,1,85.4999973907472,8|0,0:0|0:0,0:0:0:0:
420,224,31012,2,0,P|436:268|432:328,1,85.4999973907472,8|0,0:0|0:0,0:0:0:0:
312,200,31328,5,0,0:0:0:0:
312,200,31486,1,0,0:0:0:0:
176,84,31643,2,0,L|80:84,2,85.4999973907472
284,212,32117,1,0,0:0:0:0:
148,308,32275,2,0,L|44:308,1,85.4999973907472,8|0,0:0|0:0,0:0:0:0:
156,184,32591,5,0,0:0:0:0:
156,184,32670,1,0,0:0:0:0:
156,184,32749,1,0,0:0:0:0:
296,88,32907,2,0,P|360:96|396:88,1,85.4999973907472,8|0,0:0|0:0,0:0:0:0:
308,272,33222,1,0,0:0:0:0:
308,272,33301,1,0,0:0:0:0:
308,272,33380,1,0,0:0:0:0:
484,184,33538,2,0,P|468:136|480:88,1,85.4999973907472,8|0,0:0|0:0,0:0:0:0:
440,288,33854,5,0,0:0:0:0:
440,288,33933,1,0,0:0:0:0:
440,288,34012,1,0,0:0:0:0:
296,164,34170,2,0,P|248:156|188:168,1,85.4999973907472,8|0,0:0|0:0,0:0:0:0:
84,32,34486,5,0,0:0:0:0:
84,32,34565,1,0,0:0:0:0:
84,32,34643,1,0,0:0:0:0:
60,196,34801,2,0,P|68:248|56:296,1,85.4999973907472,8|0,0:0|0:0,0:0:0:0:
184,184,35117,2,0,L|216:144,2,42.7499986953736
316,304,35433,5,0,0:0:0:0:
468,208,35591,1,0,0:0:0:0:
292,176,35749,1,0,0:0:0:0:
452,76,35907,1,0,0:0:0:0:
452,76,36065,1,0,0:0:0:0:
264,100,36222,2,0,L|160:100,1,85.4999973907472
84,248,36538,2,0,P|40:212|28:176,1,85.4999973907472
176,236,36854,5,0,0:0:0:0:
176,236,37012,2,0,L|272:212,1,85.4999973907472
288,200,37249,1,0,0:0:0:0:
307,169,37328,1,0,0:0:0:0:
336,147,37407,1,0,0:0:0:0:
371,136,37486,1,0,0:0:0:0:
407,137,37565,1,0,0:0:0:0:
436,156,37643,2,0,L|456:68,1,85.4999973907472,8|0,0:0|0:0,0:0:0:0:
288,96,37959,6,0,P|236:104|184:96,1,85.4999973907472,8|0,0:0|0:0,0:0:0:0:
104,260,38275,2,0,L|72:308,2,42.7499986953736
280,332,38591,2,0,L|376:332,1,85.4999973907472,8|0,0:0|0:0,0:0:0:0:
236,184,38907,1,0,0:0:0:0:
236,184,38986,1,0,0:0:0:0:
236,184,39065,1,0,0:0:0:0:
136,76,39222,2,0,B|92:56|92:56|56:8,1,85.4999973907472,8|0,0:0|0:0,0:0:0:0:
148,228,39538,6,0,L|132:276,2,42.7499986953736
320,156,39854,2,0,P|364:128|376:80,1,85.4999973907472,8|0,0:0|0:0,0:0:0:0:
456,260,40170,2,0,L|488:348,1,85.4999973907472,8|0,0:0|0:0,0:0:0:0:
344,276,40486,5,0,0:0:0:0:
330,242,40565,1,0,0:0:0:0:
323,206,40643,1,0,0:0:0:0:
324,169,40722,1,0,0:0:0:0:
333,134,40801,1,0,0:0:0:0:
188,236,40959,1,0,0:0:0:0:
188,236,41117,2,0,P|136:136|84:104,1,170.999994781494,8|8,0:0|0:0,0:0:0:0:
260,60,41591,6,0,L|356:60,2,85.4999973907472
428,248,42065,1,0,0:0:0:0:
428,248,42143,1,0,0:0:0:0:
428,248,42222,1,0,0:0:0:0:
336,164,42380,1,0,0:0:0:0:
336,288,42538,1,0,0:0:0:0:
232,216,42696,1,0,0:0:0:0:
256,92,42854,1,0,0:0:0:0:
436,80,43012,6,0,P|416:172|436:272,1,190
284,144,43486,1,0,0:0:0:0:
284,144,43565,1,0,0:0:0:0:
284,144,43643,1,0,0:0:0:0:
272,336,43801,2,0,P|220:332|168:320,1,95
364,316,44117,2,0,P|260:336|156:316,1,190
304,176,44591,5,0,0:0:0:0:
304,176,44670,1,0,0:0:0:0:
304,176,44749,1,0,0:0:0:0:
124,116,44907,2,0,P|92:72|84:12,1,95
72,224,45222,2,0,L|24:320,1,95
212,168,45538,5,0,0:0:0:0:
212,168,45696,1,0,0:0:0:0:
212,168,45854,2,0,P|292:164|368:80,1,190
388,268,46328,2,0,P|404:312|432:288,1,95
123,116,46643,2,0,P|132:80|88:88,1,95
421,63,46959,2,0,P|392:76|436:92,1,95
304,276,47275,5,0,0:0:0:0:
304,276,47354,1,0,0:0:0:0:
304,276,47433,1,8,0:0:0:0:
132,156,47591,1,0,0:0:0:0:
328,84,47749,1,8,0:0:0:0:
228,224,47907,1,0,0:0:0:0:
416,312,48065,5,8,0:0:0:0:
416,312,48222,1,0,0:0:0:0:
316,240,48380,1,8,0:0:0:0:
440,224,48538,1,0,0:0:0:0:
344,148,48696,5,8,0:0:0:0:
280,44,48854,1,0,0:0:0:0:
240,160,49012,1,8,0:0:0:0:
172,56,49170,1,0,0:0:0:0:
132,244,49328,5,0,0:0:0:0:
132,244,49407,1,0,0:0:0:0:
132,244,49486,1,0,0:0:0:0:
244,344,49643,1,8,0:0:0:0:
256,192,49801,1,0,0:0:0:0:
332,324,49959,1,8,0:0:0:0:
360,176,50117,1,0,0:0:0:0:
464,64,50275,1,8,0:0:0:0:
312,80,50433,1,0,0:0:0:0:
84,56,50591,5,8,0:0:0:0:
40,252,50749,1,0,0:0:0:0:
144,156,50907,1,8,0:0:0:0:
148,300,51065,1,0,0:0:0:0:
276,240,51222,1,8,0:0:0:0:
304,100,51380,1,0,0:0:0:0:
188,20,51538,1,8,0:0:0:0:
144,156,51696,1,0,0:0:0:0:
44,212,51854,5,8,0:0:0:0:
76,246,51933,1,0,0:0:0:0:
119,264,52012,1,0,0:0:0:0:
166,263,52091,1,0,0:0:0:0:
200,248,52170,2,0,L|264:248,4,47.5
428,76,53117,6,8,B|348:100|348:100|192:60,1,231.799990450135
92,212,53591,1,0,0:0:0:0:
96,216,53670,1,0,0:0:0:0:
96,216,53749,1,0,0:0:0:0:
48,336,53907,1,0,0:0:0:0:
192,284,54065,2,0,L|308:284,1,115.899995225067,8|0,0:0|0:0,0:0:0:0:
436,88,54380,5,0,0:0:0:0:
436,88,54538,1,0,0:0:0:0:
276,120,54696,2,0,P|248:76|240:12,1,115.899995225067,8|0,0:0|0:0,0:0:0:0:
196,168,55012,2,0,L|128:268,1,115.899995225067,8|0,0:0|0:0,0:0:0:0:
132,88,55328,1,0,0:0:0:0:
132,88,55486,2,0,P|196:80|300:208,1,231.799990450135,8|0,0:0|0:0,0:0:0:0:
404,100,55959,6,0,L|440:-16,1,115.899995225067,8|0,0:0|0:0,0:0:0:0:
304,248,56275,2,0,L|260:128,1,115.899995225067
392,304,56591,2,8,P|336:348|284:352,1,115.899995225067,8|0,0:0|0:0,0:0:0:0:
156,196,56907,5,0,0:0:0:0:
156,196,56986,1,0,0:0:0:0:
156,196,57065,1,0,0:0:0:0:
92,332,57222,1,8,0:0:0:0:
248,252,57380,1,0,0:0:0:0:
140,116,57538,2,0,L|24:92,1,115.899995225067
236,84,57854,5,0,0:0:0:0:
236,84,58012,2,0,B|248:156|204:196|204:196|228:248|196:328,1,231.799990450135,8|0,0:0|0:0,0:0:0:0:
360,252,58486,1,0,0:0:0:0:
360,252,58643,1,0,0:0:0:0:
432,132,58801,2,0,P|464:72|500:40,1,115.899995225067
320,84,59117,5,8,0:0:0:0:
320,84,59275,2,0,P|256:156|136:112,1,231.799990450135
132,248,59749,2,0,P|76:292|48:336,1,115.899995225067,8|0,0:0|0:0,0:0:0:0:
52,120,60065,1,0,0:0:0:0:
196,192,60222,1,0,0:0:0:0:
248,112,60380,1,0,0:0:0:0:
248,112,60538,2,0,P|368:132|476:112,1,231.799990450135,8|0,0:0|0:0,0:0:0:0:
388,264,61012,6,0,L|324:360,1,115.899995225067,8|0,0:0|0:0,0:0:0:0:
216,152,61328,2,0,L|212:28,1,115.899995225067,8|0,0:0|0:0,0:0:0:0:
140,260,61643,2,0,L|48:344,1,115.899995225067,8|0,0:0|0:0,0:0:0:0:
128,168,61959,1,8,0:0:0:0:
167,176,62038,1,0,0:0:0:0:
200,199,62117,1,0,0:0:0:0:
222,233,62196,1,0,0:0:0:0:
229,273,62275,1,8,0:0:0:0:
226,308,62354,5,0,0:0:0:0:
229,273,62433,1,0,0:0:0:0:
240,240,62512,1,0,0:0:0:0:
256,209,62591,1,8,0:0:0:0:
392,100,62749,5,0,0:0:0:0:
199,140,62907,2,0,L|63:140,1,115.899995225067
128,320,63222,5,8,0:0:0:0:
84,140,63380,1,0,0:0:0:0:
220,312,63538,5,8,0:0:0:0:
188,84,63696,1,0,0:0:0:0:
336,320,63854,5,8,0:0:0:0:
308,44,64012,1,0,0:0:0:0:
144,268,64170,6,0,L|24:268,1,115.899995225067,8|0,0:0|0:0,0:0:0:0:
368,116,64486,6,0,L|483:116,1,115.899995225067,8|0,0:0|0:0,0:0:0:0:
300,216,64801,2,0,P|260:152|256:92,1,115.899995225067,8|0,0:0|0:0,0:0:0:0:
188,276,65117,2,0,L|96:348,1,115.899995225067,8|0,0:0|0:0,0:0:0:0:
120,176,65433,1,0,0:0:0:0:
120,176,65591,2,0,P|136:120|288:128,1,231.799990450135,8|0,0:0|0:0,0:0:0:0:
396,236,66065,5,8,0:0:0:0:
276,344,66222,1,0,0:0:0:0:
396,236,66380,5,8,0:0:0:0:
236,248,66538,1,0,0:0:0:0:
392,232,66696,5,8,0:0:0:0:
268,148,66854,1,0,0:0:0:0:
392,232,67012,5,8,0:0:0:0:
348,84,67170,1,0,0:0:0:0:
400,240,67328,6,0,L|268:240,1,115.899995225067,8|0,0:0|0:0,0:0:0:0:
112,144,67643,6,0,L|244:144,1,115.899995225067,8|0,0:0|0:0,0:0:0:0:
116,292,67959,1,8,0:0:0:0:
116,292,68038,1,0,0:0:0:0:
116,292,68117,2,0,B|152:224|128:176|128:176|88:116|116:64,1,231.799990450135,8|0,0:0|0:0,0:0:0:0:
316,124,68591,5,8,0:0:0:0:
176,280,68749,1,0,0:0:0:0:
348,164,68907,5,8,0:0:0:0:
148,229,69065,1,0,0:0:0:0:
356,216,69222,5,8,0:0:0:0:
150,172,69380,1,0,0:0:0:0:
336,264,69538,5,8,0:0:0:0:
179,123,69696,1,0,0:0:0:0:
372,92,69854,6,0,P|414:85|383:123,1,115.899995225067,8|0,0:0|0:0,0:0:0:0:
140,292,70170,6,0,P|97:298|128:260,1,115.899995225067,8|0,0:0|0:0,0:0:0:0:
220,116,70486,1,0,0:0:0:0:
220,116,70643,2,0,P|288:116|356:48,1,155.800002377319,8|0,0:0|0:0,0:0:0:0:
424,256,71117,1,0,0:0:0:0:
424,256,71275,1,0,0:0:0:0:
256,336,71433,6,0,L|136:336,1,115.899995225067,8|0,0:0|0:0,0:0:0:0:
244,180,71749,2,0,P|284:116|332:96,1,115.899995225067,8|0,0:0|0:0,0:0:0:0:
288,268,72065,1,0,0:0:0:0:
246,265,72170,1,0,0:0:0:0:
208,249,72275,1,0,0:0:0:0:
177,222,72380,1,0,0:0:0:0:
158,185,72486,1,0,0:0:0:0:
151,145,72591,1,0,0:0:0:0:
96,248,72696,5,0,0:0:0:0:
86,277,72801,1,0,0:0:0:0:
76,307,72907,1,0,0:0:0:0:
48,128,73012,5,0,0:0:0:0:
48,128,73170,1,0,0:0:0:0:
236,64,73328,6,0,P|300:64|360:48,1,115.899995225067
236,216,73643,1,0,0:0:0:0:
236,216,73722,1,0,0:0:0:0:
236,216,73801,1,0,0:0:0:0:
128,112,73959,2,0,L|48:24,1,115.899995225067
120,248,74275,5,0,0:0:0:0:
120,248,74354,1,0,0:0:0:0:
124,252,74433,1,0,0:0:0:0:
272,340,74591,2,0,L|404:340,1,115.899995225067
288,196,74907,5,0,0:0:0:0:
288,196,74986,1,0,0:0:0:0:
288,196,75065,1,0,0:0:0:0:
176,332,75222,2,0,L|52:332,1,115.899995225067
172,196,75538,5,0,0:0:0:0:
172,196,75617,1,0,0:0:0:0:
172,196,75696,1,0,0:0:0:0:
48,252,75854,2,0,P|35:187|48:132,1,115.899995225067
188,36,76170,5,0,0:0:0:0:
188,36,76249,1,0,0:0:0:0:
188,36,76328,1,0,0:0:0:0:
172,196,76486,2,0,L|296:196,1,115.899995225067
436,48,76801,5,0,0:0:0:0:
436,48,76880,1,0,0:0:0:0:
436,48,76959,1,0,0:0:0:0:
424,256,77117,2,0,P|392:296|384:372,1,115.899995225067
287,196,77433,5,0,0:0:0:0:
287,196,77512,1,0,0:0:0:0:
287,196,77591,1,0,0:0:0:0:
160,76,77749,2,0,L|280:76,1,115.899995225067
188,252,78065,2,0,L|112:360,1,115.899995225067
36,176,78380,5,0,0:0:0:0:
68,181,78459,1,0,0:0:0:0:
101,180,78538,1,0,0:0:0:0:
134,174,78617,1,0,0:0:0:0:
165,161,78696,1,0,0:0:0:0:
192,143,78775,1,0,0:0:0:0:
216,120,78854,1,0,0:0:0:0:
235,93,78933,1,0,0:0:0:0:
249,62,79012,6,0,L|224:12,1,47.5
348,108,79170,2,0,L|384:168,1,47.5
228,188,79328,2,0,L|200:236,1,47.5
348,272,79486,2,0,L|376:328,1,47.5
452,192,79643,6,0,L|460:140,7,47.5
464,108,80275,5,0,0:0:0:0:
431,88,80354,1,0,0:0:0:0:
402,64,80433,1,0,0:0:0:0:
376,36,80512,1,0,0:0:0:0:
356,27,80591,1,0,0:0:0:0:
341,62,80670,1,0,0:0:0:0:
322,95,80749,1,0,0:0:0:0:
299,124,80828,1,0,0:0:0:0:
272,152,80907,2,0,L|233:98,3,47.5
224,80,81222,5,0,0:0:0:0:
192,100,81301,1,0,0:0:0:0:
155,109,81380,1,0,0:0:0:0:
117,105,81459,1,0,0:0:0:0:
84,88,81538,2,0,L|52:144,3,47.5
80,160,81854,5,0,0:0:0:0:
101,191,81933,1,0,0:0:0:0:
115,226,82012,1,0,0:0:0:0:
120,264,82091,1,0,0:0:0:0:
116,304,82170,2,0,L|161:290,3,47.5
192,268,82486,5,0,0:0:0:0:
223,239,82565,1,0,0:0:0:0:
262,222,82643,1,0,0:0:0:0:
305,219,82722,1,0,0:0:0:0:
346,229,82801,1,0,0:0:0:0:
381,253,82880,1,0,0:0:0:0:
408,284,82959,6,0,L|432:236,1,47.5
356,172,83117,2,0,L|332:100,1,47.5
440,72,83275,2,0,L|456:24,1,47.5
256,192,83433,12,4,88328,0:0:0:0:
