osu file format v14

[General]
AudioFilename: audio.mp3
AudioLeadIn: 0
PreviewTime: 53008
Countdown: 1
SampleSet: Soft
StackLeniency: 0.7
Mode: 2
LetterboxInBreaks: 0
WidescreenStoryboard: 0

[Editor]
Bookmarks: 83797
DistanceSpacing: 1.3
BeatDivisor: 4
GridSize: 8
TimelineZoom: 1

[Metadata]
Title:99 (TV SIZE)
TitleUnicode:99 (TV SIZE)
Artist:MOB CHOIR
ArtistUnicode:MOB CHOIR
Creator:brenkip
Version:MOB-erdose
Source:MOB PYSCHO 100
Tags:
BeatmapID:1354038
BeatmapSetID:638287

[Difficulty]
HPDrainRate:6
CircleSize:4
OverallDifficulty:9.3
ApproachRate:9.3
SliderMultiplier:1.6
SliderTickRate:1

[Events]
//Background and Video events
0,0,"Mob Psycho 100 - 08 - Large 03.jpg",0,0
//Break Periods
//Storyboard Layer 0 (Background)
//Storyboard Layer 1 (Fail)
//Storyboard Layer 2 (Pass)
//Storyboard Layer 3 (Foreground)
//Storyboard Sound Samples

[TimingPoints]
429,315.790317460317,4,2,0,100,1,0
2955,-125,4,2,0,100,0,0
3600,-125,4,2,0,20,0,0
11639,-125,4,2,0,100,0,0
13060,-100,4,2,0,50,0,0
17718,-100,4,3,0,50,0,0
18113,-100,4,2,0,70,0,0
20955,-100,4,3,0,70,0,0
21586,-100,4,2,0,70,0,0
43376,-100,4,2,0,30,0,0
48429,-100,4,2,0,50,0,0
52218,-100,4,2,0,80,0,0
53481,-100,4,2,0,80,0,1
62166,-100,4,3,0,45,0,1
62955,-100,4,3,0,100,0,1
63587,-100,4,1,0,30,0,1
68008,-100,4,3,0,30,0,0
73692,-100,4,1,0,50,0,1
83797,-100,4,2,0,100,0,0

[HitObjects]
368,192,429,6,0,L|440:192,2,40
160,248,1060,5,0,0:0:0:0:
112,224,1139,1,0,0:0:0:0:
96,176,1218,1,0,0:0:0:0:
392,112,1297,1,0,0:0:0:0:
432,136,1376,1,0,0:0:0:0:
456,184,1455,1,0,0:0:0:0:
408,224,1534,1,0,0:0:0:0:
152,112,1613,5,0,0:0:0:0:
88,128,1692,1,0,0:0:0:0:
72,176,1771,1,0,0:0:0:0:
104,240,1850,1,0,0:0:0:0:
400,264,1929,1,0,0:0:0:0:
464,232,2007,1,0,0:0:0:0:
464,160,2086,1,0,0:0:0:0:
432,128,2165,1,0,0:0:0:0:
376,112,2244,1,0,0:0:0:0:
88,128,2323,5,0,0:0:0:0:
352,288,2955,6,0,B|504:288|504:288|504:184|504:184|144:184|144:184|144:112|144:112|456:112,1,992
416,72,5481,6,0,B|328:72|328:72|120:72|120:72|120:184|120:184|496:184|496:184|496:264|496:264|352:264,1,992
336,264,8007,6,0,B|208:264|208:264|176:304|176:304|88:304|88:304|88:112|88:112|192:112|192:112|312:112|312:112|312:48|312:48|216:48|216:48|64:48|64:48,1,992
336,128,10534,6,0,P|408:184|320:240,1,224
152,136,11165,6,0,P|104:200|176:248,1,160
376,144,11639,6,0,P|416:192|368:240,1,128,4|0,0:0|0:0,0:0:0:0:
256,80,13060,6,0,L|160:80,1,80
344,112,13376,1,0,0:0:0:0:
408,176,13534,1,0,0:0:0:0:
248,192,13692,2,0,L|360:192,1,80
168,192,14007,1,0,0:0:0:0:
88,256,14165,1,0,0:0:0:0:
408,264,14323,6,0,L|512:264,1,80
304,264,14639,1,0,0:0:0:0:
240,192,14797,1,0,0:0:0:0:
392,192,14955,2,0,L|296:192,1,80
464,192,15271,2,0,P|512:160|496:88,1,120
256,96,15586,6,0,L|152:96,1,80
344,96,15902,2,0,L|432:96,1,80
112,96,16218,2,0,L|32:96,1,80
200,96,16534,1,0,0:0:0:0:
344,96,16692,1,0,0:0:0:0:
200,96,16850,2,0,L|96:96,1,80
416,96,17165,2,0,L|504:96,1,80
168,88,17481,2,0,L|72:88,1,80
40,96,17718,5,0,0:0:0:0:
0,128,17797,1,0,0:0:0:0:
0,176,17876,1,0,0:0:0:0:
40,208,17955,1,0,0:0:0:0:
88,208,18034,1,0,0:0:0:0:
352,192,18113,6,0,L|456:192,2,80
200,192,18586,1,0,0:0:0:0:
488,136,18744,2,0,L|408:136,2,80
336,136,19218,1,0,0:0:0:0:
176,136,19376,2,0,L|288:136,1,80
104,136,19692,2,0,L|56:264,1,120
344,248,20007,6,0,L|240:248,1,80
400,248,20323,1,0,0:0:0:0:
232,248,20481,1,0,0:0:0:0:
392,192,20639,2,0,L|280:192,1,80
456,192,20955,5,0,0:0:0:0:
504,168,21034,1,0,0:0:0:0:
496,112,21113,1,0,0:0:0:0:
448,96,21192,1,0,0:0:0:0:
136,88,21271,1,0,0:0:0:0:
88,120,21350,1,0,0:0:0:0:
96,176,21429,1,0,0:0:0:0:
152,192,21508,1,0,0:0:0:0:
392,192,21586,6,0,L|432:192,1,40
152,192,21744,2,0,L|96:192,1,40
392,192,21902,2,0,L|512:192,1,120
320,192,22218,2,0,P|288:216|280:272,1,80
448,192,22534,2,0,P|472:152|456:96,1,80
64,192,22850,1,0,0:0:0:0:
24,216,22929,1,0,0:0:0:0:
32,264,23008,1,0,0:0:0:0:
80,272,23086,1,0,0:0:0:0:
384,192,23165,6,0,L|464:192,1,80
296,192,23481,2,0,L|184:192,1,80
384,136,23797,2,0,L|256:136,1,120
440,136,24113,2,0,P|488:168|496:200,1,80
168,136,24429,2,0,P|128:112|120:80,1,80
296,56,24744,2,0,L|392:56,1,80
200,56,25060,2,0,L|104:56,1,80
288,56,25376,2,0,P|320:104|312:168,1,120
40,192,25692,2,0,P|24:240|56:288,1,80
184,264,26008,6,0,L|72:264,2,80
336,264,26481,2,0,L|416:264,1,80
112,264,26797,2,0,L|8:264,1,80
392,264,27113,2,0,L|488:264,1,80
296,264,27429,1,0,0:0:0:0:
472,264,27586,2,0,P|496:208|448:152,1,120
200,192,27902,6,0,L|96:192,1,80
280,192,28218,2,0,L|344:120,1,80
152,96,28534,2,0,L|264:96,2,80
448,96,29008,1,0,0:0:0:0:
288,96,29165,2,0,L|176:96,1,80
504,96,29481,2,0,P|520:144|488:184,1,80
344,192,29797,2,0,L|488:200,1,120
200,192,30113,6,0,L|112:208,1,80
288,200,30429,1,0,0:0:0:0:
368,256,30586,1,0,0:0:0:0:
296,328,30744,1,0,0:0:0:0:
160,328,30902,2,0,L|80:352,1,80
256,328,31218,1,0,0:0:0:0:
112,280,31376,5,0,0:0:0:0:
416,280,31534,2,0,L|512:280,2,80
256,280,32008,2,0,L|360:280,1,80
176,280,32323,2,0,L|72:280,1,80
256,280,32639,2,0,L|136:280,1,120
344,280,32955,2,0,L|360:216,1,40
408,232,33113,2,0,L|424:176,1,40
176,192,33271,6,0,L|80:192,1,80
256,152,33586,2,0,L|360:152,2,80
104,152,34060,1,0,0:0:0:0:
256,152,34218,2,0,L|104:152,1,120
416,152,34534,6,0,P|448:176|480:232,1,80
312,248,34850,2,0,P|256:256|208:248,1,80
400,248,35165,2,0,P|400:304|384:336,1,80
88,320,35481,2,0,P|80:280|80:232,1,80
216,200,35797,5,0,0:0:0:0:
72,200,35955,1,0,0:0:0:0:
192,152,36113,2,0,L|104:152,2,80
344,152,36586,1,0,0:0:0:0:
48,152,36744,1,0,0:0:0:0:
208,152,36902,2,0,L|296:152,1,80
112,152,37218,2,0,L|200:152,2,80
264,152,37692,2,0,L|416:152,1,120
112,152,38008,6,0,L|104:88,1,40
48,112,38165,2,0,L|40:48,1,40
320,64,38323,6,0,L|416:64,1,80
248,64,38639,1,0,0:0:0:0:
336,128,38797,1,0,0:0:0:0:
176,128,38955,2,0,L|96:128,1,80
256,128,39271,1,0,0:0:0:0:
152,192,39429,2,0,L|240:192,1,80
384,192,39744,1,0,0:0:0:0:
80,288,39902,2,0,L|24:232,1,80
432,288,40218,2,0,L|488:232,1,80
344,288,40534,2,0,L|208:272,1,120
424,192,40850,6,0,L|504:192,1,80
120,192,41165,2,0,L|40:192,2,80
264,192,41639,1,0,0:0:0:0:
152,144,41797,1,0,0:0:0:0:
312,144,41955,2,0,L|408:144,1,80
240,144,42271,1,0,0:0:0:0:
400,144,42429,1,0,0:0:0:0:
64,144,42587,1,0,0:0:0:0:
192,144,42744,2,0,B|128:152|128:152|80:232,1,120
392,224,43060,6,0,B|448:208|448:208|472:136,1,120
192,144,43376,5,0,0:0:0:0:
168,200,43455,1,0,0:0:0:0:
336,144,43692,1,0,0:0:0:0:
360,88,43771,1,0,0:0:0:0:
168,144,44008,1,0,0:0:0:0:
152,88,44087,1,0,0:0:0:0:
336,176,44323,1,0,0:0:0:0:
368,216,44402,1,0,0:0:0:0:
192,280,44639,5,0,0:0:0:0:
120,248,44797,1,0,0:0:0:0:
104,176,44955,1,0,0:0:0:0:
144,112,45113,1,0,0:0:0:0:
432,112,45271,1,0,0:0:0:0:
488,176,45429,1,0,0:0:0:0:
472,256,45587,1,0,0:0:0:0:
392,296,45744,1,0,0:0:0:0:
48,232,45902,5,0,0:0:0:0:
40,176,45981,1,0,0:0:0:0:
208,232,46218,1,0,0:0:0:0:
224,176,46297,1,0,0:0:0:0:
72,160,46534,1,0,0:0:0:0:
64,104,46613,1,0,0:0:0:0:
232,152,46850,1,0,0:0:0:0:
248,104,46929,1,0,0:0:0:0:
152,104,47165,6,0,L|24:104,1,120
360,128,47481,2,0,L|416:128,1,40
208,112,47639,2,0,L|144:112,1,40
384,176,47797,2,0,L|448:176,1,40
112,200,47955,2,0,L|64:200,1,40
472,152,48113,2,0,L|480:104,1,40
128,256,48271,2,0,L|72:256,1,40
312,256,48429,6,0,L|416:256,2,80
168,248,48902,1,0,0:0:0:0:
296,192,49060,2,0,L|192:192,1,80
368,192,49376,2,0,L|472:192,1,80
104,192,49692,1,0,0:0:0:0:
248,192,49850,1,0,0:0:0:0:
104,144,50008,2,0,L|32:200,1,80
400,128,50323,2,0,L|472:80,1,80
144,88,50639,2,0,L|32:56,1,80
376,80,50876,6,0,L|400:136,1,40
144,88,51034,2,0,L|88:96,1,40
144,136,51192,1,0,0:0:0:0:
328,136,51271,6,0,L|448:136,1,120
264,136,51587,2,0,P|232:176|224:216,1,80
384,224,51902,2,0,P|416:200|432:144,1,80
264,232,52218,6,0,L|136:224,1,120
384,232,52534,2,0,P|424:240|488:216,1,80
128,160,52850,2,0,P|88:152|24:184,1,80
296,152,53481,6,0,L|392:152,1,80
208,152,53797,2,0,P|168:176|128:224,1,80
312,208,54113,1,0,0:0:0:0:
160,256,54271,2,0,L|64:256,1,80
424,264,54587,2,0,L|464:184,1,80
72,192,54902,2,0,L|24:264,1,80
192,192,55218,2,0,L|88:192,1,80
416,184,55534,6,0,L|464:184,2,40
256,128,55850,2,0,L|360:128,1,80
176,88,56165,2,0,L|272:88,1,80
112,88,56481,2,0,L|8:88,1,80
176,88,56797,1,0,0:0:0:0:
336,88,56955,1,0,0:0:0:0:
176,88,57113,6,0,L|96:88,1,80
400,88,57429,2,0,L|488:88,1,80
184,88,57744,2,0,L|96:88,1,80
256,88,58060,5,0,0:0:0:0:
312,112,58139,1,0,0:0:0:0:
304,168,58218,1,0,0:0:0:0:
248,176,58297,1,0,0:0:0:0:
80,192,58376,2,0,P|56:232|56:272,1,80
408,192,58692,1,0,0:0:0:0:
280,184,58850,2,0,P|232:176|184:160,1,80
496,136,59165,2,0,P|512:192|480:256,1,120
104,192,59481,6,0,P|96:152|104:88,1,80
240,104,59797,1,0,0:0:0:0:
128,48,59955,1,0,0:0:0:0:
304,40,60113,2,0,L|168:32,1,120
384,48,60429,2,0,P|416:96|416:144,1,80
256,216,60744,6,0,P|312:208|424:208,2,160
420,208,61534,2,0,P|452:176|468:120,1,80
112,128,61850,2,0,P|80:176|80:216,1,80
400,104,62166,1,0,0:0:0:0:
448,136,62244,1,0,0:0:0:0:
456,184,62323,1,0,0:0:0:0:
416,224,62402,1,0,0:0:0:0:
360,216,62481,1,0,0:0:0:0:
128,224,62560,5,0,0:0:0:0:
80,208,62639,1,0,0:0:0:0:
56,160,62718,1,0,0:0:0:0:
72,120,62797,1,0,0:0:0:0:
120,104,62876,1,0,0:0:0:0:
360,96,62955,2,0,P|416:80|480:104,1,120
288,112,63271,2,0,P|248:144|224:192,1,80
424,192,63587,6,0,P|448:144|440:96,1,80
288,112,63902,2,0,L|184:112,1,80
368,64,64218,2,0,L|256:64,1,80
144,64,64534,2,0,P|104:104|80:144,1,80
424,64,64850,2,0,P|456:112|472:160,1,80
312,168,65166,2,0,L|176:168,1,120
384,176,65481,6,0,P|408:216|424:264,1,80
272,272,65797,2,0,L|368:272,2,80
144,192,66271,1,0,0:0:0:0:
440,200,66429,1,0,0:0:0:0:
272,192,66587,1,0,0:0:0:0:
400,144,66744,2,0,L|304:144,2,80
256,104,67218,2,0,L|168:104,1,80
344,104,67534,2,0,L|440:104,1,80
256,64,67850,2,0,L|152:64,1,80
472,64,68166,5,0,0:0:0:0:
176,64,68323,2,0,L|368:64,1,160
176,64,68797,1,0,0:0:0:0:
480,64,68955,2,0,L|312:64,1,160
176,64,69429,1,0,0:0:0:0:
320,64,69587,2,0,L|448:64,1,120
248,64,69902,2,0,L|176:152,1,80
360,184,70218,2,0,L|504:184,1,120
288,192,70534,2,0,L|232:304,1,120
424,280,70850,6,0,P|464:256|480:192,1,80
176,192,71166,2,0,P|112:192|48:256,1,120
248,192,71481,2,0,P|312:208|328:224,1,80
152,152,71797,2,0,P|112:144|48:72,1,120
272,64,72113,2,0,P|312:56|368:80,1,80
208,72,72429,5,0,0:0:0:0:
160,104,72508,1,0,0:0:0:0:
152,160,72587,1,0,0:0:0:0:
184,208,72666,1,0,0:0:0:0:
240,216,72744,1,0,0:0:0:0:
416,184,73060,6,0,L|472:184,1,40
104,112,73218,2,0,L|56:112,1,40
408,216,73376,2,0,L|448:256,1,40
104,160,73534,2,0,L|64:200,1,40
336,312,73692,6,0,L|432:312,1,80
256,264,74008,1,0,0:0:0:0:
376,264,74166,1,0,0:0:0:0:
88,264,74323,2,0,L|0:264,1,80
168,264,74639,1,0,0:0:0:0:
48,264,74797,1,0,0:0:0:0:
384,192,74955,6,0,L|480:192,1,80
304,128,75271,2,0,L|208:128,2,80
152,128,75744,1,0,0:0:0:0:
304,64,75902,2,0,L|392:64,1,80
88,72,76218,2,0,P|48:120|24:200,1,120
256,192,76534,6,0,P|304:200|376:208,1,120
152,192,76850,2,0,P|128:232|112:272,1,80
464,200,77166,2,0,P|448:152|392:80,1,120
136,88,77481,2,0,P|200:96|240:88,1,80
352,64,77797,2,0,P|280:48|200:48,1,120
440,80,78113,6,0,P|472:144|472:176,1,80
328,192,78429,2,0,P|376:216|464:224,1,120
136,272,78744,5,0,0:0:0:0:
88,248,78823,1,0,0:0:0:0:
72,184,78902,1,0,0:0:0:0:
104,136,78981,1,0,0:0:0:0:
376,80,79060,1,0,0:0:0:0:
432,120,79139,1,0,0:0:0:0:
448,200,79218,1,0,0:0:0:0:
400,248,79297,1,0,0:0:0:0:
216,304,79376,5,0,0:0:0:0:
160,288,79455,1,0,0:0:0:0:
376,296,79534,1,0,0:0:0:0:
424,240,79613,1,0,0:0:0:0:
168,192,79692,6,0,L|112:192,1,40
208,192,79850,2,0,L|208:120,1,40
416,128,80008,2,0,L|472:128,1,40
352,120,80166,2,0,L|368:56,1,40
160,48,80323,5,0,0:0:0:0:
112,80,80402,1,0,0:0:0:0:
88,136,80481,1,0,0:0:0:0:
104,208,80560,1,0,0:0:0:0:
408,288,80639,6,0,P|456:256|480:208,1,80
504,192,80876,1,0,0:0:0:0:
464,144,80955,1,0,0:0:0:0:
408,136,81034,1,0,0:0:0:0:
160,136,81113,2,0,L|112:120,1,40
280,136,81271,2,0,L|352:128,1,40
120,168,81429,6,0,L|48:216,1,80
96,232,81666,1,0,0:0:0:0:
128,288,81745,1,0,0:0:0:0:
200,272,81823,1,0,0:0:0:0:
416,248,81902,6,0,P|352:224|304:216,1,80
288,248,82139,1,0,0:0:0:0:
208,224,82218,1,0,0:0:0:0:
176,160,82297,1,0,0:0:0:0:
208,104,82376,1,0,0:0:0:0:
264,88,82455,5,0,0:0:0:0:
448,80,82534,6,0,P|480:112|488:144,1,80
456,192,82771,1,0,0:0:0:0:
392,216,82850,1,0,0:0:0:0:
184,224,82929,1,0,0:0:0:0:
120,208,83008,1,0,0:0:0:0:
120,136,83087,1,0,0:0:0:0:
352,200,83166,6,0,P|392:200|488:224,1,120
224,192,83481,2,0,P|176:192|120:200,1,80
256,192,83797,12,0,88692,0:0:0:0:
