osu file format v14

[General]
AudioFilename: audio.mp3
AudioLeadIn: 0
PreviewTime: 52787
Countdown: 0
SampleSet: Normal
StackLeniency: 0.7
Mode: 1
LetterboxInBreaks: 0
WidescreenStoryboard: 1

[Editor]
Bookmarks: 2835,12940,23045,33150,43256,53361,63466,73571,83677
DistanceSpacing: 1.7
BeatDivisor: 2
GridSize: 32
TimelineZoom: 1

[Metadata]
Title:99
TitleUnicode:99
Artist:MOB CHOIR
ArtistUnicode:MOB CHOIR
Creator:DakeDekaane
Version:Kantan
Source:モブサイコ100
Tags:Mob Psycho 100 opening tv size
BeatmapID:1168641
BeatmapSetID:551763

[Difficulty]
HPDrainRate:8
CircleSize:5
OverallDifficulty:4
ApproachRate:5
SliderMultiplier:1.4
SliderTickRate:1

[Events]
//Background and Video events
0,0,"mob_psycho_100_wallpaper__opening_style_of_city__by_paulikaiser-dahy19g.jpg",0,0
//Break Periods
//Storyboard Layer 0 (Background)
//Storyboard Layer 1 (Fail)
//Storyboard Layer 2 (Pass)
//Storyboard Layer 3 (Foreground)
//Storyboard Sound Samples

[TimingPoints]
2835,315.789473684211,4,1,0,100,1,0
53361,-100,4,1,0,100,0,1
63466,-100,4,1,0,100,0,0
73571,-100,4,1,0,100,0,1
83677,-100,4,1,0,100,0,0

[HitObjects]
256,192,2835,5,4,0:0:0:0:
256,192,5361,1,0,0:0:0:0:
256,192,7887,1,8,0:0:0:0:
256,192,10413,1,8,0:0:0:0:
256,192,11519,1,12,0:0:0:0:
256,192,12940,12,0,17361,0:0:0:0:
256,192,17992,5,4,0:0:0:0:
256,192,18624,1,4,0:0:0:0:
256,192,19256,1,4,0:0:0:0:
256,192,19887,1,4,0:0:0:0:
256,192,20519,1,4,0:0:0:0:
256,192,21150,1,4,0:0:0:0:
256,192,21782,1,4,0:0:0:0:
256,192,23045,5,0,0:0:0:0:
256,192,23677,1,0,0:0:0:0:
256,192,24308,1,0,0:0:0:0:
256,192,24940,1,0,0:0:0:0:
256,192,25571,1,0,0:0:0:0:
256,192,28098,1,0,0:0:0:0:
256,192,28729,1,0,0:0:0:0:
256,192,29361,1,0,0:0:0:0:
256,192,29992,1,0,0:0:0:0:
256,192,33150,5,0,0:0:0:0:
256,192,33782,1,0,0:0:0:0:
256,192,34413,1,0,0:0:0:0:
256,192,35045,1,0,0:0:0:0:
256,192,35677,1,0,0:0:0:0:
256,192,38203,1,0,0:0:0:0:
256,192,38835,1,0,0:0:0:0:
256,192,39466,1,0,0:0:0:0:
256,192,40098,1,0,0:0:0:0:
256,192,43571,5,4,0:0:0:0:
256,192,44203,1,4,0:0:0:0:
256,192,46098,1,4,0:0:0:0:
256,192,46729,1,4,0:0:0:0:
256,192,48624,1,12,0:0:0:0:
256,192,49256,1,12,0:0:0:0:
256,192,51150,1,12,0:0:0:0:
256,192,51782,1,12,0:0:0:0:
256,192,53361,5,4,0:0:0:0:
256,192,53992,1,8,0:0:0:0:
256,192,54624,1,0,0:0:0:0:
256,192,55729,1,0,0:0:0:0:
256,192,56519,1,8,0:0:0:0:
256,192,57150,1,0,0:0:0:0:
256,192,58256,1,8,0:0:0:0:
256,192,59045,1,8,0:0:0:0:
256,192,59677,1,0,0:0:0:0:
256,192,60940,12,0,62203,0:0:0:0:
256,192,63466,5,8,0:0:0:0:
256,192,64098,1,8,0:0:0:0:
256,192,64729,1,8,0:0:0:0:
256,192,65835,1,8,0:0:0:0:
256,192,66624,1,8,0:0:0:0:
256,192,67256,1,8,0:0:0:0:
256,192,68361,1,8,0:0:0:0:
256,192,69150,1,8,0:0:0:0:
256,192,69782,1,8,0:0:0:0:
256,192,70887,1,8,0:0:0:0:
256,192,71677,1,8,0:0:0:0:
256,192,72308,1,8,0:0:0:0:
256,192,73571,5,0,0:0:0:0:
256,192,74203,1,0,0:0:0:0:
256,192,74835,1,0,0:0:0:0:
256,192,75466,1,0,0:0:0:0:
256,192,76098,1,0,0:0:0:0:
256,192,76729,1,0,0:0:0:0:
256,192,77361,1,0,0:0:0:0:
256,192,77992,1,0,0:0:0:0:
256,192,78624,1,8,0:0:0:0:
256,192,79256,1,8,0:0:0:0:
256,192,79887,1,8,0:0:0:0:
256,192,80519,1,8,0:0:0:0:
256,192,81150,1,8,0:0:0:0:
256,192,81782,1,8,0:0:0:0:
256,192,82413,1,8,0:0:0:0:
256,192,83045,1,8,0:0:0:0:
256,192,83677,12,0,88571,0:0:0:0:
