osu file format v14

[General]
AudioFilename: audio.mp3
AudioLeadIn: 0
PreviewTime: 113731
Countdown: 0
SampleSet: Soft
StackLeniency: 0.7
Mode: 0
LetterboxInBreaks: 0
WidescreenStoryboard: 0

[Editor]
Bookmarks: 11720,23246,33352,43457,53562,144498,164720,174825,195036,230234
DistanceSpacing: 0.9
BeatDivisor: 4
GridSize: 4
TimelineZoom: 2.5

[Metadata]
Title:99
TitleUnicode:99
Artist:MOB CHOIR
ArtistUnicode:MOB CHOIR
Creator:AirinCat
Version:SALT SPLASH
Source:モブサイコ100
Tags:FuJu Mob Psycho 100 opening first season 1 1st anime japanese english Hyaku One Hundred full version sana sajou no hana rock jrock
BeatmapID:2540648
BeatmapSetID:1221343

[Difficulty]
HPDrainRate:5.8
CircleSize:4
OverallDifficulty:8.8
ApproachRate:9.2
SliderMultiplier:1.6
SliderTickRate:1

[Events]
//Background and Video events
0,0,"shigeo.jpg",0,0
//Break Periods
2,175036,183740
//Storyboard Layer 0 (Background)
//Storyboard Layer 1 (Fail)
//Storyboard Layer 2 (Pass)
//Storyboard Layer 3 (Foreground)
//Storyboard Layer 4 (Overlay)
//Storyboard Sound Samples

[TimingPoints]
521,315.789473684211,4,2,1,30,1,0
1073,-100,4,2,1,32,0,0
1152,-100,4,2,1,36,0,0
1468,-100,4,2,1,40,0,0
1784,-100,4,2,1,45,0,0
2099,-100,4,2,1,50,0,0
2415,-250.000000000001,4,2,1,55,0,0
2731,-250.000000000001,4,2,1,5,0,0
2889,-250.000000000001,4,2,1,10,0,0
3047,-285.714285714286,4,2,1,25,0,0
11731,-64.5161290322581,4,2,1,50,0,0
11810,-64.5161290322581,4,2,1,5,0,0
13152,-125,4,2,1,60,0,0
20731,-90.9090909090909,4,2,1,60,0,0
21994,-125,4,2,1,70,0,0
22942,-125,4,2,1,60,0,0
23257,-83.3333333333333,4,2,1,66,0,0
43152,-111.111111111111,4,2,1,66,0,0
43468,-111.111111111111,4,2,1,50,0,0
45836,-100,4,2,1,60,0,0
48521,-90.9090909090909,4,2,1,70,0,0
52310,-76.9230769230769,4,2,1,70,0,0
53099,-125,4,2,1,40,0,0
53573,-76.9230769230769,4,2,1,76,0,1
63521,-74.0740740740741,4,2,1,80,0,1
72521,-142.857142857143,4,2,1,60,0,0
73784,-100,4,2,1,60,0,0
82626,-100,4,2,1,40,0,0
83573,-142.857142857143,4,2,1,40,0,0
83889,-125,4,2,1,50,0,0
87915,-125,4,2,1,5,0,0
87994,-125,4,2,1,50,0,0
88231,-125,4,2,1,5,0,0
88310,-125,4,2,1,50,0,0
93284,-125,4,2,1,5,0,0
93363,-125,4,2,1,50,0,0
93994,-117.647058823529,4,2,1,56,0,0
99047,-105.263157894737,4,2,1,60,0,0
104099,-86.9565217391306,4,2,1,66,0,0
109152,-83.3333333333333,4,2,1,66,0,0
112942,-76.9230769230769,4,2,1,70,0,0
114205,-76.9230769230769,4,2,1,76,0,1
124152,-74.0740740740741,4,2,1,80,0,1
133152,-76.9230769230769,4,2,1,60,0,0
139468,-76.9230769230769,4,2,1,66,0,0
143257,-100,4,2,1,60,0,0
144521,-76.9230769230769,4,2,1,76,0,0
153363,-76.9230769230769,4,2,1,40,0,0
154468,-76.9230769230769,4,2,1,76,0,0
162521,-71.4285714285714,4,2,1,78,0,0
163310,-83.3333333333333,4,2,1,70,0,0
164415,-111.111111111111,4,2,1,60,0,0
164731,-111.111111111111,4,2,1,50,0,0
169784,-90.9090909090909,4,2,1,70,0,0
172310,-83.3333333333333,4,2,1,70,0,0
184310,-125,4,2,1,30,0,0
184626,-125,4,2,1,5,0,0
184942,-111.111111111111,4,2,1,50,0,0
193784,-111.111111111111,4,2,1,50,0,0
195047,-74.0740740740741,4,2,1,80,0,1
213994,-80,4,2,1,70,0,0
215257,-74.0740740740741,4,2,1,80,0,1
220310,-71.4285714285714,4,2,1,84,0,1
225363,-83.3333333333333,4,2,1,60,0,0
230257,-95.2380952380952,4,2,1,60,0,0

[Colours]
Combo1 : 217,179,255
Combo2 : 187,220,184
Combo3 : 244,174,228
Combo4 : 228,203,203

[HitObjects]
18,338,521,6,0,L|12:294,6,40,2|0|0|0|0|0|0,1:2|2:2|2:2|2:2|2:2|2:2|2:2,2:2:0:0:
77,226,1073,1,8,0:2:0:0:
72,238,1152,2,0,L|66:193,3,40,2|0|0|0,3:2|3:2|3:2|3:2,0:2:0:0:
148,285,1468,2,0,L|153:329,3,40,8|0|0|0,3:2|3:2|3:2|3:2,0:2:0:0:
229,367,1784,6,0,L|281:359,1,40,10|0,0:2|3:2,0:2:0:0:
353,277,1942,1,0,3:2:0:0:
353,277,2021,1,0,3:2:0:0:
353,277,2099,2,0,L|300:284,1,40,8|0,3:2|3:2,0:2:0:0:
205,219,2257,2,0,L|244:213,1,40,8|0,3:2|3:2,0:2:0:0:
320,133,2415,6,0,P|312:84|304:27,1,96,4|0,1:3|0:2,0:2:0:0:
512,192,3047,6,0,P|459:168|410:201,3,111.999996582031,4|2|2|2,1:2|0:2|0:2|0:2,0:2:0:0:
290,359,5573,2,0,P|282:303|270:248,3,111.999996582031,2|2|2|2,0:2|0:2|0:2|0:2,0:2:0:0:
38,324,8099,2,0,B|85:334|85:334|98:328|98:328|147:339,3,111.999996582031,2|2|2|2,0:2|0:2|0:2|0:2,0:2:0:0:
173,52,10626,2,0,P|124:75|116:129,1,111.999996582031,2|2,0:2|0:2,0:2:0:0:
115,127,11731,6,0,L|52:117,1,62.0000004730225,12|0,0:2|0:2,0:2:0:0:
53,117,13152,5,4,1:2:0:0:
166,321,13310,1,4,1:3:0:0:
281,267,13468,5,4,1:3:0:0:
281,267,13784,1,2,0:2:0:0:
281,267,14415,1,2,0:2:0:0:
281,267,15047,1,2,0:2:0:0:
0,181,15521,5,0,1:2:0:0:
0,181,15599,1,0,1:2:0:0:
0,181,15678,1,4,1:2:0:0:
123,12,15836,1,4,1:3:0:0:
231,87,15994,1,4,1:3:0:0:
231,87,16310,1,2,0:2:0:0:
231,87,16942,1,2,0:2:0:0:
308,30,17257,1,2,0:2:0:0:
380,96,17573,2,0,L|372:167,1,64,2|0,1:2|1:2,0:2:0:0:
470,300,17889,2,0,L|485:183,1,96,10|0,0:2|0:2,0:2:0:0:
482,204,18205,5,6,1:3:0:0:
336,331,18363,1,4,1:3:0:0:
348,321,18836,1,6,1:3:0:0:
177,159,18994,1,4,1:3:0:0:
177,173,19468,1,6,1:3:0:0:
34,381,19626,1,4,1:3:0:0:
24,368,20099,1,6,1:3:0:0:
325,236,20257,1,4,1:3:0:0:
309,228,20731,6,0,L|300:178,1,44.0000013427735,10|4,0:3|0:3,0:2:0:0:
279,84,20889,1,10,0:3:0:0:
279,84,20968,1,4,0:3:0:0:
279,84,21047,2,0,L|270:34,3,44.0000013427735,4|4|4|4,0:3|0:3|0:3|0:3,0:2:0:0:
211,152,21363,6,0,L|152:160,1,58.6666684570313,10|8,0:3|0:3,0:2:0:0:
17,163,21573,1,4,0:3:0:0:
11,175,21678,1,4,0:3:0:0:
6,186,21784,2,0,L|65:178,1,58.6666684570313,4|4,0:3|0:3,0:2:0:0:
140,313,21994,6,0,L|127:247,1,64,6|0,1:2|0:2,0:2:0:0:
254,318,22310,2,0,L|275:244,1,64,2|0,0:2|0:2,0:2:0:0:
350,384,22626,2,0,L|407:350,1,64,2|0,0:2|0:2,0:2:0:0:
392,51,22942,5,8,0:2:0:0:
348,60,23021,1,8,0:2:0:0:
329,100,23099,1,8,0:2:0:0:
345,141,23178,1,8,0:2:0:0:
388,159,23257,6,0,P|435:150|498:139,1,95.9999970703126,6|0,1:2|1:2,0:2:0:0:
482,141,23494,1,0,1:2:0:0:
482,141,23573,1,8,0:2:0:0:
423,278,23731,1,0,0:2:0:0:
269,192,23889,2,0,P|276:238|282:287,1,95.9999970703126,2|0,1:2|0:2,0:2:0:0:
100,273,24205,1,8,0:2:0:0:
174,368,24363,1,0,0:2:0:0:
157,157,24521,6,0,P|114:163|59:172,1,95.9999970703126,2|0,1:2|1:2,0:2:0:0:
63,172,24757,1,0,1:2:0:0:
63,172,24836,1,8,0:2:0:0:
161,36,24994,1,0,1:2:0:0:
294,112,25152,2,0,P|368:120|406:57,1,143.999995605469,2|0,1:2|0:2,0:2:0:0:
405,69,25468,2,0,P|387:114|409:155,1,95.9999970703126,8|0,0:2|0:2,0:2:0:0:
512,230,25784,5,2,1:2:0:0:
512,230,25863,1,0,1:2:0:0:
512,230,25942,2,0,P|503:259|506:283,1,47.9999985351563,2|0,1:2|1:2,0:2:0:0:
436,352,26099,1,10,0:2:0:0:
371,246,26257,1,2,0:2:0:0:
296,374,26415,1,2,1:2:0:0:
296,374,26494,1,0,1:2:0:0:
296,374,26573,2,0,P|294:345|284:320,1,47.9999985351563,0|0,1:2|1:2,0:2:0:0:
216,249,26731,1,10,0:0:0:0:
114,368,26889,6,0,B|62:360|62:360|10:288|87:227,1,191.999994140625,2|2,0:2|1:2,0:2:0:0:
76,236,27284,1,0,1:2:0:0:
76,236,27363,1,8,0:2:0:0:
208,332,27521,1,2,1:2:0:0:
281,137,27678,2,0,P|214:148|119:166,1,143.999995605469,2|0,1:2|0:2,0:2:0:0:
140,166,27994,2,0,P|113:127|134:81,1,95.9999970703126,8|0,0:2|0:2,0:2:0:0:
320,226,28310,5,2,1:2:0:0:
320,226,28389,1,0,1:2:0:0:
320,226,28468,2,0,L|313:283,1,47.9999985351563,0|0,1:2|1:2,0:2:0:0:
423,349,28626,2,0,L|409:251,1,95.9999970703126,8|0,0:2|0:2,0:2:0:0:
465,119,28942,1,2,1:2:0:0:
465,119,29021,1,0,1:2:0:0:
465,119,29099,2,0,L|528:126,1,47.9999985351563,0|0,1:2|1:2,0:2:0:0:
452,19,29257,2,0,L|357:40,1,95.9999970703126,8|0,0:2|0:2,0:2:0:0:
187,102,29573,5,2,1:2:0:0:
187,102,29652,1,0,1:0:0:0:
187,102,29731,2,0,L|247:113,1,47.9999985351563,0|0,1:0|1:0,0:0:0:0:
123,32,29889,2,0,P|95:69|100:116,1,95.9999970703126,10|0,0:0|1:0,0:0:0:0:
216,251,30205,2,0,P|290:232|359:218,1,143.999995605469,2|0,1:2|0:2,0:2:0:0:
356,218,30521,2,0,P|386:253|379:302,1,95.9999970703126,8|0,0:2|1:2,0:2:0:0:
156,168,30836,5,0,1:2:0:0:
130,336,30994,1,2,1:2:0:0:
130,336,31073,1,0,1:2:0:0:
130,336,31152,1,8,0:2:0:0:
290,279,31310,2,0,P|248:270|186:256,1,95.9999970703126,2|0,0:2|1:2,0:2:0:0:
19,265,31626,1,2,1:2:0:0:
19,265,31705,1,0,1:2:0:0:
19,265,31784,2,0,P|49:229|44:182,1,95.9999970703126,10|0,0:2|0:2,0:2:0:0:
0,0,32099,5,2,1:2:0:0:
133,88,32257,1,2,1:2:0:0:
133,88,32336,1,0,1:2:0:0:
133,88,32415,2,0,P|185:76|234:68,1,95.9999970703126,10|0,0:2|1:2,0:2:0:0:
377,185,32731,2,0,P|324:220|258:177,1,143.999995605469,2|0,0:2|0:2,0:2:0:0:
261,185,33047,1,8,0:2:0:0:
374,43,33205,1,8,0:2:0:0:
496,208,33363,5,2,1:2:0:0:
496,208,33442,1,0,1:2:0:0:
496,208,33521,2,0,L|503:151,1,47.9999985351563,0|0,1:2|1:2,0:2:0:0:
383,62,33678,2,0,P|387:113|395:179,1,95.9999970703126,12|0,0:2|0:2,0:2:0:0:
317,285,33994,1,2,1:2:0:0:
317,285,34073,1,0,1:2:0:0:
317,285,34152,2,0,L|255:298,1,47.9999985351563,0|0,1:2|1:2,0:2:0:0:
173,176,34310,2,0,P|222:188|274:198,1,95.9999970703126,8|0,0:2|0:2,0:2:0:0:
164,369,34626,5,2,1:2:0:0:
164,369,34705,1,0,1:2:0:0:
164,369,34784,2,0,L|146:312,1,47.9999985351563,0|0,1:2|1:2,0:2:0:0:
77,225,34942,2,0,L|46:331,1,95.9999970703126,10|0,0:2|1:2,0:2:0:0:
173,176,35257,2,0,P|138:115|68:121,1,143.999995605469,2|0,0:2|0:2,0:2:0:0:
71,118,35573,2,0,P|53:65|36:13,1,95.9999970703126,10|0,0:2|1:2,0:2:0:0:
264,80,35889,5,2,1:2:0:0:
264,80,35968,1,0,1:2:0:0:
264,79,36047,2,0,P|286:89|310:88,1,47.9999985351563,0|0,1:2|1:2,0:2:0:0:
415,53,36205,1,10,0:2:0:0:
482,144,36363,1,2,0:2:0:0:
411,230,36521,1,2,1:2:0:0:
411,230,36599,1,0,1:2:0:0:
410,230,36678,2,0,P|400:256|402:281,1,47.9999985351563,0|0,1:2|1:2,0:2:0:0:
493,335,36836,1,10,0:0:0:0:
336,365,36994,6,0,B|274:355|274:355|236:302|236:302|154:289,1,191.999994140625,2|0,0:2|1:2,0:2:0:0:
173,292,37389,1,0,1:2:0:0:
173,292,37468,2,0,P|158:249|181:208,1,95.9999970703126,10|0,0:2|1:2,0:2:0:0:
171,9,37784,2,0,P|152:74|84:81,1,143.999995605469,2|0,0:2|0:2,0:2:0:0:
84,81,38099,1,8,0:2:0:0:
229,129,38257,1,2,0:2:0:0:
13,176,38415,5,2,1:2:0:0:
13,176,38494,1,0,1:2:0:0:
13,176,38573,1,0,1:2:0:0:
173,292,38731,1,12,0:2:0:0:
20,316,38889,1,0,0:2:0:0:
121,189,39047,2,0,L|232:210,1,95.9999970703126,2|0,1:2|1:2,0:2:0:0:
215,206,39284,1,0,1:2:0:0:
215,206,39363,1,8,0:2:0:0:
290,335,39521,1,0,0:2:0:0:
395,168,39678,6,0,L|380:272,1,95.9999970703126,2|0,1:2|1:2,0:2:0:0:
381,264,39915,1,0,1:2:0:0:
381,264,39994,1,12,0:2:0:0:
512,177,40152,1,0,1:2:0:0:
394,69,40310,2,0,P|328:82|244:90,1,143.999995605469,2|0,0:2|0:2,0:2:0:0:
251,89,40626,2,0,P|280:131|269:176,1,95.9999970703126,10|2,0:2|1:2,0:2:0:0:
140,24,40942,5,0,1:2:0:0:
38,179,41099,1,0,1:2:0:0:
38,179,41178,1,0,1:2:0:0:
38,179,41257,2,0,P|86:167|138:157,1,95.9999970703126,10|0,0:2|1:2,0:2:0:0:
239,362,41573,2,0,B|169:320|169:320|151:246|221:224,1,191.999994140625,2|8,1:2|0:2,0:2:0:0:
78,355,42047,1,2,0:2:0:0:
131,158,42205,5,10,0:2:0:0:
291,293,42363,1,2,1:2:0:0:
291,293,42442,1,0,1:2:0:0:
291,293,42521,1,0,1:2:0:0:
431,128,42678,1,10,0:2:0:0:
304,163,42836,1,2,1:2:0:0:
304,163,42915,1,0,1:2:0:0:
304,163,42994,1,0,1:2:0:0:
396,334,43152,2,0,L|486:316,1,71.9999978027344,8|8,0:2|0:3,0:2:0:0:
298,10,43468,5,4,1:2:0:0:
298,10,43784,2,0,L|309:87,1,71.9999978027344,10|0,0:2|0:2,0:2:0:0:
211,142,44099,1,8,0:2:0:0:
196,149,44178,1,8,0:2:0:0:
306,264,44415,1,10,0:2:0:0:
325,259,44494,1,8,0:2:0:0:
158,361,44731,6,0,P|122:353|87:346,1,71.9999978027344,8|0,0:3|0:2,0:2:0:0:
3,271,45047,1,10,0:2:0:0:
7,252,45126,1,8,0:2:0:0:
125,119,45363,1,10,0:0:0:0:
217,206,45521,1,10,0:0:0:0:
314,118,45678,1,10,0:3:0:0:
229,43,45836,5,8,3:2:0:0:
229,43,45915,1,8,3:2:0:0:
229,43,45994,2,0,L|169:38,1,40,4|0,1:2|3:2,0:2:0:0:
307,7,46152,2,0,L|354:11,1,40,0|0,3:2|3:2,0:2:0:0:
423,42,46310,2,0,P|437:78|428:116,1,80,10|8,0:2|3:2,0:2:0:0:
393,201,46547,5,8,3:2:0:0:
392,211,46626,2,0,L|444:213,1,40,2|0,1:2|3:2,0:2:0:0:
322,269,46784,2,0,L|262:261,1,40,0|0,3:2|3:2,0:2:0:0:
197,219,46942,2,0,P|185:182|198:143,1,80,10|8,0:2|3:3,0:2:0:0:
127,315,47257,6,0,P|88:322|52:305,1,80,4|8,1:2|0:2,0:2:0:0:
47,292,47494,1,8,0:2:0:0:
44,281,47573,2,0,P|39:324|35:361,1,80,10|0,0:2|3:2,0:2:0:0:
197,144,47889,5,6,1:3:0:0:
113,232,48047,1,6,1:3:0:0:
23,147,48205,1,6,1:3:0:0:
107,61,48363,1,6,1:3:0:0:
222,241,48521,6,0,B|278:232|278:232|288:225|288:225|353:218,1,132.00000402832,12|0,1:2|0:2,0:2:0:0:
350,218,48836,2,0,B|369:180|369:180|332:136,1,88.000002685547,2|0,1:2|0:2,0:2:0:0:
286,322,49152,1,8,1:2:0:0:
286,322,49310,1,0,1:2:0:0:
465,358,49468,2,0,P|426:366|375:379,1,88.000002685547,2|0,1:2|1:2,0:2:0:0:
496,247,49784,5,8,1:2:0:0:
496,247,49942,1,0,1:2:0:0:
339,145,50099,2,0,L|358:240,1,88.000002685547,2|0,1:2|1:2,0:2:0:0:
286,322,50415,1,10,1:2:0:0:
168,265,50573,1,0,1:2:0:0:
79,361,50731,1,10,1:2:0:0:
3,307,50889,1,0,1:2:0:0:
262,228,51047,5,12,1:2:0:0:
262,228,51205,1,0,1:2:0:0:
94,89,51363,2,0,B|55:112|55:112|66:164,1,88.000002685547,2|0,1:2|1:2,0:2:0:0:
287,25,51678,5,8,1:2:0:0:
164,162,51836,1,0,1:2:0:0:
287,25,51994,2,0,L|392:43,1,88.000002685547,2|0,1:2|1:2,0:2:0:0:
410,312,52310,6,0,B|371:274|371:274|395:231,1,103.999995239258,14|0,1:2|0:2,0:2:0:0:
460,171,52547,1,8,0:2:0:0:
462,154,52626,2,0,L|346:130,1,103.999995239258,10|0,0:2|0:2,0:2:0:0:
270,115,52863,1,8,0:2:0:0:
247,112,52942,1,10,0:2:0:0:
209,279,53099,6,0,P|223:225|305:216,1,128,2|2,0:0|0:0,0:0:0:0:
11,256,53573,5,4,1:0:0:0:
101,67,53731,2,0,P|113:117|126:184,1,103.999995239258,2|8,0:2|0:2,0:2:0:0:
232,361,54047,2,0,P|276:337|289:288,1,103.999995239258,2|0,0:2|1:2,0:2:0:0:
209,94,54363,1,2,1:2:0:0:
103,272,54521,1,8,0:2:0:0:
301,139,54678,6,0,P|355:129|414:111,1,103.999995239258,2|0,1:2|0:2,0:2:0:0:
352,358,54994,2,0,P|306:335|289:287,1,103.999995239258,2|8,1:2|0:2,0:2:0:0:
512,217,55310,2,0,P|491:268|481:322,1,103.999995239258,2|0,0:2|1:2,0:2:0:0:
293,52,55626,1,2,1:2:0:0:
512,93,55784,1,10,0:2:0:0:
380,271,55942,6,0,P|306:243|230:227,1,155.999992858887,6|0,1:2|0:2,0:2:0:0:
230,227,56257,2,0,P|267:193|265:143,1,103.999995239258,2|8,1:2|0:2,0:2:0:0:
85,0,56573,2,0,L|104:109,1,103.999995239258,2|0,0:2|1:2,0:2:0:0:
145,336,56889,1,2,1:2:0:0:
0,210,57047,1,10,0:2:0:0:
145,336,57205,6,0,P|195:323|251:315,1,103.999995239258,2|0,0:2|1:2,0:2:0:0:
383,154,57521,2,0,P|335:134|290:156,1,103.999995239258,2|8,1:2|0:2,0:2:0:0:
476,365,57836,2,0,P|487:263|518:145,1,207.999990478516,2|0,0:2|1:2,0:2:0:0:
381,0,58310,1,10,0:2:0:0:
211,214,58468,6,0,B|278:220|303:149|267:162|288:83|355:92,1,207.999990478516,6|0,1:2|1:2,0:2:0:0:
365,283,58942,1,10,0:2:0:0:
190,103,59099,1,2,0:2:0:0:
106,267,59257,2,0,P|97:217|81:160,1,103.999995239258,0|0,1:2|1:2,0:2:0:0:
319,191,59573,1,10,0:2:0:0:
146,380,59731,6,0,P|96:294|-1:307,1,207.999990478516,2|0,1:2|1:2,0:2:0:0:
188,127,60205,1,10,0:2:0:0:
286,377,60363,2,0,P|292:329|308:263,1,103.999995239258,2|0,0:2|1:2,0:2:0:0:
363,109,60678,1,0,1:2:0:0:
486,275,60836,1,10,0:2:0:0:
335,11,60994,6,0,B|286:23|286:23|247:111|247:111|188:127,1,207.999990478516,6|0,1:2|1:2,0:2:0:0:
479,187,61468,2,0,B|504:140|504:140|463:109,1,103.999995239258,8|0,0:2|1:2,0:2:0:0:
244,216,61784,1,10,0:2:0:0:
394,257,61942,1,0,1:2:0:0:
335,11,62099,1,8,0:2:0:0:
127,203,62257,6,0,P|147:82|167:-8,1,207.999990478516,6|8,1:2|0:2,0:2:0:0:
25,20,62731,1,4,0:3:0:0:
225,150,62889,1,0,1:2:0:0:
61,255,63047,1,8,0:2:0:0:
217,325,63205,1,0,1:2:0:0:
101,383,63363,1,8,0:2:0:0:
113,175,63521,6,0,P|62:166|3:155,1,108.000000411987,2|8,1:2|0:2,0:2:0:0:
217,325,63836,2,0,P|255:288|258:236,1,108.000000411987,2|8,1:2|0:2,0:2:0:0:
232,0,64152,2,0,P|221:50|208:111,1,108.000000411987,2|8,1:2|0:2,0:2:0:0:
370,228,64468,1,2,1:2:0:0:
410,50,64626,1,8,0:2:0:0:
512,218,64784,6,0,P|494:162|498:108,1,108.000000411987,2|8,1:2|0:2,0:2:0:0:
232,278,65099,2,0,P|251:220|249:173,1,108.000000411987,2|8,1:2|0:2,0:2:0:0:
483,364,65415,2,0,P|447:325|392:325,1,108.000000411987,2|8,1:2|0:2,0:2:0:0:
151,378,65731,1,2,1:2:0:0:
107,177,65889,1,10,0:2:0:0:
316,371,66047,6,0,P|369:319|347:237,1,162.000000617981,6|0,1:2|0:2,0:2:0:0:
281,176,66363,1,2,1:2:0:0:
109,277,66521,1,10,0:2:0:0:
115,62,66678,2,0,P|166:82|225:93,1,108.000000411987,2|8,1:2|0:2,0:2:0:0:
460,201,66994,1,2,1:2:0:0:
255,287,67152,1,10,0:2:0:0:
460,200,67310,6,0,P|465:145|485:93,1,108.000000411987,2|8,1:2|0:2,0:2:0:0:
218,92,67626,2,0,P|245:138|259:190,1,108.000000411987,2|8,1:2|0:2,0:2:0:0:
68,331,67942,2,0,P|96:288|153:288,1,108.000000411987,2|8,1:2|0:2,0:2:0:0:
344,341,68257,1,0,1:2:0:0:
344,341,68336,1,0,1:2:0:0:
344,341,68415,1,10,0:2:0:0:
144,271,68573,6,0,P|70:202|122:112,1,216.000000823975,6|0,1:2|1:2,0:2:0:0:
250,52,69047,1,10,0:2:0:0:
408,253,69205,1,2,1:2:0:0:
484,140,69363,2,0,P|440:107|385:121,1,108.000000411987,10|0,0:2|1:2,0:2:0:0:
266,295,69678,1,10,0:2:0:0:
117,114,69836,6,0,P|126:55|133:-1,1,108.000000411987,2|8,1:2|0:2,0:2:0:0:
246,204,70152,1,0,1:2:0:0:
8,164,70310,1,10,0:2:0:0:
88,368,70468,1,2,1:2:0:0:
155,273,70626,2,0,B|114:234|114:234|66:253,1,108.000000411987,8|0,0:2|1:2,0:2:0:0:
244,109,70942,1,10,0:2:0:0:
428,355,71099,6,0,P|442:266|480:141,1,216.000000823975,6|0,1:2|1:2,0:2:0:0:
355,15,71573,1,8,0:2:0:0:
246,204,71731,1,0,1:2:0:0:
64,84,71889,2,0,P|97:40|154:40,1,108.000000411987,8|0,0:2|1:2,0:2:0:0:
362,176,72205,5,8,0:0:0:0:
250,334,72363,1,0,1:0:0:0:
35,294,72521,5,12,0:2:0:0:
35,294,73152,5,8,0:2:0:0:
89,269,73257,1,8,0:2:0:0:
145,290,73363,1,4,0:3:0:0:
166,345,73468,1,4,1:3:0:0:
195,361,73573,1,4,1:3:0:0:
229,358,73678,1,0,1:2:0:0:
250,334,73784,6,0,L|242:247,1,80,2|0,1:2|1:2,0:2:0:0:
240,147,74099,1,0,1:2:0:0:
240,147,74257,1,0,1:2:0:0:
340,184,74415,2,0,L|427:176,1,80,2|0,1:2|1:2,0:2:0:0:
498,248,74731,1,0,1:2:0:0:
498,248,74889,1,0,1:2:0:0:
418,320,75047,6,0,L|331:328,1,80,2|0,1:2|1:2,0:2:0:0:
260,276,75363,1,0,1:2:0:0:
199,344,75521,1,0,1:2:0:0:
129,225,75678,2,0,L|118:310,1,80,2|0,1:2|1:2,0:2:0:0:
32,324,75994,1,0,1:2:0:0:
0,238,76152,1,0,1:2:0:0:
125,72,76310,5,10,1:2:0:0:
78,145,76468,2,0,L|-6:129,1,80,0|0,1:2|1:2,0:2:0:0:
129,225,76784,1,0,1:2:0:0:
197,169,76942,2,0,L|210:80,1,80,2|0,1:2|1:2,0:2:0:0:
393,39,77257,1,0,1:2:0:0:
444,107,77415,1,0,1:2:0:0:
309,163,77573,6,0,L|395:176,1,80,2|0,1:2|1:2,0:2:0:0:
257,257,77889,2,0,L|308:327,1,80,2|0,1:2|1:2,0:2:0:0:
147,286,78205,2,0,L|134:371,1,80,2|0,1:2|1:2,0:2:0:0:
42,233,78521,1,0,1:2:0:0:
42,233,78678,1,0,1:2:0:0:
79,94,78836,6,0,L|-13:75,1,80,6|0,1:2|1:2,0:2:0:0:
174,71,79152,1,0,1:2:0:0:
146,165,79310,1,0,1:2:0:0:
298,214,79468,2,0,L|220:230,1,80,10|0,1:2|1:2,0:2:0:0:
388,234,79784,1,0,1:0:0:0:
353,135,79942,1,0,1:0:0:0:
423,0,80099,6,0,L|443:96,1,80,6|0,1:2|1:2,0:2:0:0:
251,134,80415,1,0,1:0:0:0:
309,46,80573,1,0,1:0:0:0:
466,218,80731,2,0,L|371:237,1,80,10|0,1:2|1:0,0:0:0:0:
387,233,80968,1,0,1:0:0:0:
387,233,81047,1,0,1:0:0:0:
329,348,81205,1,0,1:0:0:0:
142,285,81363,6,0,L|233:270,1,80,14|0,1:2|1:0,0:0:0:0:
115,82,81678,1,0,1:0:0:0:
62,194,81836,1,0,1:0:0:0:
276,155,81994,2,0,L|260:52,1,80,14|0,1:2|1:0,0:0:0:0:
468,0,82310,1,0,1:0:0:0:
388,103,82468,1,0,1:0:0:0:
458,183,82626,1,2,0:0:0:0:
452,202,82942,1,2,0:0:0:0:
447,220,83257,1,2,0:0:0:0:
443,236,83573,2,0,P|477:228|513:218,1,55.9999982910157,2|2,0:0|0:0,0:0:0:0:
431,323,83889,6,0,B|391:316|391:316|353:275|353:275|298:265,1,128,6|0,1:3|1:0,0:0:0:0:
140,322,84363,1,2,0:3:0:0:
199,371,84521,2,0,B|230:331|230:331|196:261,1,128,2|0,1:3|1:0,0:0:0:0:
43,173,84994,1,2,0:3:0:0:
0,241,85152,6,0,P|60:219|122:203,1,128,6|0,1:3|1:0,0:0:0:0:
256,77,85626,1,2,0:3:0:0:
272,156,85784,2,0,P|210:146|177:94,1,128,2|0,1:3|1:0,0:0:0:0:
83,113,86257,1,2,0:3:0:0:
197,5,86415,5,6,1:3:0:0:
256,77,86573,1,2,0:0:0:0:
360,8,86731,2,0,L|345:78,1,64,10|2,1:2|0:0,0:0:0:0:
436,190,87047,1,2,1:2:0:0:
422,112,87205,1,2,0:0:0:0:
368,229,87363,1,10,1:2:0:0:
368,229,87678,6,0,P|322:209|279:230,1,96,2|0,1:2|0:0,0:0:0:0:
282,226,87994,2,0,P|256:268|201:273,1,96,10|0,1:2|0:0,0:0:0:0:
212,276,88310,2,0,B|167:247|167:247|151:279|151:279|108:308,1,128,2|8,1:2|1:2,0:0:0:0:
21,319,88784,5,2,0:3:0:0:
21,319,88863,1,2,0:3:0:0:
21,319,88942,2,0,B|69:305|69:305|93:261|69:214,1,128,6|0,1:3|1:0,0:0:0:0:
46,87,89415,1,2,0:3:0:0:
2,157,89573,2,0,P|55:124|115:141,1,128,2|0,1:3|1:0,0:0:0:0:
278,92,90047,1,2,0:3:0:0:
208,37,90205,6,0,B|179:18|179:18|197:118,1,128,6|0,1:3|1:0,0:0:0:0:
216,206,90678,1,2,0:3:0:0:
368,168,90836,2,0,L|295:184,1,64,2|4,1:3|0:3,0:0:0:0:
336,279,91152,1,2,1:3:0:0:
336,279,91310,2,0,L|408:262,1,64,4|0,0:3|1:0,0:0:0:0:
458,71,91626,6,0,L|441:-3,2,64,2|8|2,0:0|1:2|0:0,0:0:0:0:
430,146,92099,1,2,1:2:0:0:
350,151,92257,1,2,0:0:0:0:
311,90,92415,1,10,1:2:0:0:
311,90,92731,6,0,L|236:82,1,64,2|2,1:2|0:0,0:0:0:0:
119,108,93047,2,0,B|90:67|90:67|134:44,1,96,10|0,1:2|0:0,0:0:0:0:
132,49,93363,2,0,L|113:193,1,128,2|10,1:2|1:2,0:0:0:0:
92,355,93836,1,2,0:3:0:0:
22,321,93994,6,0,P|73:274|148:298,1,136.000002593994,6|10,1:3|1:3,0:0:0:0:
257,384,94468,1,2,0:3:0:0:
319,317,94626,2,0,P|308:258|295:174,1,136.000002593994,10|10,1:3|1:3,0:0:0:0:
463,56,95099,1,2,0:3:0:0:
432,147,95257,6,0,B|388:131|388:131|370:85|370:85|316:65,1,136.000002593994,6|10,1:3|1:3,0:0:0:0:
163,38,95731,1,2,0:3:0:0:
215,183,95889,2,0,L|230:104,1,68.0000012969971,10|0,1:3|0:0,0:0:0:0:
254,0,96205,1,10,1:3:0:0:
254,0,96363,1,2,0:3:0:0:
69,137,96521,5,6,1:3:0:0:
0,47,96678,1,2,0:0:0:0:
69,137,96836,2,0,L|147:123,1,68.0000012969971,10|0,1:2|0:0,0:0:0:0:
284,186,97152,2,0,P|227:172|188:236,1,136.000002593994,2|10,1:2|1:2,0:0:0:0:
214,334,97626,6,0,L|291:350,1,68.0000012969971,2|0,0:0|1:0,0:0:0:0:
187,228,97942,2,0,L|113:211,1,68.0000012969971,2|8,0:0|1:2,0:0:0:0:
13,206,98257,1,2,0:0:0:0:
1,322,98415,2,0,B|14:352|55:357|55:357|83:338|79:297,1,136.000002593994,2|8,1:2|1:3,0:0:0:0:
36,76,98889,1,2,1:3:0:0:
196,110,99047,6,0,L|122:127,1,75.9999979705811,10|0,1:3|1:0,0:0:0:0:
222,0,99363,1,0,1:0:0:0:
222,0,99521,1,0,1:0:0:0:
324,130,99678,2,0,L|309:53,1,75.9999979705811,10|0,1:3|1:0,0:0:0:0:
251,206,99994,1,0,1:0:0:0:
251,206,100152,1,0,1:0:0:0:
384,266,100310,6,0,L|303:282,1,75.9999979705811,10|0,1:3|1:0,0:0:0:0:
417,133,100626,1,0,1:0:0:0:
417,133,100784,1,0,1:0:0:0:
512,266,100942,2,0,L|498:180,1,75.9999979705811,10|0,1:3|1:0,0:0:0:0:
309,280,101257,1,10,1:3:0:0:
375,353,101415,2,0,L|465:334,1,75.9999979705811,2|0,1:3|1:0,0:0:0:0:
239,158,101731,5,2,1:2:0:0:
184,230,101889,2,0,L|198:304,1,75.9999979705811,8|0,1:2|1:0,0:0:0:0:
101,384,102205,1,2,1:2:0:0:
4,325,102363,1,2,1:2:0:0:
36,216,102521,1,10,1:2:0:0:
36,216,102678,1,0,1:0:0:0:
173,31,102836,5,2,1:2:0:0:
16,78,102994,1,2,1:2:0:0:
129,171,103152,2,0,L|101:69,1,75.9999979705811,10|0,1:2|0:0,0:0:0:0:
310,38,103468,5,2,0:3:0:0:
224,135,103626,1,2,0:3:0:0:
332,244,103784,1,10,0:3:0:0:
249,336,103942,1,2,0:3:0:0:
375,140,104099,5,6,1:2:0:0:
374,140,104415,2,0,B|415:119|415:119|457:147,1,92.0000017547608,10|0,0:0|1:0,0:0:0:0:
449,326,104731,1,8,0:0:0:0:
449,326,104889,1,0,1:0:0:0:
449,326,105047,2,0,B|408:347|408:347|366:319,1,92.0000017547608,10|0,0:0|1:0,0:0:0:0:
214,142,105363,5,0,1:0:0:0:
93,278,105521,1,0,1:0:0:0:
89,292,105599,1,0,1:0:0:0:
85,305,105678,2,0,L|179:283,1,92.0000017547608,10|0,0:2|1:0,0:0:0:0:
257,307,105915,1,0,1:0:0:0:
266,311,105994,2,0,B|285:265|285:265|251:225,1,92.0000017547608,10|0,0:0|1:0,0:0:0:0:
107,15,106310,2,0,L|140:196,1,184.000003509522,14|0,0:0|1:0,0:0:0:0:
85,305,106784,5,0,1:0:0:0:
78,319,106863,1,0,1:0:0:0:
71,331,106942,2,0,L|48:217,1,92.0000017547608,10|0,0:0|0:0,0:0:0:0:
218,70,107257,1,8,0:0:0:0:
218,70,107415,1,0,1:0:0:0:
218,70,107573,2,0,L|239:177,1,92.0000017547608,10|0,0:0|1:0,0:0:0:0:
286,384,107889,5,8,0:0:0:0:
422,256,108047,1,8,0:0:0:0:
150,218,108205,1,2,1:2:0:0:
150,218,108363,1,0,1:0:0:0:
150,218,108521,5,14,1:3:0:0:
116,332,108678,1,6,1:3:0:0:
1,297,108836,1,6,1:3:0:0:
35,182,108994,1,6,1:3:0:0:
240,311,109152,5,6,1:2:0:0:
240,311,109310,1,0,1:0:0:0:
240,310,109468,2,0,L|336:291,1,95.9999970703126,10|0,0:0|1:0,0:0:0:0:
512,193,109784,1,8,0:0:0:0:
390,136,109942,1,0,1:0:0:0:
448,329,110099,2,0,L|422:220,1,95.9999970703126,10|0,0:0|1:0,0:0:0:0:
351,3,110415,5,0,1:0:0:0:
134,90,110573,1,0,1:0:0:0:
132,77,110652,1,0,1:0:0:0:
130,63,110731,1,10,0:0:0:0:
251,232,110889,1,0,1:0:0:0:
259,244,110968,1,0,1:0:0:0:
267,255,111047,2,0,P|275:204|287:143,1,95.9999970703126,10|0,0:0|1:0,0:0:0:0:
13,170,111363,2,0,P|82:179|100:258,1,143.999995605469,14|0,0:0|0:0,0:0:0:0:
105,242,111678,5,8,0:0:0:0:
0,335,111836,1,0,1:0:0:0:
227,375,111994,2,0,P|183:367|114:357,1,95.9999970703126,10|0,0:0|1:0,0:0:0:0:
283,160,112310,1,8,0:0:0:0:
364,346,112468,1,0,1:0:0:0:
501,129,112626,2,0,P|489:174|479:235,1,95.9999970703126,10|0,0:0|1:0,0:0:0:0:
81,70,112942,6,0,P|154:54|244:21,1,155.999992858887,14|0,0:0|0:0,0:0:0:0:
317,144,113257,2,0,P|246:119|142:104,1,155.999992858887,14|0,0:0|0:0,0:0:0:0:
64,182,113573,5,14,1:2:0:0:
52,199,113652,1,4,0:3:0:0:
61,217,113731,1,4,0:3:0:0:
53,236,113810,1,4,0:3:0:0:
68,249,113889,1,8,0:3:0:0:
56,266,113968,1,8,0:3:0:0:
67,283,114047,1,4,0:3:0:0:
53,295,114126,1,4,0:3:0:0:
64,308,114205,6,0,B|108:271|179:320|127:331|191:388|247:354,1,207.999990478516,4|8,1:0|0:0,0:0:0:0:
343,129,114678,2,0,P|295:141|228:162,1,103.999995239258,2|0,0:2|1:2,0:2:0:0:
368,358,114994,1,2,1:2:0:0:
512,217,115152,1,8,0:2:0:0:
368,358,115310,6,0,P|336:320|345:265,1,103.999995239258,2|0,1:2|0:2,0:2:0:0:
443,56,115626,2,0,P|471:98|459:147,1,103.999995239258,2|8,1:2|0:2,0:2:0:0:
172,33,115942,2,0,L|288:3,1,103.999995239258,2|0,0:2|1:2,0:2:0:0:
121,267,116257,1,2,1:2:0:0:
0,100,116415,1,10,0:2:0:0:
237,252,116573,6,0,P|285:196|246:123,1,155.999992858887,6|0,1:2|0:2,0:2:0:0:
254,128,116889,2,0,P|199:142|144:153,1,103.999995239258,2|8,1:2|0:2,0:2:0:0:
287,375,117205,2,0,P|343:360|392:353,1,103.999995239258,2|0,0:2|1:2,0:2:0:0:
493,106,117521,1,2,1:2:0:0:
323,219,117678,1,10,0:2:0:0:
495,370,117836,6,0,P|501:316|518:252,1,103.999995239258,2|0,0:2|1:2,0:2:0:0:
364,102,118152,1,2,1:2:0:0:
258,294,118310,1,8,0:2:0:0:
107,203,118468,2,0,B|170:199|210:133|141:130|183:63|240:62,1,207.999990478516,2|0,0:2|1:2,0:2:0:0:
14,83,118942,1,10,0:2:0:0:
299,183,119099,6,0,P|399:141|511:148,1,207.999990478516,6|0,1:2|1:2,0:2:0:0:
363,39,119573,1,10,0:2:0:0:
314,289,119731,1,2,0:2:0:0:
220,118,119889,1,0,1:2:0:0:
398,181,120047,1,0,1:2:0:0:
206,287,120205,1,10,0:2:0:0:
103,9,120363,6,0,B|55:21|31:61|31:61|51:114|53:178,1,207.999990478516,2|0,1:2|1:2,0:2:0:0:
169,374,120836,1,10,0:2:0:0:
0,317,120994,2,0,P|58:297|102:284,1,103.999995239258,2|0,0:2|1:2,0:2:0:0:
325,225,121310,1,0,1:2:0:0:
121,113,121468,1,10,0:2:0:0:
427,152,121626,6,0,B|362:128|362:128|340:51|340:51|283:25,1,207.999990478516,6|0,1:2|1:2,0:2:0:0:
41,156,122099,2,0,B|9:116|9:116|43:77,1,103.999995239258,8|0,0:2|1:2,0:2:0:0:
230,233,122415,1,10,0:2:0:0:
60,269,122573,1,0,1:2:0:0:
167,33,122731,1,8,0:2:0:0:
410,294,122889,6,0,P|498:254|489:154,1,207.999990478516,6|8,1:2|0:2,0:2:0:0:
264,32,123363,1,4,0:3:0:0:
210,154,123521,1,0,1:2:0:0:
320,230,123678,2,0,L|424:203,1,103.999995239258,8|0,0:2|1:2,0:2:0:0:
426,384,123994,1,8,0:2:0:0:
152,367,124152,6,0,P|112:334|115:276,1,108.000000411987,2|8,1:2|0:2,0:2:0:0:
335,123,124468,2,0,L|317:249,1,108.000000411987,2|8,1:2|0:2,0:2:0:0:
27,119,124784,1,2,1:2:0:0:
207,282,124942,1,8,0:2:0:0:
155,50,125099,1,2,1:2:0:0:
31,259,125257,1,8,0:2:0:0:
229,141,125415,6,0,P|282:127|342:122,1,108.000000411987,2|8,1:2|0:2,0:2:0:0:
501,20,125731,2,0,P|460:-10|403:6,1,108.000000411987,2|8,1:2|0:2,0:2:0:0:
492,285,126047,2,0,P|497:231|513:179,1,108.000000411987,2|8,1:2|0:2,0:2:0:0:
247,246,126363,1,2,1:2:0:0:
438,384,126521,1,10,0:2:0:0:
247,246,126678,6,0,B|195:237|195:237|142:289|142:289|106:283,1,162.000000617981,6|0,1:2|0:2,0:2:0:0:
20,264,126994,1,2,1:2:0:0:
160,140,127152,1,10,0:2:0:0:
219,331,127310,1,2,1:2:0:0:
52,166,127468,2,0,P|63:102|71:46,1,108.000000411987,10|0,0:2|1:2,0:2:0:0:
247,246,127784,1,10,0:2:0:0:
317,51,127942,6,0,P|266:38|217:74,1,108.000000411987,2|8,1:2|0:2,0:2:0:0:
450,269,128257,2,0,P|449:214|473:160,1,108.000000411987,2|8,1:2|0:2,0:2:0:0:
248,326,128573,2,0,P|218:283|168:265,1,108.000000411987,2|8,1:2|0:2,0:2:0:0:
0,218,128889,1,0,1:2:0:0:
0,218,128968,1,0,1:2:0:0:
0,218,129047,1,10,0:2:0:0:
184,276,129205,6,0,B|237:248|237:248|283:170|194:104,1,216.000000823975,6|0,1:2|1:2,0:2:0:0:
26,18,129678,1,10,0:2:0:0:
96,217,129836,1,2,1:2:0:0:
260,35,129994,2,0,P|215:11|162:26,1,108.000000411987,8|0,0:2|1:2,0:2:0:0:
326,225,130310,1,10,0:2:0:0:
485,40,130468,6,0,L|501:149,1,108.000000411987,2|8,1:2|0:2,0:2:0:0:
387,350,130784,1,0,1:2:0:0:
250,183,130942,1,10,0:2:0:0:
454,236,131099,1,2,1:2:0:0:
267,336,131257,2,0,P|218:319|149:307,1,108.000000411987,8|0,0:2|1:2,0:2:0:0:
366,126,131573,1,10,0:2:0:0:
77,362,131731,6,0,P|72:276|22:142,1,216.000000823975,6|0,1:2|1:2,0:2:0:0:
193,26,132205,1,8,0:2:0:0:
322,225,132363,1,0,1:2:0:0:
461,64,132521,2,0,P|424:26|372:30,1,108.000000411987,10|0,0:2|1:2,0:2:0:0:
174,203,132836,5,8,0:2:0:0:
327,310,132994,1,2,1:2:0:0:
478,205,133152,5,12,0:2:0:0:
478,205,133784,5,8,0:0:0:0:
434,160,133889,1,8,0:0:0:0:
372,165,133994,1,4,0:3:0:0:
340,218,134099,1,8,0:3:0:0:
341,245,134205,1,8,0:3:0:0:
345,272,134310,1,0,1:0:0:0:
349,299,134415,5,6,1:2:0:0:
241,367,134573,1,6,1:3:0:0:
148,283,134731,1,6,1:3:0:0:
256,192,134810,12,0,136784,0:0:0:0:
148,283,136942,5,6,1:3:0:0:
188,159,137099,1,6,1:3:0:0:
305,217,137257,1,6,1:3:0:0:
256,192,137336,12,0,138678,0:0:0:0:
284,222,138836,5,4,0:3:0:0:
284,222,138994,1,0,1:0:0:0:
388,187,139152,1,8,0:0:0:0:
388,187,139468,5,6,1:3:0:0:
208,89,139626,1,6,1:3:0:0:
223,72,140099,1,6,1:3:0:0:
206,349,140257,1,6,1:3:0:0:
190,334,140731,1,6,1:3:0:0:
394,102,140889,1,6,1:3:0:0:
403,120,141363,1,6,1:3:0:0:
21,218,141521,1,6,1:3:0:0:
24,199,141994,6,0,L|75:205,1,51.999997619629,8|4,1:3|0:3,0:0:0:0:
205,224,142152,1,8,0:3:0:0:
205,224,142231,1,4,0:3:0:0:
205,224,142310,2,0,L|256:230,3,51.999997619629,4|4|4|4,0:3|0:3|0:3|0:3,0:0:0:0:
124,277,142626,6,0,L|117:352,1,69.3333301595054,8|4,0:3|0:3,0:0:0:0:
136,100,142836,1,8,0:3:0:0:
143,88,142942,1,4,0:3:0:0:
149,77,143047,2,0,L|142:146,1,69.3333301595054,4|4,0:3|0:3,0:0:0:0:
37,39,143257,5,6,1:2:0:0:
281,77,143415,1,6,1:3:0:0:
281,77,143889,2,0,B|318:71|318:71|368:102|368:102|411:98,1,120,2|8,0:0|0:0,0:0:0:0:
470,74,144205,1,8,0:0:0:0:
467,61,144284,1,8,0:0:0:0:
474,231,144442,5,2,0:2:0:0:
477,247,144521,2,0,B|436:225|395:220|395:220|346:263|346:263|279:264,1,207.999990478516,4|10,1:2|0:2,0:2:0:0:
180,329,144994,1,2,0:2:0:0:
90,143,145152,1,2,1:2:0:0:
317,168,145310,1,2,1:2:0:0:
57,337,145468,1,10,0:2:0:0:
171,8,145626,6,0,B|189:99|189:99|186:110|186:110|206:224,1,207.999990478516,2|0,1:2|1:2,0:2:0:0:
426,372,146099,2,0,B|434:323|434:323|439:317|439:317|448:269,1,103.999995239258,10|0,0:2|0:2,0:2:0:0:
139,351,146415,1,2,1:2:0:0:
93,338,146494,1,2,0:2:0:0:
60,305,146573,1,2,1:2:0:0:
48,259,146652,1,2,0:2:0:0:
70,217,146731,1,10,0:2:0:0:
300,156,146889,6,0,B|361:132|361:132|408:146|408:146|460:137|460:137|506:138,1,207.999990478516,6|0,1:2|1:2,0:2:0:0:
266,18,147363,1,10,0:2:0:0:
369,238,147521,1,2,0:2:0:0:
429,27,147678,1,2,1:2:0:0:
429,27,147757,1,2,1:2:0:0:
429,27,147836,1,2,1:2:0:0:
219,177,147994,1,10,0:2:0:0:
464,341,148152,6,0,P|480:212|502:132,1,207.999990478516,2|0,0:2|1:2,0:2:0:0:
266,18,148626,2,0,P|281:68|292:125,1,103.999995239258,8|0,0:2|0:2,0:2:0:0:
313,342,148942,1,2,1:2:0:0:
192,243,149099,1,2,1:2:0:0:
407,202,149257,1,10,0:2:0:0:
169,114,149415,6,0,B|72:83|72:83|6:124|38:186,1,207.999990478516,6|0,1:2|1:2,0:2:0:0:
150,346,149889,1,10,0:2:0:0:
229,226,150047,1,2,0:2:0:0:
29,301,150205,1,2,1:2:0:0:
32,172,150363,1,2,1:2:0:0:
193,142,150521,1,10,0:2:0:0:
157,49,150678,1,2,0:2:0:0:
85,95,150836,6,0,P|158:69|234:53,1,155.999992858887,2|0,0:2|0:2,0:2:0:0:
241,39,151152,1,8,0:2:0:0:
314,279,151389,5,8,0:2:0:0:
320,297,151468,1,2,1:2:0:0:
409,200,151626,1,2,1:2:0:0:
282,164,151784,1,10,0:2:0:0:
192,340,151942,5,6,1:3:0:0:
192,340,153363,5,8,0:2:0:0:
113,219,153521,1,0,1:2:0:0:
191,256,153678,1,8,0:3:0:0:
114,304,153836,1,4,0:3:0:0:
182,50,153994,5,10,0:2:0:0:
35,259,154152,1,10,0:2:0:0:
35,259,154231,1,10,0:2:0:0:
35,259,154310,1,10,0:2:0:0:
20,61,154468,6,0,B|68:39|135:90|81:109|145:153|197:132,1,207.999990478516,6|0,1:2|1:2,0:2:0:0:
443,32,154942,2,0,B|397:15|397:15|385:14|385:14|326:-2,1,103.999995239258,8|0,0:2|0:2,0:2:0:0:
318,248,155257,1,2,1:2:0:0:
488,153,155415,1,2,1:2:0:0:
495,144,155494,2,0,P|501:168|507:197,1,51.999997619629,2|8,0:0|0:0,0:0:0:0:
385,129,155731,6,0,B|322:145|322:145|296:224|296:224|235:240,1,207.999990478516,2|0,1:2|1:2,0:2:0:0:
82,168,156205,2,0,B|0:97|34:24|98:11|140:63|87:97,1,207.999990478516,8|0,0:2|1:2,0:2:0:0:
0,250,156678,1,2,1:2:0:0:
0,250,156757,1,2,1:2:0:0:
0,250,156836,1,10,0:2:0:0:
186,340,156994,6,0,B|252:317|252:317|302:351|302:351|335:339|402:352,1,207.999990478516,6|0,1:2|1:2,0:2:0:0:
481,154,157468,2,0,B|478:105|478:105|415:169|415:169|448:229,1,207.999990478516,10|0,0:2|1:2,0:2:0:0:
485,340,157942,1,0,1:2:0:0:
257,187,158099,1,10,0:2:0:0:
351,103,158257,1,2,0:2:0:0:
264,323,158415,5,2,1:2:0:0:
145,163,158573,1,0,1:2:0:0:
43,362,158731,2,0,B|89:346|89:346|95:349|95:349|157:331,1,103.999995239258,8|0,0:2|0:2,0:2:0:0:
178,85,159047,1,2,1:2:0:0:
137,74,159126,1,2,0:2:0:0:
96,81,159205,1,2,1:2:0:0:
67,110,159284,1,2,0:2:0:0:
57,150,159363,2,0,L|69:209,1,51.999997619629,10|2,0:2|0:2,0:2:0:0:
241,271,159521,6,0,P|250:169|268:48,1,207.999990478516,6|0,1:2|1:2,0:2:0:0:
404,0,159994,1,10,0:2:0:0:
505,92,160152,1,2,0:2:0:0:
410,247,160310,1,2,1:2:0:0:
386,90,160468,1,2,1:2:0:0:
204,191,160626,1,14,0:2:0:0:
406,352,160784,6,0,B|449:338|449:338|460:343|460:343|507:329,1,103.999995239258,2|0,1:2|0:2,0:2:0:0:
318,164,161099,1,2,1:2:0:0:
311,159,161178,1,2,0:2:0:0:
304,156,161257,2,0,L|312:209,1,51.999997619629,10|2,0:2|0:2,0:2:0:0:
237,335,161415,2,0,L|229:282,1,51.999997619629,2|2,0:2|0:2,0:2:0:0:
131,134,161573,5,2,1:2:0:0:
92,117,161652,1,2,0:2:0:0:
50,125,161731,1,2,1:2:0:0:
21,155,161810,1,2,0:2:0:0:
18,197,161889,1,10,0:2:0:0:
44,229,161968,1,2,0:2:0:0:
83,242,162047,2,0,P|112:234|150:230,1,51.999997619629,2|2,1:2|0:2,0:2:0:0:
215,88,162205,1,2,0:2:0:0:
259,79,162284,1,2,0:2:0:0:
296,104,162363,2,0,P|300:129|304:157,1,51.999997619629,2|0,1:2|0:2,0:2:0:0:
249,341,162521,5,14,0:2:0:0:
249,341,162599,1,2,1:2:0:0:
249,341,162678,2,0,P|236:314|241:286,1,55.9999982910157,2|2,1:2|0:2,0:2:0:0:
425,172,162836,1,14,0:2:0:0:
425,172,162915,1,2,1:2:0:0:
425,172,162994,2,0,P|437:198|432:226,1,55.9999982910157,2|2,1:2|0:2,0:2:0:0:
191,146,163152,2,0,P|178:119|183:91,1,55.9999982910157,14|2,0:2|0:2,0:2:0:0:
245,10,163310,6,0,B|193:-9|145:49|197:53|145:109|90:87,1,191.999994140625,6|8,1:2|0:2,0:2:0:0:
20,57,163705,1,8,0:2:0:0:
7,46,163784,1,8,0:2:0:0:
95,185,163942,1,8,0:2:0:0:
0,312,164099,1,8,0:3:0:0:
0,312,164178,1,8,0:3:0:0:
0,312,164257,1,4,0:3:0:0:
0,312,164336,1,4,0:3:0:0:
0,312,164415,2,0,L|91:319,1,71.9999978027344,8|4,0:3|0:3,0:2:0:0:
355,340,164731,5,4,1:2:0:0:
355,340,165047,2,0,L|265:333,1,71.9999978027344,10|0,0:2|0:2,0:2:0:0:
191,265,165363,1,8,0:2:0:0:
191,265,165521,1,8,0:2:0:0:
276,133,165678,2,0,L|272:227,1,71.9999978027344,10|0,0:2|0:2,0:2:0:0:
369,257,165994,5,8,0:2:0:0:
439,163,166152,1,2,0:2:0:0:
439,142,166231,1,2,0:2:0:0:
439,126,166310,2,0,L|493:132,2,35.9999989013672,10|10|2,0:2|0:2|0:2,0:2:0:0:
305,14,166626,2,0,L|386:24,1,71.9999978027344,10|0,0:2|0:2,0:2:0:0:
276,133,166942,1,8,0:3:0:0:
146,32,167099,5,8,0:2:0:0:
137,36,167178,1,8,0:2:0:0:
129,41,167257,2,0,L|142:114,1,71.9999978027344,0|8,1:2|0:2,0:2:0:0:
63,191,167494,1,8,0:2:0:0:
54,203,167573,2,0,L|41:130,1,71.9999978027344,10|0,0:2|0:2,0:2:0:0:
25,55,167810,1,8,0:2:0:0:
22,39,167889,1,8,0:2:0:0:
163,267,168126,1,8,0:2:0:0:
170,278,168205,2,0,L|186:203,1,71.9999978027344,10|8,0:2|0:2,0:2:0:0:
23,330,168521,5,8,0:2:0:0:
34,339,168599,1,8,0:2:0:0:
45,346,168678,2,0,L|34:298,2,35.9999989013672,10|10|8,0:2|0:2|0:3,0:2:0:0:
45,346,169152,5,6,1:3:0:0:
156,288,169310,1,6,1:3:0:0:
264,359,169468,1,6,1:3:0:0:
373,289,169626,1,6,1:3:0:0:
224,64,169784,5,4,1:2:0:0:
239,172,169942,1,0,1:2:0:0:
238,182,170021,1,0,1:2:0:0:
241,194,170099,2,0,P|307:184|327:108,1,132.00000402832,14|0,0:2|1:2,0:2:0:0:
331,129,170415,2,0,P|374:133|419:140,1,88.000002685547,12|0,0:2|1:0,0:0:0:0:
479,317,170731,6,0,P|443:240|347:266,1,176.000005371094,10|8,0:2|0:2,0:2:0:0:
243,356,171205,1,2,1:2:0:0:
146,183,171363,1,14,0:0:0:0:
29,321,171521,1,2,1:2:0:0:
28,331,171599,1,0,1:2:0:0:
26,338,171678,2,0,P|74:341|123:351,1,88.000002685547,10|0,0:2|1:2,0:2:0:0:
47,146,171994,1,10,0:2:0:0:
354,367,172231,5,0,1:2:0:0:
362,375,172310,2,0,L|380:271,1,95.9999970703126,6|0,1:2|1:2,0:2:0:0:
237,95,172626,2,0,B|195:120|195:120|209:164,1,95.9999970703126,10|0,0:2|1:2,0:2:0:0:
448,211,172942,1,8,0:2:0:0:
362,65,173099,1,0,1:2:0:0:
228,310,173257,2,0,L|127:285,1,95.9999970703126,10|0,0:2|1:2,0:2:0:0:
82,55,173573,5,14,1:2:0:0:
302,146,173810,1,8,0:2:0:0:
323,141,173889,1,10,1:2:0:0:
135,286,174126,1,8,0:2:0:0:
123,306,174205,1,8,1:2:0:0:
171,155,174836,5,4,0:3:0:0:
48,330,184310,6,0,B|27:303|4:296|4:296|39:285|74:304|74:304|96:357|160:355,1,224,2|0,0:2|0:2,0:2:0:0:
147,354,184942,6,0,P|198:295|161:229,1,143.999995605469,2|0,1:3|1:2,0:2:0:0:
191,86,185415,1,2,0:0:0:0:
252,163,185573,2,0,P|322:176|413:189,1,143.999995605469,8|0,0:0|0:0,0:0:0:0:
494,290,186047,6,0,P|486:326|482:362,1,71.9999978027344,10|0,0:2|1:2,0:2:0:0:
388,277,186363,1,2,1:2:0:0:
388,277,186442,1,0,1:2:0:0:
387,278,186521,1,0,1:2:0:0:
509,200,186678,1,2,1:2:0:0:
509,200,186757,1,0,1:2:0:0:
509,200,186836,1,8,0:2:0:0:
509,200,186915,1,0,1:2:0:0:
509,200,186994,1,0,1:2:0:0:
509,200,187073,1,0,1:2:0:0:
509,200,187152,2,0,P|501:162|494:115,1,71.9999978027344,2|2,1:2|0:2,0:2:0:0:
312,208,187468,6,0,B|242:163|242:163|182:200,2,143.999995605469,2|0|8,1:3|1:2|0:2,0:2:0:0:
312,208,188573,1,2,0:0:0:0:
412,118,188731,1,0,1:0:0:0:
412,118,188810,1,0,1:0:0:0:
412,118,188889,1,2,1:2:0:0:
412,118,188968,1,0,1:2:0:0:
412,118,189047,1,2,1:2:0:0:
278,77,189205,1,2,1:2:0:0:
278,77,189284,1,0,1:0:0:0:
278,77,189363,2,0,L|294:-5,1,71.9999978027344,10|0,0:2|1:2,0:2:0:0:
292,7,189599,1,0,1:2:0:0:
292,7,189678,2,0,P|330:15|371:24,1,71.9999978027344,2|2,1:2|0:2,0:2:0:0:
292,159,189994,6,0,P|222:156|185:98,1,143.999995605469,2|0,1:3|1:2,0:2:0:0:
15,66,190468,1,2,0:2:0:0:
66,147,190626,2,0,P|53:220|38:306,1,143.999995605469,8|0,0:2|0:2,0:2:0:0:
187,380,191099,1,10,0:2:0:0:
256,302,191257,6,0,L|180:283,1,71.9999978027344,0|0,1:2|1:2,0:2:0:0:
186,284,191494,1,0,1:2:0:0:
186,284,191573,1,2,1:2:0:0:
279,202,191731,1,2,1:2:0:0:
375,329,191889,1,8,0:2:0:0:
375,329,191968,1,0,1:2:0:0:
375,329,192047,1,0,1:2:0:0:
375,329,192126,1,0,1:2:0:0:
375,329,192205,2,0,L|389:251,1,71.9999978027344,2|0,1:2|0:2,0:2:0:0:
422,99,192521,5,6,1:3:0:0:
422,99,193784,5,2,1:3:0:0:
452,87,193863,1,2,1:3:0:0:
481,100,193942,1,2,1:3:0:0:
503,133,194021,1,2,1:3:0:0:
484,179,194099,1,8,1:2:0:0:
434,192,194178,1,8,0:2:0:0:
387,174,194257,1,8,0:2:0:0:
355,136,194336,1,8,0:2:0:0:
329,122,194415,5,6,1:2:0:0:
301,116,194494,1,0,1:0:0:0:
273,123,194573,1,4,0:3:0:0:
251,141,194652,1,4,0:3:0:0:
241,168,194731,1,8,0:3:0:0:
246,194,194810,1,8,0:3:0:0:
261,208,194889,1,6,0:3:0:0:
280,215,194968,1,4,0:3:0:0:
293,211,195047,6,0,P|241:222|191:242,1,108.000000411987,4|2,1:0|0:2,0:2:0:0:
0,145,195363,1,8,0:2:0:0:
220,53,195521,1,2,1:2:0:0:
220,53,195599,1,0,1:2:0:0:
220,53,195678,1,8,0:2:0:0:
97,235,195836,1,2,1:2:0:0:
17,27,195994,1,8,0:2:0:0:
97,235,196152,6,0,L|83:346,1,108.000000411987,2|8,1:2|0:2,0:2:0:0:
253,154,196468,2,0,L|240:40,1,108.000000411987,2|8,1:2|0:2,0:2:0:0:
413,313,196784,1,2,1:2:0:0:
413,313,196863,1,0,1:2:0:0:
413,313,196942,2,0,P|464:319|504:286,1,108.000000411987,8|0,0:2|1:2,0:2:0:0:
414,102,197257,1,10,0:2:0:0:
229,312,197415,6,0,P|180:250|101:244,1,162.000000617981,6|0,1:2|0:2,0:2:0:0:
16,274,197731,1,2,1:2:0:0:
16,274,197810,1,0,1:2:0:0:
16,274,197889,1,8,0:2:0:0:
115,62,198047,2,0,P|162:84|174:140,1,108.000000411987,2|8,1:2|0:2,0:2:0:0:
124,353,198363,1,2,1:2:0:0:
20,154,198521,1,10,0:2:0:0:
262,249,198678,6,0,P|313:227|378:222,1,108.000000411987,2|8,1:2|0:2,0:2:0:0:
512,90,198994,2,0,P|458:83|409:62,1,108.000000411987,2|8,1:2|0:2,0:2:0:0:
367,337,199310,1,2,1:2:0:0:
367,337,199389,1,0,1:2:0:0:
367,337,199468,1,8,0:2:0:0:
512,268,199626,1,0,1:2:0:0:
317,91,199784,1,10,0:2:0:0:
190,311,199942,6,0,B|240:327|308:275|239:259|314:192|377:226,1,216.000000823975,6|0,1:2|1:2,0:2:0:0:
170,159,200415,1,10,0:2:0:0:
73,353,200573,1,2,1:2:0:0:
72,361,200652,1,0,1:2:0:0:
70,368,200731,2,0,P|57:311|43:250,1,108.000000411987,8|0,0:2|1:2,0:2:0:0:
219,86,201047,1,10,0:2:0:0:
0,63,201205,1,2,1:2:0:0:
159,258,201363,6,0,P|215:241|279:226,1,108.000000411987,8|0,0:2|1:2,0:2:0:0:
401,85,201678,1,10,0:2:0:0:
489,295,201836,2,0,P|521:254|510:203,1,108.000000411987,2|8,1:2|0:2,0:2:0:0:
362,231,202152,1,0,1:2:0:0:
512,45,202310,1,10,0:2:0:0:
390,338,202468,6,0,P|302:293|179:264,1,216.000000823975,6|0,1:2|1:2,0:2:0:0:
28,286,202942,1,8,0:2:0:0:
44,78,203099,1,0,1:2:0:0:
42,71,203178,1,0,1:2:0:0:
41,63,203257,2,0,L|8:169,1,108.000000411987,10|0,0:2|1:2,0:2:0:0:
115,367,203573,1,8,0:2:0:0:
210,175,203731,1,2,1:2:0:0:
410,333,203889,5,8,0:2:0:0:
398,137,204047,1,0,1:2:0:0:
249,260,204205,1,8,0:2:0:0:
488,278,204363,1,0,1:2:0:0:
488,278,204442,1,0,1:2:0:0:
488,278,204521,1,8,0:2:0:0:
278,115,204678,1,8,0:2:0:0:
217,369,204836,1,8,0:2:0:0:
217,369,204915,1,8,0:2:0:0:
217,369,204994,1,8,0:2:0:0:
40,113,205152,6,0,L|69:-11,1,108.000000411987,4|2,1:1|1:2,0:2:0:0:
221,210,205468,1,8,0:2:0:0:
33,235,205626,1,2,1:2:0:0:
33,235,205705,1,0,1:2:0:0:
33,235,205784,1,8,0:2:0:0:
182,97,205942,2,0,P|233:85|277:114,1,108.000000411987,2|8,1:2|0:2,0:2:0:0:
420,357,206257,5,2,1:2:0:0:
499,187,206415,1,8,0:2:0:0:
225,346,206573,1,2,1:2:0:0:
145,185,206731,1,8,0:2:0:0:
382,258,206889,1,2,1:2:0:0:
382,258,206968,1,0,1:2:0:0:
382,258,207047,1,8,0:2:0:0:
277,114,207205,1,2,1:2:0:0:
187,260,207363,1,10,0:2:0:0:
415,45,207521,6,0,P|487:71|498:147,1,162.000000617981,6|0,1:2|0:2,0:2:0:0:
459,231,207836,1,2,1:2:0:0:
459,231,207915,1,0,1:2:0:0:
459,231,207994,1,10,0:2:0:0:
277,114,208152,2,0,P|284:60|291:6,1,108.000000411987,2|8,1:2|0:2,0:2:0:0:
96,106,208468,1,2,1:2:0:0:
232,245,208626,1,10,0:2:0:0:
96,106,208784,6,0,P|45:93|-1:119,1,108.000000411987,2|8,1:2|0:2,0:2:0:0:
26,346,209099,2,0,P|77:359|123:333,1,108.000000411987,2|8,1:2|0:2,0:2:0:0:
208,83,209415,1,2,1:2:0:0:
209,75,209494,1,0,1:2:0:0:
210,69,209573,1,8,0:2:0:0:
56,185,209731,1,0,1:2:0:0:
236,365,209889,1,10,0:2:0:0:
392,211,210047,6,0,P|370:113|348:-5,1,216.000000823975,6|0,1:2|1:2,0:2:0:0:
485,43,210521,1,10,0:2:0:0:
271,142,210678,1,2,1:2:0:0:
271,142,210757,1,0,1:2:0:0:
271,142,210836,2,0,P|281:195|293:255,1,108.000000411987,8|0,0:2|1:2,0:2:0:0:
496,376,211152,1,10,0:2:0:0:
461,123,211310,1,10,0:2:0:0:
235,337,211468,6,0,P|188:344|126:355,1,108.000000411987,8|0,0:2|1:2,0:2:0:0:
21,184,211784,1,10,0:2:0:0:
239,112,211942,1,2,1:2:0:0:
239,112,212021,1,0,1:2:0:0:
239,112,212099,2,0,P|266:66|249:14,1,108.000000411987,8|0,0:2|1:2,0:2:0:0:
65,66,212415,1,10,0:2:0:0:
277,232,212573,6,0,B|305:180|376:194|376:194|414:245|463:228,1,216.000000823975,6|0,1:2|1:2,0:2:0:0:
463,228,212968,1,0,1:2:0:0:
463,228,213047,1,8,0:2:0:0:
370,102,213205,1,0,1:2:0:0:
307,331,213363,2,0,P|254:309|195:302,1,108.000000411987,10|0,0:2|1:2,0:2:0:0:
14,167,213678,1,8,0:2:0:0:
233,83,213836,1,10,0:2:0:0:
117,366,213994,6,0,P|83:302|127:229,1,150,6|0,1:2|1:2,0:2:0:0:
114,237,214310,1,0,1:2:0:0:
114,237,214389,1,0,1:2:0:0:
114,237,214468,1,8,1:3:0:0:
114,237,214547,1,0,1:2:0:0:
152,277,214626,5,10,1:2:0:0:
190,286,214705,1,8,1:3:0:0:
228,274,214784,1,8,1:3:0:0:
250,240,214863,1,8,1:3:0:0:
245,199,214942,1,10,1:3:0:0:
509,217,215178,5,4,1:3:0:0:
511,201,215257,2,0,B|460:253|460:253|359:230|384:121,1,216.000000823975,6|0,1:2|1:2,0:2:0:0:
424,2,215731,1,8,0:2:0:0:
140,147,215889,2,0,P|193:149|247:170,1,108.000000411987,2|8,1:2|0:2,0:2:0:0:
306,9,216205,1,0,1:2:0:0:
306,9,216284,1,0,1:2:0:0:
306,9,216363,1,8,0:2:0:0:
356,256,216521,6,0,P|360:202|379:151,1,108.000000411987,2|8,1:2|0:2,0:2:0:0:
184,9,216836,1,0,1:2:0:0:
184,9,216915,1,0,1:2:0:0:
184,9,216994,1,8,0:2:0:0:
140,191,217152,2,0,P|190:172|245:169,1,108.000000411987,2|8,1:2|0:2,0:2:0:0:
37,52,217468,1,0,1:2:0:0:
37,52,217547,1,0,1:2:0:0:
37,52,217626,1,8,0:2:0:0:
18,276,217784,6,0,P|11:220|-9:162,1,108.000000411987,2|8,1:2|0:2,0:2:0:0:
143,358,218099,1,0,1:2:0:0:
143,358,218178,1,0,1:2:0:0:
143,358,218257,1,8,0:2:0:0:
301,173,218415,2,0,P|279:226|270:275,1,108.000000411987,2|8,1:2|0:2,0:2:0:0:
147,108,218731,1,0,1:2:0:0:
147,108,218810,1,0,1:2:0:0:
147,108,218889,1,8,0:2:0:0:
277,380,219047,5,2,1:2:0:0:
408,198,219205,1,8,0:2:0:0:
403,189,219284,1,8,0:2:0:0:
398,180,219363,2,0,P|446:160|493:183,1,108.000000411987,0|8,1:2|0:3,0:2:0:0:
440,345,219678,1,2,1:2:0:0:
440,345,219757,1,0,1:2:0:0:
440,345,219836,1,8,0:3:0:0:
264,190,219994,1,8,1:3:0:0:
174,315,220152,1,4,0:3:0:0:
0,53,220310,5,14,1:2:0:0:
0,53,220389,1,0,1:2:0:0:
0,53,220468,1,8,1:2:0:0:
193,101,220626,1,2,1:2:0:0:
32,270,220784,1,2,1:2:0:0:
32,270,220863,1,0,1:2:0:0:
32,270,220942,2,0,L|16:157,1,111.999996582031,10|8,1:2|1:2,0:2:0:0:
184,346,221257,1,2,1:2:0:0:
184,346,221336,1,0,1:2:0:0:
184,346,221415,1,2,1:2:0:0:
372,155,221573,6,0,L|355:273,1,111.999996582031,10|8,1:2|1:2,0:2:0:0:
200,119,221889,1,2,1:2:0:0:
200,119,221968,1,0,1:2:0:0:
200,119,222047,1,2,1:2:0:0:
360,377,222205,1,10,1:2:0:0:
473,163,222363,1,8,1:2:0:0:
201,227,222521,1,2,1:2:0:0:
201,227,222599,1,0,1:2:0:0:
201,227,222678,1,2,1:2:0:0:
291,0,222836,6,0,L|313:123,1,111.999996582031,10|8,1:2|1:2,0:0:0:0:
205,338,223152,1,2,1:2:0:0:
17,163,223310,1,2,1:2:0:0:
17,163,223389,1,0,1:2:0:0:
17,162,223468,2,0,P|59:128|113:138,1,111.999996582031,10|8,1:2|1:2,0:2:0:0:
43,370,223784,1,2,1:2:0:0:
43,370,223863,1,0,1:2:0:0:
43,370,223942,1,2,1:2:0:0:
223,168,224099,5,10,1:2:0:0:
310,384,224257,1,10,1:2:0:0:
472,227,224415,1,0,1:2:0:0:
472,227,224494,1,0,1:2:0:0:
472,227,224573,2,0,L|415:235,1,55.9999982910157,4|4,0:3|0:3,0:2:0:0:
289,91,224731,1,10,1:2:0:0:
289,91,224810,1,4,0:3:0:0:
289,91,224889,2,0,L|349:105,1,55.9999982910157,8|8,1:2|1:3,0:2:0:0:
207,249,225047,5,8,1:3:0:0:
162,235,225126,1,8,1:3:0:0:
133,200,225205,1,8,1:3:0:0:
134,155,225284,1,8,1:3:0:0:
162,118,225363,6,0,P|78:101|17:85,1,143.999995605469,6|4,1:2|3:3,0:2:0:0:
21,86,225678,2,0,B|69:41|69:41|37:193,1,191.999994140625,8|4,0:2|0:3,0:2:0:0:
145,375,226231,1,8,0:3:0:0:
151,365,226310,2,4,L|86:350,2,47.9999985351563,4|4|4,0:3|0:3|0:3,0:3:0:0:
245,259,226626,5,4,1:3:0:0:
341,372,226784,1,4,0:3:0:0:
341,372,226863,1,4,0:3:0:0:
341,372,226942,2,0,L|361:267,1,95.9999970703126,8|0,0:3|0:3,0:3:0:0:
379,202,227178,1,8,0:3:0:0:
380,188,227257,1,8,0:3:0:0:
145,28,227573,5,4,0:3:0:0:
128,18,227652,1,8,0:2:0:0:
95,114,227810,1,8,0:2:0:0:
116,120,227889,1,14,0:3:0:0:
44,50,228047,6,0,P|57:115|64:210,1,143.999995605469,6|0,1:2|0:2,0:2:0:0:
19,259,228363,5,4,0:3:0:0:
183,366,228599,5,4,0:3:0:0:
339,296,228915,5,4,0:3:0:0:
317,161,229310,5,4,0:3:0:0:
209,149,229784,5,4,0:3:0:0:
178,230,230257,5,4,0:3:0:0:
